Классический форум-трекер
canvas not supported
Нас вместе: 4 078 939

Ariel Visual | Ariel Deluxe | ARIEL: The Ultimate Crisis of SCEBAI | Ариэль OVA-1 & OVA-2 [1989, OVA, 4 эп.] DVDRip 432p raw


 
 
RSS
Начать новую тему   Ответить на тему    Торрент-трекер NNM-Club -> Аниме с субтитрами -> Аниме (SD)
Автор Сообщение
loki ®
Стаж: 8 лет 9 мес.
Сообщений: 4714
Ratio: 66
Поблагодарили: 36827
100%
Откуда: Днепр
roody.gif
エリアル
Ariel Visual | Ariel Deluxe
ARIEL: The Ultimate Crisis of SCEBAI
Ариэль OVA-1 & OVA-2

Жанр: приключения, фантастика, меха
Тип: OVA
Продолжительность: 2 эп., 30 мин. + 2 эп., 40 мин.
Выпуск: c 01.07.1989 по 21.04.1991
Производство: ANIMATE & J.C. Staff
Режиссер: Ватанабэ Дзюнъити
Автор оригинала: Сасамото Юйти
Ссылки: World-Art, Ani-DB, MAL, ANN
Описание:
Чтобы спасти землю от инопланетных захватчиков и их гигантских монстров, Доктор Кишида делает то же, что сделали бы и другие сумасшедшие ученые: он создает гигантского робота Ариэль, совершенного бойцовского робота-женщину.
К большому сожалению доктора его внучки отказывается управлять этой машиной: у них находятся дела поважнее спасения мира. Да и как им готовиться к вступительным экзаменам в колледж, то и дело получая взбучку в битвах с пришельцами!?
К счастью Кишиды, у пришельцев тоже всё не слава богу. По сведениям, имеющимся у инопланетных созданий, Земля была отличной мишенью: мирный, без особой защиты, лакомый кусочек - теоретически планета должна была сдаться давным давно! Но сейчас война находиться в застое, а отвратительный Финансовый Департамент твердит о перешедших всякие границы затратах на операцию. В связи с этим, из Центрального Галактического Штаба с личным визитом прибывает глава управления. Не уж-то Центр решил нагрянуть с проверкой или они затевают что-то нечистое !?
Теперь будущее всей планеты легло на плечи двух человек: Ая Кишида - одна из внучек Доктора, которая, похоже, должна оставить подготовительные курсы и заняться управлением могущественной Ариэль; и загадочного инопланетянина по-имени Сэйбер Взорвизвезда, который, возможно, обладает той силой, которая позволит избавиться от посягательств раз и навсегда...
© AnimeNfo
Адаптация серии ранобэ (коротких романов с иллюстрациями). OVA начала демонстрироваться в кинотеатрах (вместе со вторым эпизодом Kujakuou) под названием Ariel за три недели до выпуска VHS (21.07.1989, 21.08.1989).
Энкод: Ripping Gods
Формат: DVDRip
Видео: h.264, 576x432, 23.976 fps, 1294 kbps
Аудио: Vorbis, 2 ch, 48 kHz, 115 kbps | Язык: Японский
Субтитры: русские от Fan | английские R1 DVD | Хардсаб: отсутствует
Код:
Общее
Уникальный идентификатор                 : 333519038652206648402499681605260900814 (0xFAE96E2BD57D35841E7648F0146779CE)
Полное имя                               : Ariel - 1 [RG].mkv
Формат                                   : Matroska
Версия формата                           : Version 1
Размер файла                             : 291 Мбайт
Продолжительность                        : 28 м.
Режим общего битрейта                    : Переменный
Общий поток                              : 1414 Кбит/сек
Дата кодирования                         : UTC 2004-05-06 05:25:40
Программа кодирования                    : mkvmerge v0.8.8 built on Apr 23 2004 19:08:32
Библиотека кодирования                   : libebml v0.7.0 + libmatroska v0.7.0

Видео
Идентификатор                            : 1
Формат                                   : MPEG-4 Visual
Профиль формата                          : Advanced Simple@L5
Параметр BVOP формата                    : 2
Параметр QPel формата                    : Да
Параметр GMC формата                     : Без точки перехода
Параметр матрицы формата                 : Default (H.263)
Режим смешивания                         : Сжатый битовый поток
Идентификатор кодека                     : V_MS/VFW/FOURCC / XVID
Идентификатор кодека/Подсказка           : XviD
Продолжительность                        : 28 м.
Битрейт                                  : 1256 Кбит/сек
Ширина                                   : 576 пикселей
Высота                                   : 432 пикселя
Соотношение сторон                       : 4:3
Режим частоты кадров                     : Постоянный
Частота кадров                           : 23,976 кадра/сек
Цветовое пространство                    : YUV
Субдискретизация насыщенности            : 4:2:0
Битовая глубина                          : 8 бит
Тип развёртки                            : Прогрессивная
Метод сжатия                             : С потерями
Бит/(Пиксели*Кадры)                      : 0.211
Размер потока                            : 258 Мбайт (89%)
Библиотека кодирования                   : XviD 1.0.0 RC4 (Hola) (UTC 2004-04-05)
Язык                                     : English
Default                                  : Да
Forced                                   : Нет

Аудио
Идентификатор                            : 2
Формат                                   : Vorbis
Параметр Floor формата                   : 1
Идентификатор кодека                     : A_VORBIS
Продолжительность                        : 28 м.
Вид битрейта                             : Переменный
Битрейт                                  : 130 Кбит/сек
Каналы                                   : 2 канала
Частота                                  : 48,0 КГц
Метод сжатия                             : С потерями
Размер потока                            : 26,6 Мбайт (9%)
Библиотека кодирования                   : libVorbis 1.0 (UTC 2002-07-17)
Язык                                     : Japanese
Default                                  : Да
Forced                                   : Нет
Программа кодирования                    : Made with BeSweet v1.5b24
Encoded_Application/Url                  : http://DSPguru.doom9.org

Текст #1
Идентификатор                            : 3
Формат                                   : VobSub
Режим смешивания                         : zlib
Идентификатор кодека                     : S_VOBSUB
Идентификатор кодека/Информация          : The same subtitle format used on DVDs
Заголовок                                : Picture Subtitles
Язык                                     : English
Default                                  : Нет
Forced                                   : Нет

Текст #2
Идентификатор                            : 4
Формат                                   : UTF-8
Идентификатор кодека                     : S_TEXT/UTF8
Идентификатор кодека/Информация          : UTF-8 Plain Text
Заголовок                                : Text Subtitles
Язык                                     : English
Default                                  : Да
Forced                                   : Нет
01. Episode IV - Scebai's Greatest Crisis (Part One)
02. Episode IV - Scebai's Greatest Crisis (Part Two)
03. The Beginning
04. Great Fall
Скриншоты:


Время раздачи: круглосуточно, до 3 скачавших
[NNM-Club.me]_[RG] ARIEL.torrent
 Торрент: Платиновая раздача  Зарегистрирован
 
Скачать


Примагнититься
 Зарегистрирован:   22 Фев 2015 19:01:37
 Размер:   1,37 GB  (
 Рейтинг:   4,4 (Голосов: 30)
 Поблагодарили:   49
 Проверка:   Оформление проверено модератором 22 Фев 2015 19:02:37
Как cкачать  ·  Как раздать  ·  Правильно оформить  ·  Поднять ратио!  
Загрузка...
Gepardus
Стаж: 8 лет 8 мес.
Сообщений: 362
Ratio: 3,148
100%
japan.gif
И почему сейчас такое не рисуют ?!...
Б.-Б.
Олигарх+
 
Стаж: 8 лет 5 мес.
Сообщений: 814
Ratio: 78,542
Раздал: 48,35 TB
Поблагодарили: 1038
100%
Откуда: Владивосток
ussr.gif
Gepardus писал(а): Перейти к сообщению
И почему сейчас такое не рисуют ?!...

"Сейчас" гораздо лучше рисуют. Когда рисуют.
Skimer
Стаж: 9 лет 3 мес.
Сообщений: 56
Ratio: 3,745
100%
ussr.gif
можно сказать классика ! жаль что сейчас мало рисуют ...
OnZa
Стаж: 11 лет 10 мес.
Сообщений: 1883
Ratio: 28,525
Поблагодарили: 12722
100%
Откуда: moscow
roody.gif
loki
опередил с релизом чертяка Т_Т
Показать сообщения:   
Начать новую тему   Ответить на тему    Торрент-трекер NNM-Club -> Аниме с субтитрами -> Аниме (SD) Часовой пояс: GMT + 3
Страница 1 из 1