Классический форум-трекер
canvas not supported
Нас вместе: 4 103 206

VA - In Woods They Dwell (2014) [FLAC|Lossless|24 Bit] <Dub Techno>


 
 
RSS
Начать новую тему   Ответить на тему    Торрент-трекер NNM-Club -> HD Audio и Многоканальная Музыка -> WEB-DL-Audio
Автор Сообщение
Fraudy ®
Стаж: 10 лет 3 мес.
Сообщений: 2178
Ratio: 140,374
Раздал: 51,08 TB
Поблагодарили: 58354
100%
ussr.gif
VA - In Woods They Dwell (2014)


Год: 2014
Жанр: Dub Techno
Лейбл: Electrosphere Records
Каталог#: ESR001
Продолжительность: 01:16:14

Кодек: FLAC
Битрейт: Lossless
Тип битрейта: 24 Bit
Тип рипа: tracks

Треклист:
01. Giriu Dvasios - Zvaigzdes (03:07)
02. Josef Nemcek - Dark Matter (05:35)
03. If I Had A Hi Fi - Flush (07:48)
04. Sr. Ruido - Etamin (08:44)
05. Peteblas - Static Moves (06:52)
06. Solef - Lost In Red Sky (04:16)
07. Shogun Spy - Echo Of The Night (06:24)
08. Substak - Undersand (03:46)
09. Teemu T - Halo Around Saturn (Vytis Remix) (08:18)
10. Inference - Ghosts In The Fold (07:32)
11. Vejopatis - Melancholija (05:05)
12. Ohmikron - Live In Love (08:47)


Код:

Общее
Полное имя                               : H:\RELIZ 3\VA - In Woods They Dwell - 2014 - FLAC\01. Giriu Dvasios - Zvaigzdes.flac
Формат                                   : FLAC
Формат/Информация                        : Free Lossless Audio Codec
Размер файла                             : 30,9 Мбайт
Продолжительность                        : 3 м. 7 с.
Режим общего битрейта                    : Переменный
Общий поток                              : 1384 Кбит/сек
Альбом                                   : In Woods They Dwell
Альбом/Исполнитель                       : Various Artists
Часть                                    : 1
Часть/Всего                              : 1
Трек                                     : Zvaigzdes
Трек/Положение                           : 01
Трек/Всего                               : 12
Исполнитель                              : Giriu Dvasios
Продюсер                                 : Electrosphere Records
Жанр                                     : Dub Techno
Дата записи                              : 2014
Обложка                                  : Yes
Тип обложки                              : Cover (front)
MIME-тип обложки                         : image/jpeg

Аудио
Формат                                   : FLAC
Формат/Информация                        : Free Lossless Audio Codec
Продолжительность                        : 3 м. 7 с.
Вид битрейта                             : Переменный
Битрейт                                  : 1375 Кбит/сек
Каналы                                   : 2 канала
Частота                                  : 44,1 КГц
Битовая глубина                          : 24 бит
Размер потока                            : 30,7 Мбайт (99%)
Библиотека кодирования                   : libFLAC 1.2.1 (UTC 2007-09-17)

Общее
Полное имя                               : H:\RELIZ 3\VA - In Woods They Dwell - 2014 - FLAC\02. Josef Nemcek - Dark Matter.flac
Формат                                   : FLAC
Формат/Информация                        : Free Lossless Audio Codec
Размер файла                             : 53,2 Мбайт
Продолжительность                        : 5 м. 35 с.
Режим общего битрейта                    : Переменный
Общий поток                              : 1331 Кбит/сек
Альбом                                   : In Woods They Dwell
Альбом/Исполнитель                       : Various Artists
Часть                                    : 1
Часть/Всего                              : 1
Трек                                     : Dark Matter
Трек/Положение                           : 02
Трек/Всего                               : 12
Исполнитель                              : Josef Nemček
Продюсер                                 : Electrosphere Records
Жанр                                     : Dub Techno
Дата записи                              : 2014
Обложка                                  : Yes
Тип обложки                              : Cover (front)
MIME-тип обложки                         : image/jpeg

Аудио
Формат                                   : FLAC
Формат/Информация                        : Free Lossless Audio Codec
Продолжительность                        : 5 м. 35 с.
Вид битрейта                             : Переменный
Битрейт                                  : 1326 Кбит/сек
Каналы                                   : 2 канала
Частота                                  : 44,1 КГц
Битовая глубина                          : 24 бит
Размер потока                            : 53,0 Мбайт (100%)
Библиотека кодирования                   : libFLAC 1.2.1 (UTC 2007-09-17)

Общее
Полное имя                               : H:\RELIZ 3\VA - In Woods They Dwell - 2014 - FLAC\03. If I Had A Hi Fi - Flush.flac
Формат                                   : FLAC
Формат/Информация                        : Free Lossless Audio Codec
Размер файла                             : 83,0 Мбайт
Продолжительность                        : 7 м. 48 с.
Режим общего битрейта                    : Переменный
Общий поток                              : 1487 Кбит/сек
Альбом                                   : In Woods They Dwell
Альбом/Исполнитель                       : Various Artists
Часть                                    : 1
Часть/Всего                              : 1
Трек                                     : Flush
Трек/Положение                           : 03
Трек/Всего                               : 12
Исполнитель                              : If I Had A Hi Fi
Продюсер                                 : Electrosphere Records
Жанр                                     : Dub Techno
Дата записи                              : 2014
Обложка                                  : Yes
Тип обложки                              : Cover (front)
MIME-тип обложки                         : image/jpeg

Аудио
Формат                                   : FLAC
Формат/Информация                        : Free Lossless Audio Codec
Продолжительность                        : 7 м. 48 с.
Вид битрейта                             : Переменный
Битрейт                                  : 1484 Кбит/сек
Каналы                                   : 2 канала
Частота                                  : 44,1 КГц
Битовая глубина                          : 24 бит
Размер потока                            : 82,8 Мбайт (100%)
Библиотека кодирования                   : libFLAC 1.2.1 (UTC 2007-09-17)

Общее
Полное имя                               : H:\RELIZ 3\VA - In Woods They Dwell - 2014 - FLAC\04. Sr. Ruido - Etamin.flac
Формат                                   : FLAC
Формат/Информация                        : Free Lossless Audio Codec
Размер файла                             : 81,1 Мбайт
Продолжительность                        : 8 м. 44 с.
Режим общего битрейта                    : Переменный
Общий поток                              : 1299 Кбит/сек
Альбом                                   : In Woods They Dwell
Альбом/Исполнитель                       : Various Artists
Часть                                    : 1
Часть/Всего                              : 1
Трек                                     : Etamin
Трек/Положение                           : 04
Трек/Всего                               : 12
Исполнитель                              : Sr. Ruido
Продюсер                                 : Electrosphere Records
Жанр                                     : Dub Techno
Дата записи                              : 2014
Обложка                                  : Yes
Тип обложки                              : Cover (front)
MIME-тип обложки                         : image/jpeg

Аудио
Формат                                   : FLAC
Формат/Информация                        : Free Lossless Audio Codec
Продолжительность                        : 8 м. 44 с.
Вид битрейта                             : Переменный
Битрейт                                  : 1296 Кбит/сек
Каналы                                   : 2 канала
Частота                                  : 44,1 КГц
Битовая глубина                          : 24 бит
Размер потока                            : 80,9 Мбайт (100%)
Библиотека кодирования                   : libFLAC 1.2.1 (UTC 2007-09-17)

Общее
Полное имя                               : H:\RELIZ 3\VA - In Woods They Dwell - 2014 - FLAC\05. Peteblas - Static Moves.flac
Формат                                   : FLAC
Формат/Информация                        : Free Lossless Audio Codec
Размер файла                             : 76,0 Мбайт
Продолжительность                        : 6 м. 52 с.
Режим общего битрейта                    : Переменный
Общий поток                              : 1548 Кбит/сек
Альбом                                   : In Woods They Dwell
Альбом/Исполнитель                       : Various Artists
Часть                                    : 1
Часть/Всего                              : 1
Трек                                     : Static Moves
Трек/Положение                           : 05
Трек/Всего                               : 12
Исполнитель                              : Peteblas
Продюсер                                 : Electrosphere Records
Жанр                                     : Dub Techno
Дата записи                              : 2014
Обложка                                  : Yes
Тип обложки                              : Cover (front)
MIME-тип обложки                         : image/jpeg

Аудио
Формат                                   : FLAC
Формат/Информация                        : Free Lossless Audio Codec
Продолжительность                        : 6 м. 52 с.
Вид битрейта                             : Переменный
Битрейт                                  : 1543 Кбит/сек
Каналы                                   : 2 канала
Частота                                  : 44,1 КГц
Битовая глубина                          : 24 бит
Размер потока                            : 75,8 Мбайт (100%)
Библиотека кодирования                   : libFLAC 1.2.1 (UTC 2007-09-17)

Общее
Полное имя                               : H:\RELIZ 3\VA - In Woods They Dwell - 2014 - FLAC\06. Solef - Lost In Red Sky.flac
Формат                                   : FLAC
Формат/Информация                        : Free Lossless Audio Codec
Размер файла                             : 41,0 Мбайт
Продолжительность                        : 4 м. 16 с.
Режим общего битрейта                    : Переменный
Общий поток                              : 1343 Кбит/сек
Альбом                                   : In Woods They Dwell
Альбом/Исполнитель                       : Various Artists
Часть                                    : 1
Часть/Всего                              : 1
Трек                                     : Lost In Red Sky
Трек/Положение                           : 06
Трек/Всего                               : 12
Исполнитель                              : Solef
Продюсер                                 : Electrosphere Records
Жанр                                     : Dub Techno
Дата записи                              : 2014
Обложка                                  : Yes
Тип обложки                              : Cover (front)
MIME-тип обложки                         : image/jpeg

Аудио
Формат                                   : FLAC
Формат/Информация                        : Free Lossless Audio Codec
Продолжительность                        : 4 м. 16 с.
Вид битрейта                             : Переменный
Битрейт                                  : 1337 Кбит/сек
Каналы                                   : 2 канала
Частота                                  : 44,1 КГц
Битовая глубина                          : 24 бит
Размер потока                            : 40,8 Мбайт (100%)
Библиотека кодирования                   : libFLAC 1.2.1 (UTC 2007-09-17)

Общее
Полное имя                               : H:\RELIZ 3\VA - In Woods They Dwell - 2014 - FLAC\07. Shogun Spy - Echo Of The Night.flac
Формат                                   : FLAC
Формат/Информация                        : Free Lossless Audio Codec
Размер файла                             : 61,7 Мбайт
Продолжительность                        : 6 м. 24 с.
Режим общего битрейта                    : Переменный
Общий поток                              : 1348 Кбит/сек
Альбом                                   : In Woods They Dwell
Альбом/Исполнитель                       : Various Artists
Часть                                    : 1
Часть/Всего                              : 1
Трек                                     : Echo Of The Night
Трек/Положение                           : 07
Трек/Всего                               : 12
Исполнитель                              : Shogun Spy
Продюсер                                 : Electrosphere Records
Жанр                                     : Dub Techno
Дата записи                              : 2014
Обложка                                  : Yes
Тип обложки                              : Cover (front)
MIME-тип обложки                         : image/jpeg

Аудио
Формат                                   : FLAC
Формат/Информация                        : Free Lossless Audio Codec
Продолжительность                        : 6 м. 24 с.
Вид битрейта                             : Переменный
Битрейт                                  : 1344 Кбит/сек
Каналы                                   : 2 канала
Частота                                  : 44,1 КГц
Битовая глубина                          : 24 бит
Размер потока                            : 61,5 Мбайт (100%)
Библиотека кодирования                   : libFLAC 1.2.1 (UTC 2007-09-17)

Общее
Полное имя                               : H:\RELIZ 3\VA - In Woods They Dwell - 2014 - FLAC\08. Substak - Undersand.flac
Формат                                   : FLAC
Формат/Информация                        : Free Lossless Audio Codec
Размер файла                             : 36,1 Мбайт
Продолжительность                        : 3 м. 46 с.
Режим общего битрейта                    : Переменный
Общий поток                              : 1339 Кбит/сек
Альбом                                   : In Woods They Dwell
Альбом/Исполнитель                       : Various Artists
Часть                                    : 1
Часть/Всего                              : 1
Трек                                     : Undersand
Трек/Положение                           : 08
Трек/Всего                               : 12
Исполнитель                              : Substak
Продюсер                                 : Electrosphere Records
Жанр                                     : Dub Techno
Дата записи                              : 2014
Обложка                                  : Yes
Тип обложки                              : Cover (front)
MIME-тип обложки                         : image/jpeg

Аудио
Формат                                   : FLAC
Формат/Информация                        : Free Lossless Audio Codec
Продолжительность                        : 3 м. 46 с.
Вид битрейта                             : Переменный
Битрейт                                  : 1332 Кбит/сек
Каналы                                   : 2 канала
Частота                                  : 44,1 КГц
Битовая глубина                          : 24 бит
Размер потока                            : 35,9 Мбайт (99%)
Библиотека кодирования                   : libFLAC 1.2.1 (UTC 2007-09-17)

Общее
Полное имя                               : H:\RELIZ 3\VA - In Woods They Dwell - 2014 - FLAC\09. Teemu T - Halo Around Saturn (Vytis Remix).flac
Формат                                   : FLAC
Формат/Информация                        : Free Lossless Audio Codec
Размер файла                             : 88,2 Мбайт
Продолжительность                        : 8 м. 18 с.
Режим общего битрейта                    : Переменный
Общий поток                              : 1486 Кбит/сек
Альбом                                   : In Woods They Dwell
Альбом/Исполнитель                       : Various Artists
Часть                                    : 1
Часть/Всего                              : 1
Трек                                     : Halo Around Saturn (Vytis Remix)
Трек/Положение                           : 09
Трек/Всего                               : 12
Исполнитель                              : Teemu T
Продюсер                                 : Electrosphere Records
Жанр                                     : Dub Techno
Дата записи                              : 2014
Обложка                                  : Yes
Тип обложки                              : Cover (front)
MIME-тип обложки                         : image/jpeg

Аудио
Формат                                   : FLAC
Формат/Информация                        : Free Lossless Audio Codec
Продолжительность                        : 8 м. 18 с.
Вид битрейта                             : Переменный
Битрейт                                  : 1482 Кбит/сек
Каналы                                   : 2 канала
Частота                                  : 44,1 КГц
Битовая глубина                          : 24 бит
Размер потока                            : 88,0 Мбайт (100%)
Библиотека кодирования                   : libFLAC 1.2.1 (UTC 2007-09-17)

Общее
Полное имя                               : H:\RELIZ 3\VA - In Woods They Dwell - 2014 - FLAC\10. Inference - Ghosts In The Fold.flac
Формат                                   : FLAC
Формат/Информация                        : Free Lossless Audio Codec
Размер файла                             : 80,2 Мбайт
Продолжительность                        : 7 м. 32 с.
Режим общего битрейта                    : Переменный
Общий поток                              : 1489 Кбит/сек
Альбом                                   : In Woods They Dwell
Альбом/Исполнитель                       : Various Artists
Часть                                    : 1
Часть/Всего                              : 1
Трек                                     : Ghosts In The Fold
Трек/Положение                           : 10
Трек/Всего                               : 12
Исполнитель                              : Inference
Продюсер                                 : Electrosphere Records
Жанр                                     : Dub Techno
Дата записи                              : 2014
Обложка                                  : Yes
Тип обложки                              : Cover (front)
MIME-тип обложки                         : image/jpeg

Аудио
Формат                                   : FLAC
Формат/Информация                        : Free Lossless Audio Codec
Продолжительность                        : 7 м. 32 с.
Вид битрейта                             : Переменный
Битрейт                                  : 1485 Кбит/сек
Каналы                                   : 2 канала
Частота                                  : 44,1 КГц
Битовая глубина                          : 24 бит
Размер потока                            : 80,0 Мбайт (100%)
Библиотека кодирования                   : libFLAC 1.2.1 (UTC 2007-09-17)

Общее
Полное имя                               : H:\RELIZ 3\VA - In Woods They Dwell - 2014 - FLAC\11. Vejopatis - Melancholija.flac
Формат                                   : FLAC
Формат/Информация                        : Free Lossless Audio Codec
Размер файла                             : 49,2 Мбайт
Продолжительность                        : 5 м. 5 с.
Режим общего битрейта                    : Переменный
Общий поток                              : 1354 Кбит/сек
Альбом                                   : In Woods They Dwell
Альбом/Исполнитель                       : Various Artists
Часть                                    : 1
Часть/Всего                              : 1
Трек                                     : Melancholija
Трек/Положение                           : 11
Трек/Всего                               : 12
Исполнитель                              : Vejopatis
Продюсер                                 : Electrosphere Records
Жанр                                     : Dub Techno
Дата записи                              : 2014
Обложка                                  : Yes
Тип обложки                              : Cover (front)
MIME-тип обложки                         : image/jpeg

Аудио
Формат                                   : FLAC
Формат/Информация                        : Free Lossless Audio Codec
Продолжительность                        : 5 м. 5 с.
Вид битрейта                             : Переменный
Битрейт                                  : 1349 Кбит/сек
Каналы                                   : 2 канала
Частота                                  : 44,1 КГц
Битовая глубина                          : 24 бит
Размер потока                            : 49,0 Мбайт (100%)
Библиотека кодирования                   : libFLAC 1.2.1 (UTC 2007-09-17)

Общее
Полное имя                               : H:\RELIZ 3\VA - In Woods They Dwell - 2014 - FLAC\12. Ohmikron - Live In Love.flac
Формат                                   : FLAC
Формат/Информация                        : Free Lossless Audio Codec
Размер файла                             : 98,6 Мбайт
Продолжительность                        : 8 м. 47 с.
Режим общего битрейта                    : Переменный
Общий поток                              : 1569 Кбит/сек
Альбом                                   : In Woods They Dwell
Альбом/Исполнитель                       : Various Artists
Часть                                    : 1
Часть/Всего                              : 1
Трек                                     : Live In Love
Трек/Положение                           : 12
Трек/Всего                               : 12
Исполнитель                              : Ohmikron
Продюсер                                 : Electrosphere Records
Жанр                                     : Dub Techno
Дата записи                              : 2014
Обложка                                  : Yes
Тип обложки                              : Cover (front)
MIME-тип обложки                         : image/jpeg

Аудио
Формат                                   : FLAC
Формат/Информация                        : Free Lossless Audio Codec
Продолжительность                        : 8 м. 47 с.
Вид битрейта                             : Переменный
Битрейт                                  : 1566 Кбит/сек
Каналы                                   : 2 канала
Частота                                  : 44,1 КГц
Битовая глубина                          : 24 бит
Размер потока                            : 98,4 Мбайт (100%)
Библиотека кодирования                   : libFLAC 1.2.1 (UTC 2007-09-17)
 



Время раздачи: До 5 сидов
[NNM-Club.me]_VA - In Woods They Dwell - 2014 - FLAC.torrent
 Торрент: Платиновая раздача  Зарегистрирован
 
Скачать


Примагнититься
 Зарегистрирован:   16 Окт 2014 17:46:57
 Размер:   811 MB  (
 Рейтинг:   4,3 (Голосов: 17)
 Поблагодарили:   64
 Проверка:   Оформление проверено модератором 16 Окт 2014 18:44:41
Как cкачать  ·  Как раздать  ·  Правильно оформить  ·  Поднять ратио!  
Fraudy ®
Стаж: 10 лет 3 мес.
Сообщений: 2178
Ratio: 140,374
Раздал: 51,08 TB
Поблагодарили: 58354
100%
ussr.gif
.... под осень, всем приятного прослушивания :)

_________________
Искусство должно принадлежать народу © В.И. Ульянов-Ленин™
Pampkin
Стаж: 3 года 4 мес.
Сообщений: 14
Ratio: 2,6
45.34%
czechrepublic.gif
Spasibo bolšoe!!!!
Показать сообщения:   
Начать новую тему   Ответить на тему    Торрент-трекер NNM-Club -> HD Audio и Многоканальная Музыка -> WEB-DL-Audio Часовой пояс: GMT + 3
Страница 1 из 1