Классический форум-трекер
canvas not supported
Нас вместе: 4 079 025

Ninin ga Shinobuden: The Nonsense Kunoichi / Ninja Nonsense: The Legend of Shinobu / 2x2 Shinobuden / Дважды два - это Синобу [2004, TV, 12 эп.] DVDrip 480p raw


 
 
RSS
Начать новую тему   Ответить на тему    Торрент-трекер NNM-Club -> Аниме с субтитрами -> Аниме (SD)
Автор Сообщение
balrogg ®
Стаж: 12 лет 3 мес.
Сообщений: 2764
Ratio: 14,652
Раздал: 10,96 TB
Поблагодарили: 12659
100%
roody.gif
ニニンがシノブ伝 The nonsense KUNOICHI fiction
Ninin ga Shinobuden: The Nonsense Kunoichi Fiction
Ninja Nonsense: The Legend of Shinobu
2 X 2 = The Legend of Shinobu
2x2 Shinobuden
Дважды два - это Синобу

Жанр: комедия, пародия
Тип: ТВ-сериал
Продолжительность: 12 эп., 25 мин.
Выпуск: c 10.07.2004 по 25.09.2004
Студия: UFO Table
Режиссер: Мацуи Хитоюки
Автор оригинала: Кога Рёйти
Снято по манге: Ninin ga Shinobuden
Ссылки: World-Art, Ani-DB, MAL, ANN
Описание:
Жили-были ниндзя, и был у них в тренировочном центре мастер Онсокумару. Жили они припеваючи, танцующи, выпивающие и чего только праздно не делающие. Но главной целью для них являлся завет мастера: "Женщину раздень, прижми, соблазни!" или ты не настоящий ниндзя. А как же быть девушкам-ниндзя? Легко им быть! Делов-то: раздеться, прижаться, соблазниться. Это кодекс ниндзя и чтить его – основная задача...
...И вот жили они не тужили, прикалываясь и подкалываясь, пока мастер не решил проэкзаменовать подающую надежды Шинобу – стырить побольше трусиков у школьниц района (как видите, мастер, он же Онсокумару, никогда не упускал возможности поугарать). С этого и начинается история – временами забавная, временами откровенно смешная, но без преувеличения – не скучная. Которая ближе познакомит вас с образом жизни ниндзя, приоткроет доселе скрываемые тайны.
© oldingt
Зачем это смотреть?
Хочешь стать ниндзя? А умеешь ли ты выпрыгивать из трусов вверх ногами? Нет?! Тогда какой из тебя ниндзя?!!
А смотреть надо, потому что аниме уж больно хорошее. И трава хорошей была...
© balrogg
Формат: DVDRip
Видео: h.264, 704x480, 23.976 fps, 1176 kbps
Аудио: AAC, 2 ch, 48 kHz, 197 kbps | Язык: Японский
Субтитры: русские от TuXuu | Хардсаб: отсутствует
Код:
Общее
Полное имя                               : Ninin ga Shinobuden The Nonsense Kunoichi Fiction 01 [DVDrip 704x480 x264 AAC].mp4
Формат                                   : MPEG-4
Профиль формата                          : Base Media
Идентификатор кодека                     : isom
Размер файла                             : 235 Мбайт
Продолжительность                        : 23 м.
Режим общего битрейта                    : Переменный
Общий поток                              : 1378 Кбит/сек
Дата кодирования                         : UTC 2008-03-29 16:12:37
Дата пометки                             : UTC 2008-03-29 16:12:37

Видео
Идентификатор                            : 1
Формат                                   : AVC
Формат/Информация                        : Advanced Video Codec
Профиль формата                          : Main@L4.1
Параметр CABAC формата                   : Да
Параметр ReFrames формата                : 3 кадра
Идентификатор кодека                     : avc1
Идентификатор кодека/Информация          : Advanced Video Coding
Продолжительность                        : 23 м.
Битрейт                                  : 1176 Кбит/сек
Максимальный битрейт                     : 6340 Кбит/сек
Ширина                                   : 704 пикселя
Высота                                   : 480 пикселей
Соотношение сторон                       : 4:3
Режим частоты кадров                     : Переменный
Частота кадров                           : 26,133 кадров/сек
Частота кадров в оригинале               : 29,970 кадров/сек
Минимальная частота кадров               : 14,985 кадров/сек
Максимальная частота кадров              : 119,880 кадров/сек
Стандарт вещания                         : NTSC
Цветовое пространство                    : YUV
Субдискретизация насыщенности            : 4:2:0
Битовая глубина                          : 8 бит
Тип развёртки                            : Прогрессивная
Бит/(Пиксели*Кадры)                      : 0.133
Размер потока                            : 201 Мбайт (85%)
Библиотека кодирования                   : x264 core 58
Настройки программы                      : cabac=1 / ref=2 / deblock=1:0:0 / analyse=0x1:0x111 / me=umh / subme=6 / brdo=1 / mixed_ref=0 / me_range=32 / chroma_me=1 / trellis=1 / 8x8dct=0 / cqm=0 / deadzone=21,11 / chroma_qp_offset=0 / threads=2 / nr=0 / decimate=0 / mbaff=0 / bframes=3 / b_pyramid=1 / b_adapt=1 / b_bias=0 / direct=1 / wpredb=1 / bime=1 / keyint=250 / keyint_min=25 / scenecut=40(pre) / rc=crf / crf=16.0 / rceq='blurCplx^(1-qComp)' / qcomp=0.60 / qpmin=10 / qpmax=21 / qpstep=4 / ip_ratio=1.40 / pb_ratio=1.30
Дата кодирования                         : UTC 2008-03-25 17:00:42
Дата пометки                             : UTC 2008-03-29 16:13:01

Аудио
Идентификатор                            : 2
Формат                                   : AAC
Формат/Информация                        : Advanced Audio Codec
Профиль формата                          : LC
Идентификатор кодека                     : 40
Продолжительность                        : 23 м.
Вид битрейта                             : Переменный
Битрейт                                  : 197 Кбит/сек
Максимальный битрейт                     : 221 Кбит/сек
Каналы                                   : 2 канала
Расположение каналов                     : Front: L R
Частота                                  : 48,0 КГц
Метод сжатия                             : С потерями
Размер потока                            : 33,6 Мбайт (14%)
Дата кодирования                         : UTC 2008-03-29 16:12:59
Дата пометки                             : UTC 2008-03-29 16:13:01

Меню
00:00:00.000                             : OP
00:01:30.000                             : A PART
00:11:08.000                             : EYE CATCH
00:11:18.000                             : B PART
00:21:50.000                             : ED
00:23:20.000                             : NEXT
1 Ninja Trainee Shinobu / The Head Master Appears
2 Ninjas Elated over Cherry Blossom Viewing / Shinobu Goes On a Date with Kaede
3 Onsokumaru Gets Angry / Shinobu Leaves the Manor
4 Ninjas Hate the Heat / Miyabi in Love
5 Onsokumaru Goes to Hell / The Ninjas Host a Summer Festival
6 A Typhoon Arrives / The Ninjas Go Mushroom Picking
7 Onsokumaru Is Stuck / Shinobu Plays Ball
8 Shinobu in Disguise / A Monster Plant Goes Crazy
9 The Girls Get Warm / Kaede Gets Sick
10 The Ninjas Have Christmas / The Ninja Are Cursed
11 The Legend of Sasuke Begins / The Grateful Ninja
12 Onsokumaru`s Secret / Farewell to Ninja Nonsense
Скриншоты:


Реставрация от: vados_loki
[NNM-Club.ru] Ninin ga Shinobuden The Nonsense Kunoichi Fiction [DVDrip 704x480 x264 AAC].torrent
 Торрент: Платиновая раздача  Зарегистрирован
 
Скачать


 Зарегистрирован:   24 Фев 2009 21:48:10
 Размер:   3,3 GB  (
 Рейтинг:   4,6 (Голосов: 25)
 Поблагодарили:   50
 Проверка:   Оформление проверено модератором 24 Фев 2009 23:35:00
Как cкачать  ·  Как раздать  ·  Правильно оформить  ·  Поднять ратио!  
Загрузка...
DonCiHot
Стаж: 11 лет 10 мес.
Сообщений: 7405
Ratio: 20,505
Поблагодарили: 2138
100%
roody.gif
Забавная вещица, спасибо за качество =^^=

ps
рекорд по скриншотам побит=)

_________________
FAQ :: FAQ2 :: RSS2
OnZa
Стаж: 11 лет 9 мес.
Сообщений: 1883
Ratio: 28,525
Поблагодарили: 12718
100%
Откуда: moscow
roody.gif
DonCiHot
да можно даже не качать, достаточно на скрины посмотреть )))
Отличный сериал
ЗЫ
Надо пересмотреть @_@

_________________
PSN id: onza_van_nekk
keskesadzi
Стаж: 10 лет
Сообщений: 69
Ratio: 4,503
100%
russia.gif
да действительно мульт супер примочки в нем прикольные чемно напоминает извесный сериал наруто но только главнай персоонаж девушка я советую посмотреть его спасибки за мульт
loliworlds
Стаж: 5 лет 9 мес.
Сообщений: 502
Ratio: 267,036
Раздал: 7,532 TB
Поблагодарили: 7414
100%
Спасибо, ржачная анимешка!
Показать сообщения:   
Начать новую тему   Ответить на тему    Торрент-трекер NNM-Club -> Аниме с субтитрами -> Аниме (SD) Часовой пояс: GMT + 3
Страница 1 из 1