Классический форум-трекер
canvas not supported
Нас вместе: 4 079 383

VA - День победы (2010) [FLAC|Lossless] <Военные песни>


 
 
RSS
Начать новую тему   Ответить на тему    Торрент-трекер NNM-Club -> Шансон, Авторская и Военная песня -> Авторская и Военная песня (Lossless)
Автор Сообщение
vover&vover ®
 
Стаж: 8 лет 9 мес.
Сообщений: 191
Ratio: 151,199
Раздал: 23,48 TB
Поблагодарили: 9667
100%
nnm-club.gif
VA - День победы (2010)
Год: 2010
Жанр: Военные песни
Продолжительность: 01:07:19

Кодек: FLAC
Битрейт: Lossless

Треклист:
01. День Победы - (Д.Тухманов - В.Харитонов) Л.Лещенко
02. Вернулся я на родину - (М.Фрадкин - М.Матусовский) Л.Утесов
03. Давай закурим - (М.Табачников - И.Френкель) К.Шульженко
04. Песенка фронтового шофера - (Б.Мокроусов - Н.Лабковский, Б.Ласкин) М.Бернес
05. Огонек - (Инстр. В.Кнушевицкого - М.Исаковский) В.Нечаев
06. Моя любимая - (М.Блантер - Е.Долматовский) В.Власов
07. Вечер на Рейде - (В.Соловьев-Седой - А.Чуркин) В.Бучников. В.Нечаев, Краснознаменный анс. им. Александрова
08. Смуглянка - (А.Новиков - Я.Шведов) Краснознаменный анс. им. Александрова
09. Прощайте, скалистые горы - (Е.Жарковский - Н.Букин) П.Киричек,Ф. и Л.Черные
10. Алеша - (Э.Колмановский - К.Ваншенкин) А.Иошпе, С.Рахимов
11. Москвичи - (А.Эшпай - Е.Винокуров) М.Бернес
12. Где же вы теперь, друзья однополчане - (В.Соловьев-Седой - А.Фатьянов) К.Шульженко
13. Если б не было войны - (М.Минков - И.Шаферан) В.Толкунова
14. За того парня - (М.Фрадкин - Р.Рождественский) Л.Лещенко
15. Последний бой - (М.Ножкин-М.Ножкин) М.Ножкин
16. На безымянной высоте - (В.Баснер - М.Матусовский) Ю.Гуляев
17. Мгновенья - (М.Таривердиев - Р.Рождественский) И.Кобзон
18. Журавли - (Я.Френкель - Р.Гамзатов, пер. Н.Гребнева) М.Бернес
19. Жди меня - (К.Симонов - К.Молчанов) Э.Хиль
20. Нам нужна победа - (Б.Окуджава-Б.Окуджава) Н.Ургант
Код: выделить все

Exact Audio Copy V0.99 prebeta 5 from 4. May 2009

Отчёт EAC об извлечении, выполненном 29. мая 2011, 16:07

Various / День Победы

Дисковод: Optiarc DVD RW AD-5260S   Adapter: 2  ID: 1

Режим чтения                 : Достоверность
Использование точного потока : Да
Отключение кэша аудио        : Нет
Использование указателей C2  : Нет

Коррекция смещения при чтении                     : 48
Способность читать области Lead-in и Lead-out     : Нет
Заполнение пропущенных сэмплов тишиной            : Да
Удаление блоков с тишиной в начале и конце        : Нет
При вычислениях CRC использовались нулевые сэмплы : Нет
Интерфейс                                         : Установленный внешний ASPI-интерфейс
Обработка зазоров                                 : Не обнаружено, добавлено к предыдущему треку

Выходной формат          : Пользовательский кодировщик
Выбранный битрейт        : 768 kBit/s
Качество                 : Высокий
Добавление ID3-тэга      : Нет
Утилита сжатия           : C:\Program Files (x86)\Exact Audio Copy\FLAC\FLAC.EXE
Дополнительные параметры : -6 -V -T "ARTIST=%a" -T "TITLE=%t" -T "ALBUM=%g" -T "DATE=%y" -T "TRACKNUMBER=%n" -T "GENRE=%m" -T "COMMENT=%e" %s -o %d

TOC извлечённого CD

     Трек |   Старт  | Длительность | Начальный сектор | Конечный сектор
    ---------------------------------------------------------------------
       1  |  0:00.00 |    3:43.20   |           0      |      16744
       2  |  3:43.20 |    2:37.43   |       16745      |      28562
       3  |  6:20.63 |    2:36.21   |       28563      |      40283
       4  |  8:57.09 |    2:41.23   |       40284      |      52381
       5  | 11:38.32 |    4:21.19   |       52382      |      71975
       6  | 15:59.51 |    2:42.15   |       71976      |      84140
       7  | 18:41.66 |    5:21.05   |       84141      |     108220
       8  | 24:02.71 |    2:54.44   |      108221      |     121314
       9  | 26:57.40 |    3:02.71   |      121315      |     135035
      10  | 30:00.36 |    4:22.05   |      135036      |     154690
      11  | 34:22.41 |    2:21.01   |      154691      |     165266
      12  | 36:43.42 |    3:05.68   |      165267      |     179209
      13  | 39:49.35 |    3:11.27   |      179210      |     193561
      14  | 43:00.62 |    4:18.20   |      193562      |     212931
      15  | 47:19.07 |    2:41.49   |      212932      |     225055
      16  | 50:00.56 |    4:37.00   |      225056      |     245830
      17  | 54:37.56 |    2:51.14   |      245831      |     258669
      18  | 57:28.70 |    4:12.46   |      258670      |     277615
      19  | 61:41.41 |    2:44.27   |      277616      |     289942
      20  | 64:25.68 |    3:00.40   |      289943      |     303482

Трек  1

     Имя файла E:\FLAC\День победы\2010-День Победы\01. День Победы-День Победы.wav

     Пиковый уровень 77.9 %
     Качество трека 100.0 %
     CRC теста AD8E5067
     CRC копии AD8E5067
     Точное извлечение (достоверность 2)  [DDDB683C]
     Копирование... OK

Трек  2

     Имя файла E:\FLAC\День победы\2010-День Победы\02. Вернулся я на Родину-Вернулся я на Родину.wav

     Пиковый уровень 84.2 %
     Качество трека 100.0 %
     CRC теста E987A3F9
     CRC копии E987A3F9
     Точное извлечение (достоверность 2)  [D528F3F4]
     Копирование... OK

Трек  3

     Имя файла E:\FLAC\День победы\2010-День Победы\03. Давай закурим-Давай закурим.wav

     Пиковый уровень 59.2 %
     Качество трека 100.0 %
     CRC теста 39A5D61F
     CRC копии 39A5D61F
     Точное извлечение (достоверность 1)  [EE4663A7]
     Копирование... OK

Трек  4

     Имя файла E:\FLAC\День победы\2010-День Победы\04. Песенка фронтового шофера-Песенка фронтового шофера.wav

     Пиковый уровень 83.7 %
     Качество трека 100.0 %
     CRC теста AAB67049
     CRC копии AAB67049
     Точное извлечение (достоверность 1)  [83B1D580]
     Копирование... OK

Трек  5

     Имя файла E:\FLAC\День победы\2010-День Победы\05. Огонек-Огонек.wav

     Пиковый уровень 75.7 %
     Качество трека 100.0 %
     CRC теста 2F15348C
     CRC копии 2F15348C
     Точное извлечение (достоверность 1)  [365B3380]
     Копирование... OK

Трек  6

     Имя файла E:\FLAC\День победы\2010-День Победы\06. Моя любимая-Моя любимая.wav

     Пиковый уровень 68.1 %
     Качество трека 100.0 %
     CRC теста 5AB8EA99
     CRC копии 5AB8EA99
     Точное извлечение (достоверность 1)  [DBE778A2]
     Копирование... OK

Трек  7

     Имя файла E:\FLAC\День победы\2010-День Победы\07. Вечер на рейде-Вечер на рейде.wav

     Пиковый уровень 61.4 %
     Качество трека 100.0 %
     CRC теста 71AB16CE
     CRC копии 71AB16CE
     Точное извлечение (достоверность 1)  [C886DAF6]
     Копирование... OK

Трек  8

     Имя файла E:\FLAC\День победы\2010-День Победы\08. Смуглянка-Смуглянка.wav

     Пиковый уровень 77.9 %
     Качество трека 100.0 %
     CRC теста 65D875B3
     CRC копии 65D875B3
     Точное извлечение (достоверность 1)  [952E1ACF]
     Копирование... OK

Трек  9

     Имя файла E:\FLAC\День победы\2010-День Победы\09. Прщайте, скалистые горы-Прщайте, скалистые горы.wav

     Пиковый уровень 68.4 %
     Качество трека 99.9 %
     CRC теста DC533964
     CRC копии DC533964
     Точное извлечение (достоверность 1)  [3CA0756B]
     Копирование... OK

Трек 10

     Имя файла E:\FLAC\День победы\2010-День Победы\10. Алеша-Алеша.wav

     Пиковый уровень 51.0 %
     Качество трека 100.0 %
     CRC теста 464387C8
     CRC копии 464387C8
     Точное извлечение (достоверность 1)  [513C8C60]
     Копирование... OK

Трек 11

     Имя файла E:\FLAC\День победы\2010-День Победы\11. Москвичи-Москвичи.wav

     Пиковый уровень 70.1 %
     Качество трека 100.0 %
     CRC теста 6B5A9BF8
     CRC копии 6B5A9BF8
     Точное извлечение (достоверность 1)  [B70187C6]
     Копирование... OK

Трек 12

     Имя файла E:\FLAC\День победы\2010-День Победы\12. Где же вы теперь, друзья однополчане-Где же вы теперь, друзья однополчане.wav

     Пиковый уровень 90.7 %
     Качество трека 100.0 %
     CRC теста 13CA7A7A
     CRC копии 13CA7A7A
     Точное извлечение (достоверность 1)  [2559991B]
     Копирование... OK

Трек 13

     Имя файла E:\FLAC\День победы\2010-День Победы\13. Если б небыло войны-Если б небыло войны.wav

     Пиковый уровень 70.0 %
     Качество трека 100.0 %
     CRC теста 98BB9A46
     CRC копии 98BB9A46
     Точное извлечение (достоверность 1)  [A067AE37]
     Копирование... OK

Трек 14

     Имя файла E:\FLAC\День победы\2010-День Победы\14. За того парня-За того парня.wav

     Пиковый уровень 62.6 %
     Качество трека 100.0 %
     CRC теста DA3931DE
     CRC копии DA3931DE
     Точное извлечение (достоверность 1)  [B3031C9D]
     Копирование... OK

Трек 15

     Имя файла E:\FLAC\День победы\2010-День Победы\15. Последний бой-Последний бой.wav

     Пиковый уровень 70.1 %
     Качество трека 100.0 %
     CRC теста 9E86B759
     CRC копии 9E86B759
     Точное извлечение (достоверность 1)  [AB2D8966]
     Копирование... OK

Трек 16

     Имя файла E:\FLAC\День победы\2010-День Победы\16. Набезымянной высоте-Набезымянной высоте.wav

     Пиковый уровень 86.2 %
     Качество трека 100.0 %
     CRC теста 4FF56EC8
     CRC копии 4FF56EC8
     Точное извлечение (достоверность 1)  [93BD7B8A]
     Копирование... OK

Трек 17

     Имя файла E:\FLAC\День победы\2010-День Победы\17. Мгновенья-Мгновенья.wav

     Пиковый уровень 86.3 %
     Качество трека 100.0 %
     CRC теста CE59C05B
     CRC копии CE59C05B
     Точное извлечение (достоверность 1)  [9AF53425]
     Копирование... OK

Трек 18

     Имя файла E:\FLAC\День победы\2010-День Победы\18. Журавли-Журавли.wav

     Пиковый уровень 82.6 %
     Качество трека 100.0 %
     CRC теста CD2797A9
     CRC копии CD2797A9
     Точное извлечение (достоверность 1)  [5FBEB9B4]
     Копирование... OK

Трек 19

     Имя файла E:\FLAC\День победы\2010-День Победы\19. Жди меня-Жди меня.wav

     Пиковый уровень 65.0 %
     Качество трека 99.9 %
     CRC теста 62DC0035
     CRC копии 62DC0035
     Точное извлечение (достоверность 1)  [98F99E56]
     Копирование... OK

Трек 20

     Имя файла E:\FLAC\День победы\2010-День Победы\20. Нам нужна победа-Нам нужна победа.wav

     Пиковый уровень 70.4 %
     Качество трека 100.0 %
     CRC теста F022C106
     CRC копии F022C106
     Точное извлечение (достоверность 1)  [ECE21240]
     Копирование... OK

Все треки извлечены точно

Ошибок не произошло

Конец отчёта
Код: выделить все

-----------------------

DON'T MODIFY THIS FILE

-----------------------

PERFORMER: auCDtect Task Manager, ver. 1.5.1RC3 build 1.5.1.4
Copyright (c) 2008-2010 y-soft. All rights reserved
http://y-soft.org

ANALYZER: auCDtect: CD records authenticity detector, version 0.8.2
Copyright (c) 2004 Oleg Berngardt. All rights reserved.
Copyright (c) 2004 Alexander Djourik. All rights reserved.

FILE: 20. Нам нужна победа-Нам нужна победа.flac
  Size: 13317341 Hash: EB6DC8660A0703713D2D075E65F71004 Accuracy: -m0
  Conclusion: CDDA 100%
  Signature: EEE34BB7EA64C3F09817AE8F08B4608ED8761F5B
FILE: 19. Жди меня-Жди меня.flac
  Size: 12245198 Hash: D39059B65622597ED2950B4DAFF4BAB0 Accuracy: -m0
  Conclusion: MPEG 93%
  Signature: 378B05EB6FD0AB3E7233AC9161A63BA3F1EEC4FA
FILE: 18. Журавли-Журавли.flac
  Size: 19853887 Hash: 55574DDFA59B535E750299E05D3F0DE2 Accuracy: -m0
  Conclusion: CDDA 100%
  Signature: AF92FC20272363DC4A331CE4C421954E36449D5A
FILE: 17. Мгновенья-Мгновенья.flac
  Size: 15502822 Hash: E6DC8548C89F96C5A53A2FB81B1E905A Accuracy: -m0
  Conclusion: CDDA 100%
  Signature: 0884DE8C6B43AECA85B99E1624740F6FAD1DD06C
FILE: 16. Набезымянной высоте-Набезымянной высоте.flac
  Size: 22698381 Hash: 03F4D8F265D72CA60B04EC7F507A5403 Accuracy: -m0
  Conclusion: CDDA 100%
  Signature: 5162D7943ED7A2C2E85119763B97532AED3B8B66
FILE: 15. Последний бой-Последний бой.flac
  Size: 14131129 Hash: F138C7DF8EBA582153B1367342419B88 Accuracy: -m0
  Conclusion: CDDA 100%
  Signature: C4790BD44CC99522DCCB400D790AEEAE27EC3EA9
FILE: 14. За того парня-За того парня.flac
  Size: 24266341 Hash: CB337CEB9583B8BA1611CAF78B64D590 Accuracy: -m0
  Conclusion: CDDA 99%
  Signature: 71B1DA061C7DE0E3BD10F0DEC28E81F123F37CAA
FILE: 13. Если б небыло войны-Если б небыло войны.flac
  Size: 14946071 Hash: BF987BEDEFD3C6266BCA773948C1C9B0 Accuracy: -m0
  Conclusion: CDDA 43%
  Signature: 2D43B2650BE9C2C8C47CD8BA23B2A1F0EFC33048
FILE: 12. Где же вы теперь, друзья однополчане-Где же вы теперь, друзья однополчане.flac
  Size: 13918009 Hash: 9628F1DE859C6C2F3338F4092130C689 Accuracy: -m0
  Conclusion: CDDA 43%
  Signature: 2E643AA98EECDE09E4204704D7C0E161AF331DC6
FILE: 11. Москвичи-Москвичи.flac
  Size: 11337211 Hash: 42804C00E62EB08FA239917A9D08ABBF Accuracy: -m0
  Conclusion: CDDA 100%
  Signature: 1C2DD96636FF1CC10580CB55E2BFE8F9505418C2
FILE: 09. Прщайте, скалистые горы-Прщайте, скалистые горы.flac
  Size: 12811310 Hash: 40376D62CC1850F86F0093C170CADAC4 Accuracy: -m0
  Conclusion: CDDA 100%
  Signature: CA1509AF02F6EBAC3E5A269FB7AF1CD27577A1F3
FILE: 08. Смуглянка-Смуглянка.flac
  Size: 14711126 Hash: 882514B6DE52269261CFCFF039DB56BD Accuracy: -m0
  Conclusion: CDDA 100%
  Signature: F08BA2F18EBD16ED36417FD1A9B0C0191C7ADEA5
FILE: 07. Вечер на рейде-Вечер на рейде.flac
  Size: 21645318 Hash: 133B0ED1414B77C5CB4393BE90EADB7D Accuracy: -m0
  Conclusion: CDDA 43%
  Signature: 7FBEB10AFB15586532EB506123517E2BBD9EFB69
FILE: 06. Моя любимая-Моя любимая.flac
  Size: 13177140 Hash: 08A5F3DC0FDE39DC1CBD736D6E0EA9B2 Accuracy: -m0
  Conclusion: CDDA 100%
  Signature: A47C3F8773D7F34579763EA0D6CCE5D0D68F6AAF
FILE: 05. Огонек-Огонек.flac
  Size: 19730935 Hash: F8A21EE0595343A5C588A6E2204E9990 Accuracy: -m0
  Conclusion: CDDA 100%
  Signature: 9FFD61F944A2B18A6C87B87198C14DD92ED6C7E9
FILE: 04. Песенка фронтового шофера-Песенка фронтового шофера.flac
  Size: 12835227 Hash: C8CC84DA57B4613B2C3002BAB50CF6E2 Accuracy: -m0
  Conclusion: CDDA 100%
  Signature: A0D3B1210E69096E859DDF7350D35056CC31B40E
FILE: 03. Давай закурим-Давай закурим.flac
  Size: 11638872 Hash: F22116E0A59CF4162A7FE6AD7104F6EF Accuracy: -m0
  Conclusion: CDDA 100%
  Signature: 311630325E3A9850BC511274BF7D4B894B02C45C
FILE: 02. Вернулся я на Родину-Вернулся я на Родину.flac
  Size: 12553325 Hash: B727D886219EAC9FD186A2996FB20D56 Accuracy: -m0
  Conclusion: CDDA 100%
  Signature: E59ED09762455E515F859D66C6BA660BB3DC6A71
FILE: 01. День Победы-День Победы.flac
  Size: 22568000 Hash: 732248C7DC2199673A4A2E722C694A7C Accuracy: -m0
  Conclusion: CDDA 100%
  Signature: B7E97DAB5BAB52768762D87BFC0D7ECD259AD644
FILE: 10. Алеша-Алеша.flac
  Size: 22161000 Hash: 72A63A0D15A82ACBEAAE2F12E773C56A Accuracy: -m0
  Conclusion: MPEG 90%
  Signature: 37E9C630524B9EDDECCC0C8E1DE8045B8B91280A
Время раздачи: С 08:00 до 22:00
[NNM-Club.ru]_2010-Den' Pobedyi.torrent
 Торрент: Платиновая раздача  Зарегистрирован
 
Скачать


 Зарегистрирован:   29 Май 2011 21:27:33
 Размер:   312 MB  (
 Рейтинг:   4,4 (Голосов: 70)
 Поблагодарили:   247
 Проверка:   Оформление проверено модератором 30 Май 2011 04:54:33
Как cкачать  ·  Как раздать  ·  Правильно оформить  ·  Поднять ратио!  
mercuryn
Стаж: 9 лет 11 мес.
Сообщений: 32
Ratio: 191,709
100%
Откуда: Тверь
russia.gif
Очень жаль, что нет исполнителей...
Serzh3
Uploader 100+
Стаж: 7 лет 11 мес.
Сообщений: 140
Ratio: 1512,512
Раздал: 308,6 TB
Поблагодарили: 552
100%
ukraine.gif
mercuryn
Писун
Стаж: 4 года 4 мес.
Сообщений: 52
Ratio: 1,921
12.3%
russia.gif
Я так понимаю это самодельный сборник?!
JurKo22
Олигарх+
 
Стаж: 7 лет 3 мес.
Сообщений: 4410
Ratio: 477,892
Раздал: 17,38 TB
Поблагодарили: 1914
100%
Писун, судя по тому, что в качестве боевой награды изображен Орден Трудового Красного Знамени :шок: , сборник самодельный...

Если с клюквы в американских фильмах мы смеёмся, то от таких нелепостей нужно плакать... :плач:

_________________
Христос воскрес!
Gander82
Стаж: 4 года 8 мес.
Сообщений: 2
Ratio: 20,54
Поблагодарили: 346
2.86%
Спасибо, качество отличное. Вот этот диск в mp3 320 kbps с тегами https://drive.google.com/open?id=0B9v4LCKYp6iPYjlPWVdabFhsRnc
Показать сообщения:   
Начать новую тему   Ответить на тему    Торрент-трекер NNM-Club -> Шансон, Авторская и Военная песня -> Авторская и Военная песня (Lossless) Часовой пояс: GMT + 3
Страница 1 из 1