Классический форум-трекер
canvas not supported
Нас вместе: 4 104 132

Carol Kidd - Tell Me Once Again (2011) [FLAC 2.0|192/24|tracks|WEB-DL] <Jazz>


 
 
RSS
Начать новую тему   Ответить на тему    Торрент-трекер NNM-Club -> HD Audio и Многоканальная Музыка -> WEB-DL-Audio
Автор Сообщение
frost42 ®
Uploader 100+
Стаж: 8 лет 11 мес.
Сообщений: 75
Ratio: 403,849
Раздал: 252 TB
Поблагодарили: 249
100%
russia.gif
Carol Kidd - Tell Me Once Again (2011)
Жанр: Jazz
Издание: linnrecords
Наличие сканов в содержимом раздачи: Буклет

Продолжительность: 00:46:18

Кодек: FLAC 2.0|24bit/192kHz
Битрейт: Lossless|WEB-DL

Тип рипа: Tracks

Треклист:
01. Stormy Weather
02. Moon Blue
03. Alfie
04. Once In A While
05. Tell Me Once Again
06. He Won't Send Roses
07. Moon River
08. I Got Lost In His Arms
09. You Don't Know Me
10. I Loves You Porgy
11. The Shadow Of Your Smile
12. The End Of A Love Affair
----------------------------------------------------------------------------------------------
Analyzed: Tell Me Once Again / Artist: Carol Kidd
----------------------------------------------------------------------------------------------
DR Peak RMS Duration Title [codec]
----------------------------------------------------------------------------------------------
DR14 -0.12 dB -18.72 dB 3:46 01 - Stormy Weather [flac]
DR13 -1.57 dB -17.98 dB 3:29 02 - Moon Blue [flac]
DR14 -0.13 dB -20.20 dB 3:08 03 - Alfie [flac]
DR13 -0.59 dB -18.27 dB 4:20 04 - Once In A While [flac]
DR15 -1.65 dB -22.16 dB 2:46 05 - Tell Me Once Again [flac]
DR14 -1.13 dB -21.05 dB 3:10 06 - He Won't Send Roses [flac]
DR13 -2.25 dB -20.64 dB 3:58 07 - Moon River [flac]
DR14 -0.13 dB -20.03 dB 3:35 08 - I Got Lost In His Arms [flac]
DR11 -1.77 dB -17.33 dB 3:25 09 - You Don't Know Me [flac]
DR14 -0.13 dB -19.60 dB 4:30 10 - I Loves You Porgy [flac]
DR13 -3.56 dB -21.28 dB 4:49 11 - The Shadow Of Your Smile [flac]
DR13 -1.18 dB -21.17 dB 5:12 12 - The End Of A Love Affair [flac]
----------------------------------------------------------------------------------------------
Number of files: 12
Official DR value: DR13

Sampling rate: 192000 Hz
Average bitrate: 5448kbs
Bits per sample: 32 bit

Dr14 T.meter 1.0.16
==============================================================================================
General
Complete name : /media/frost42/Музыка/Carol Kidd/Carol Kidd - Tell Me Once Again /03 - Alfie.flac
Format : FLAC
Format/Info : Free Lossless Audio Codec
File size : 124 MiB
Duration : 3mn 8s
Overall bit rate mode : Variable
Overall bit rate : 5 532 Kbps
Album : Tell Me Once Again
Track name : Alfie
Track name/Position : 3
Track name/Total : 12
Performer : Carol Kidd
Genre : Jazz, Vocal
Recorded date : 2011
Comment : www.linnrecords.com

Audio
Format : FLAC
Format/Info : Free Lossless Audio Codec
Duration : 3mn 8s
Bit rate mode : Variable
Bit rate : 5 532 Kbps
Channel(s) : 2 channels
Sampling rate : 192 KHz
Bit depth : 24 bits
Stream size : 124 MiB (100%)
Writing library : libFLAC 1.1.2 (UTC 2005-02-05)

General
Complete name : /media/frost42/Музыка/Carol Kidd/Carol Kidd - Tell Me Once Again /11 - The Shadow Of Your Smile.flac
Format : FLAC
Format/Info : Free Lossless Audio Codec
File size : 186 MiB
Duration : 4mn 49s
Overall bit rate mode : Variable
Overall bit rate : 5 395 Kbps
Album : Tell Me Once Again
Track name : The Shadow Of Your Smile
Track name/Position : 11
Track name/Total : 12
Performer : Carol Kidd
Genre : Jazz, Vocal
Recorded date : 2011
Comment : www.linnrecords.com

Audio
Format : FLAC
Format/Info : Free Lossless Audio Codec
Duration : 4mn 49s
Bit rate mode : Variable
Bit rate : 5 395 Kbps
Channel(s) : 2 channels
Sampling rate : 192 KHz
Bit depth : 24 bits
Stream size : 186 MiB (100%)
Writing library : libFLAC 1.1.2 (UTC 2005-02-05)

General
Complete name : /media/frost42/Музыка/Carol Kidd/Carol Kidd - Tell Me Once Again /04 - Once In A While.flac
Format : FLAC
Format/Info : Free Lossless Audio Codec
File size : 172 MiB
Duration : 4mn 20s
Overall bit rate mode : Variable
Overall bit rate : 5 523 Kbps
Album : Tell Me Once Again
Track name : Once In A While
Track name/Position : 4
Track name/Total : 12
Performer : Carol Kidd
Genre : Jazz, Vocal
Recorded date : 2011
Comment : www.linnrecords.com

Audio
Format : FLAC
Format/Info : Free Lossless Audio Codec
Duration : 4mn 20s
Bit rate mode : Variable
Bit rate : 5 522 Kbps
Channel(s) : 2 channels
Sampling rate : 192 KHz
Bit depth : 24 bits
Stream size : 172 MiB (100%)
Writing library : libFLAC 1.1.2 (UTC 2005-02-05)

General
Complete name : /media/frost42/Музыка/Carol Kidd/Carol Kidd - Tell Me Once Again /12 - The End Of A Love Affair.flac
Format : FLAC
Format/Info : Free Lossless Audio Codec
File size : 206 MiB
Duration : 5mn 12s
Overall bit rate mode : Variable
Overall bit rate : 5 541 Kbps
Album : Tell Me Once Again
Track name : The End Of A Love Affair
Track name/Position : 12
Track name/Total : 12
Performer : Carol Kidd
Genre : Jazz, Vocal
Recorded date : 2011
Comment : www.linnrecords.com

Audio
Format : FLAC
Format/Info : Free Lossless Audio Codec
Duration : 5mn 12s
Bit rate mode : Variable
Bit rate : 5 541 Kbps
Channel(s) : 2 channels
Sampling rate : 192 KHz
Bit depth : 24 bits
Stream size : 206 MiB (100%)
Writing library : libFLAC 1.1.2 (UTC 2005-02-05)

General
Complete name : /media/frost42/Музыка/Carol Kidd/Carol Kidd - Tell Me Once Again /01 - Stormy Weather.flac
Format : FLAC
Format/Info : Free Lossless Audio Codec
File size : 146 MiB
Duration : 3mn 47s
Overall bit rate mode : Variable
Overall bit rate : 5 401 Kbps
Album : Tell Me Once Again
Track name : Stormy Weather
Track name/Position : 1
Track name/Total : 12
Performer : Carol Kidd
Genre : Jazz, Vocal
Recorded date : 2011
Comment : www.linnrecords.com

Audio
Format : FLAC
Format/Info : Free Lossless Audio Codec
Duration : 3mn 47s
Bit rate mode : Variable
Bit rate : 5 400 Kbps
Channel(s) : 2 channels
Sampling rate : 192 KHz
Bit depth : 24 bits
Stream size : 146 MiB (100%)
Writing library : libFLAC 1.1.2 (UTC 2005-02-05)

General
Complete name : /media/frost42/Музыка/Carol Kidd/Carol Kidd - Tell Me Once Again (2011) /09 - You Don t Know Me.flac
Format : FLAC
Format/Info : Free Lossless Audio Codec
File size : 132 MiB
Duration : 3mn 25s
Overall bit rate mode : Variable
Overall bit rate : 5 390 Kbps
Album : Tell Me Once Again
Track name : You Don't Know Me
Track name/Position : 9
Track name/Total : 12
Performer : Carol Kidd
Genre : Jazz, Vocal
Recorded date : 2011
Comment : www.linnrecords.com

Audio
Format : FLAC
Format/Info : Free Lossless Audio Codec
Duration : 3mn 25s
Bit rate mode : Variable
Bit rate : 5 390 Kbps
Channel(s) : 2 channels
Sampling rate : 192 KHz
Bit depth : 24 bits
Stream size : 132 MiB (100%)
Writing library : libFLAC 1.1.2 (UTC 2005-02-05)

General
Complete name : /media/frost42/Музыка/Carol Kidd/Carol Kidd - Tell Me Once Again (2011) /10 - I Loves You Porgy.flac
Format : FLAC
Format/Info : Free Lossless Audio Codec
File size : 178 MiB
Duration : 4mn 31s
Overall bit rate mode : Variable
Overall bit rate : 5 506 Kbps
Album : Tell Me Once Again
Track name : I Loves You Porgy
Track name/Position : 10
Track name/Total : 12
Performer : Carol Kidd
Genre : Jazz, Vocal
Recorded date : 2011
Comment : www.linnrecords.com

Audio
Format : FLAC
Format/Info : Free Lossless Audio Codec
Duration : 4mn 31s
Bit rate mode : Variable
Bit rate : 5 505 Kbps
Channel(s) : 2 channels
Sampling rate : 192 KHz
Bit depth : 24 bits
Stream size : 178 MiB (100%)
Writing library : libFLAC 1.1.2 (UTC 2005-02-05)

General
Complete name : /media/frost42/Музыка/Carol Kidd/Carol Kidd - Tell Me Once Again /05 - Tell Me Once Again.flac
Format : FLAC
Format/Info : Free Lossless Audio Codec
File size : 105 MiB
Duration : 2mn 46s
Overall bit rate mode : Variable
Overall bit rate : 5 310 Kbps
Album : Tell Me Once Again
Track name : Tell Me Once Again
Track name/Position : 5
Track name/Total : 12
Performer : Carol Kidd
Genre : Jazz, Vocal
Recorded date : 2011
Comment : www.linnrecords.com

Audio
Format : FLAC
Format/Info : Free Lossless Audio Codec
Duration : 2mn 46s
Bit rate mode : Variable
Bit rate : 5 310 Kbps
Channel(s) : 2 channels
Sampling rate : 192 KHz
Bit depth : 24 bits
Stream size : 105 MiB (100%)
Writing library : libFLAC 1.1.2 (UTC 2005-02-05)

General
Complete name : /media/frost42/Музыка/Carol Kidd/Carol Kidd - Tell Me Once Again /08 - I Got Lost In His Arms.flac
Format : FLAC
Format/Info : Free Lossless Audio Codec
File size : 140 MiB
Duration : 3mn 35s
Overall bit rate mode : Variable
Overall bit rate : 5 427 Kbps
Album : Tell Me Once Again
Track name : I Got Lost In His Arms
Track name/Position : 8
Track name/Total : 12
Performer : Carol Kidd
Genre : Jazz, Vocal
Recorded date : 2011
Comment : www.linnrecords.com

Audio
Format : FLAC
Format/Info : Free Lossless Audio Codec
Duration : 3mn 35s
Bit rate mode : Variable
Bit rate : 5 427 Kbps
Channel(s) : 2 channels
Sampling rate : 192 KHz
Bit depth : 24 bits
Stream size : 140 MiB (100%)
Writing library : libFLAC 1.1.2 (UTC 2005-02-05)

General
Complete name : /media/frost42/Музыка/Carol Kidd/Carol Kidd - Tell Me Once Again /02 - Moon Blue.flac
Format : FLAC
Format/Info : Free Lossless Audio Codec
File size : 136 MiB
Duration : 3mn 30s
Overall bit rate mode : Variable
Overall bit rate : 5 415 Kbps
Album : Tell Me Once Again
Track name : Moon Blue
Track name/Position : 2
Track name/Total : 12
Performer : Carol Kidd
Genre : Jazz, Vocal
Recorded date : 2011
Comment : www.linnrecords.com

Audio
Format : FLAC
Format/Info : Free Lossless Audio Codec
Duration : 3mn 30s
Bit rate mode : Variable
Bit rate : 5 415 Kbps
Channel(s) : 2 channels
Sampling rate : 192 KHz
Bit depth : 24 bits
Stream size : 136 MiB (100%)
Writing library : libFLAC 1.1.2 (UTC 2005-02-05)

General
Complete name : /media/frost42/Музыка/Carol Kidd/Carol Kidd - Tell Me Once Again /07 - Moon River.flac
Format : FLAC
Format/Info : Free Lossless Audio Codec
File size : 154 MiB
Duration : 3mn 59s
Overall bit rate mode : Variable
Overall bit rate : 5 404 Kbps
Album : Tell Me Once Again
Track name : Moon River
Track name/Position : 7
Track name/Total : 12
Performer : Carol Kidd
Genre : Jazz, Vocal
Recorded date : 2011
Comment : www.linnrecords.com

Audio
Format : FLAC
Format/Info : Free Lossless Audio Codec
Duration : 3mn 59s
Bit rate mode : Variable
Bit rate : 5 404 Kbps
Channel(s) : 2 channels
Sampling rate : 192 KHz
Bit depth : 24 bits
Stream size : 154 MiB (100%)
Writing library : libFLAC 1.1.2 (UTC 2005-02-05)

General
Complete name : /media/frost42/Музыка/Carol Kidd/Carol Kidd - Tell Me Once Again /Tell Me Once Again - Inlay.png
Format : PNG
Format/Info : Portable Network Graphic
File size : 1.99 MiB

Image
Format : PNG
Format/Info : Portable Network Graphic
Width : 1 795 pixels
Height : 1 547 pixels
Bit depth : 24 bits
Compression mode : Lossless
Stream size : 1.99 MiB (100%)

General
Complete name : /media/frost42/Музыка/Carol Kidd/Carol Kidd - Tell Me Once Again /06 - He Won t Send Roses.flac
Format : FLAC
Format/Info : Free Lossless Audio Codec
File size : 127 MiB
Duration : 3mn 11s
Overall bit rate mode : Variable
Overall bit rate : 5 544 Kbps
Album : Tell Me Once Again
Track name : He Won't Send Roses
Track name/Position : 6
Track name/Total : 12
Performer : Carol Kidd
Genre : Jazz, Vocal
Recorded date : 2011
Comment : www.linnrecords.com

Audio
Format : FLAC
Format/Info : Free Lossless Audio Codec
Duration : 3mn 11s
Bit rate mode : Variable
Bit rate : 5 543 Kbps
Channel(s) : 2 channels
Sampling rate : 192 KHz
Bit depth : 24 bits
Stream size : 127 MiB (100%)
Writing library : libFLAC 1.1.2 (UTC 2005-02-05)
Время раздачи: 24/7 (круглосуточно) (до появления первых 3-5 скачавших)
[NNMClub.to]_Carol Kidd - Tell Me Once Again .torrent
 Торрент: Платиновая раздача  Зарегистрирован
 
Скачать


Примагнититься
 Зарегистрирован:   11 Май 2017 20:49:25
 Размер:   1,77 GB  (
 Рейтинг:    (Голосов: 9)
 Поблагодарили:   76
 Проверка:   Оформление проверено модератором 13 Май 2017 15:29:18
Как cкачать  ·  Как раздать  ·  Правильно оформить  ·  Поднять ратио!  

_________________
Один Терафлю это 1024 Гигафлю или 1048576 Мегафлю!!!
маринасочи
Стаж: 6 лет 7 мес.
Сообщений: 1271
Ratio: 3,108
100%
ведь могли раньше петь
Показать сообщения:   
Начать новую тему   Ответить на тему    Торрент-трекер NNM-Club -> HD Audio и Многоканальная Музыка -> WEB-DL-Audio Часовой пояс: GMT + 3
Страница 1 из 1