Интеллигентный торрент-трекер
canvas not supported
Нас вместе: 4 347 917

Dungeon ni Deai o Motomeru no wa Machigatte Iru Darouka / Danmachi / В подземелье я пойду, там красавицу найду! [2014, TV, 13 ep] BDRip Hi10p 720p Raw+Rus x5(ext)


 
 
RSS
Начать новую тему   Ответить на тему    Торрент-трекер NNM-Club -> Аниме с озвучкой -> Аниме с озвучкой (HD)
Автор Сообщение
Ampho_DnB ®
RG Releasers
 
Стаж: 5 лет 4 мес.
Сообщений: 4020
Ratio: 177,845
Поблагодарили: 66118
100%
Откуда: дует?
roody.gif
Dungeon ni Deai o Motomeru no wa Machigatte Iru Darouka / Danmachi / Is It Wrong to Try to Pick Up Girls in a Dungeon? / В подземелье я пойду, там красавицу найду!
Жанр: приключения, фэнтези, романтика
Тип: TV-сериал
Продолжительность: 13 эпизодов по 25 минут
Выпуск: c 04.04.2015 по 27.06.2015
Автор: Омори Фудзино
Режиссер: Ямакава Ёсики
Производство: J.C. Staff
Информационные ссылки: AniDB || World Art || MAL || ANN
Перевод:
  • Русские субтитры от Shift & Timecraft & Ambiente
    Переводчик: Evafan Satin, Редакторы: Koushin, Матадор

Описание:
Богам стало скучно, и они сошли в мир, оставив себе минимум атрибутов божественности – бессмертие, предвидение и чуточку силы, чтобы поддерживать своих последователей. Город Орарио, где высится огромный донжон, работает на искателей приключений самых разных рас, которые собираются в кланы, возглавляемые многочисленными богами. Отдельной силой в городе является Гильдия – она и банк, и обменное бюро, и биржа. Боги же навек избавились от скуки: ведь кроме руководства кланом, можно развивать бизнес, творить интриги, отбирать чужие человеческие игрушки – в общем, вести нормальную полноценную жизнь.

Клан Гестии, увы, невелик – сама богиня, принявшая облик юной девы, и молодой Белл, блондин с красными глазами. Когда-то Белл подался в приключенцы, чтобы бегать по уровням, бить монстров и знакомиться с девушками – и цели достиг, влюбившись по уши в Айз, «принцессу мечей» из клана Локи. Пока что герой для своей избранницы явно слабоват, зато у Белла появился повод развиваться, у Гестии – ревновать, у самой Айз – пожимать плечами, а у половины города – активно болеть за молодежь. Это еще ничего, а вот когда в дело вмешивается злокозненная богиня любви Фрейя – становится по-настоящему интересно!
© Hollow, World Art
Качество: BDRip | Энкод: Winter
Формат: MKV
Видео: x264 (10 bit) 1280x720, ~3200 Kbps, 23.976 fps
Аудио: Vorbis, 256 Kbps, 48.0 kHz, 2 ch
Аудио: AC-3, 192 Kbps, 48.0 kHz, 2 ch (внешними файлами)
Субтитры: ASS, Полные | Надписи (внешними файлами)
  • двухголосая (муж./жен.) от Absurd & Eladiel (Onibaku)
  • двухголосая (муж./жен.) от Hope & Aska (SHIZA)
  • двухголосая (муж./жен.) от Metacarmex & Say (Anilibria)
  • двухголосая (муж./жен.) от Mistake & Kira Ksyll (Opendub)
  • двухголосая (муж./жен.) от ShadMG [1-11] / Octav [12-13] & Акварелька (Anifilm)
01. Bell Cranel: Adventurer
02. Monsterphilia: Monster Festival
03. Hestia Knife: The Blade of a God
04. Supporter: The Weak
05. Grimoire: Magic Book
06. Liliruca Arde: Reason
07. Aiz Wallenstein: Sword Princess
08. Argonaut: Wanting to Be a Hero
09. Welf Crozzo: Blacksmith
10. Pass Parade: Procession of Monsters
11. Under Resort: Labyrinth Utopia
12. Show: Evil Intentions
13. Familia Myth: The Story of a Familia
Код:
General
Unique ID                   : 173555605205248125732556039712326561735 (0x829197FD411895439BAA0C8D744C2FC7)
Complete name               : Danmachi [BD] [720p]\[W] Danmachi 01 [BDrip 1280x720 x264 Vorbis].mkv
Format                      : Matroska
Format version              : Version 2
File size                   : 607 MiB
Duration                    : 23mn 42s
Overall bit rate mode       : Variable
Overall bit rate            : 3 578 Kbps
Encoded date                : UTC 2015-12-16 18:35:12
Writing application         : mkvmerge v2.9.8 ('C'est le bon') built on Aug 13 2009 12:49:06
Writing library             : libebml v0.7.7 + libmatroska v0.8.1

Video
ID                          : 1
Format                      : AVC
Format/Info                 : Advanced Video Codec
Format profile              : High 10@L4.1
Format settings, CABAC      : Yes
Format settings, ReFrames   : 9 frames
Codec ID                    : V_MPEG4/ISO/AVC
Duration                    : 23mn 42s
Bit rate                    : 3 251 Kbps
Width                       : 1 280 pixels
Height                      : 720 pixels
Display aspect ratio        : 16:9
Frame rate mode             : Constant
Frame rate                  : 23.976 (24000/1001) fps
Color space                 : YUV
Chroma subsampling          : 4:2:0
Bit depth                   : 10 bits
Scan type                   : Progressive
Bits/(Pixel*Frame)          : 0.147
Stream size                 : 551 MiB (91%)
Writing library             : x264 core 132 r2309 3b1f1f7
Encoding settings           : cabac=1 / ref=9 / deblock=1:-2:-2 / analyse=0x3:0x133 / me=umh / subme=9 / psy=1 / psy_rd=0.90:0.00 / mixed_ref=1 / me_range=24 / chroma_me=1 / trellis=2 / 8x8dct=1 / cqm=0 / deadzone=21,11 / fast_pskip=1 / chroma_qp_offset=-2 / threads=12 / lookahead_threads=2 / sliced_threads=0 / nr=0 / decimate=0 / interlaced=0 / bluray_compat=0 / constrained_intra=0 / bframes=8 / b_pyramid=2 / b_adapt=2 / b_bias=0 / direct=1 / weightb=1 / open_gop=0 / weightp=2 / keyint=250 / keyint_min=23 / scenecut=40 / intra_refresh=0 / rc=crf / mbtree=0 / crf=15.6 / qcomp=0.70 / qpmin=9 / qpmax=40 / qpstep=4 / ip_ratio=1.40 / pb_ratio=1.30 / aq=1:0.90
Default                     : No
Forced                      : No

Audio
ID                          : 2
Format                      : Vorbis
Format settings, Floor      : 1
Codec ID                    : A_VORBIS
Duration                    : 23mn 42s
Bit rate mode               : Variable
Bit rate                    : 256 Kbps
Channel(s)                  : 2 channels
Sampling rate               : 48.0 KHz
Detected bit depth          : 16 bits
Compression mode            : Lossy
Stream size                 : 43.4 MiB (7%)
Writing library             : libVorbis (Schaufenugget) (20101101 (Schaufenugget))
Language                    : Japanese
Default                     : Yes
Forced                      : No
  • Выбор видео, перевода, озвучки, а также типа сборки материала осуществляется релизером и не подлежит обсуждению. Если вы считаете, что раздаваемый материал противоречит правилам раздела "Аниме", сообщите об этом одному из модераторов раздела.

  • В случае появления нового материала или же лучшего по качеству материала релизер оставляет за собой право обновить раздачу. В этом случае вам необходимо ознакомиться с изменениями (добавлениями) и перекачать торрент.

  • Данный релиз предназначен для просмотра на ПК. Воспроизведение на иных проигрывателях не гарантируется. Для просмотра рекомендуется Media Player Classic с установленным пакетом кодеков K-Lite.

  • Данный релиз содержит 10-битное видео (Hi10p). Для корректного воспроизведения обязательно используйте кодеки, поддерживающие 10-битное видео. Обсудить частные случаи проблем с воспроизведением и получить дополнительную информацию можно здесь.

  • Данный релиз предназначен для просмотра с внешними субтитрами и внешними звуковыми дорожками.

    • Для просмотра с внешней звуковой дорожкой нужно:
      перекинуть файлы .mka из папки "RUS Sound [<автор(ы) озвучки>]" в одну папку с видео и переключить звуковую дорожку в плеере при просмотре.

    • Для просмотра с субтитрами нужно:
      перекинуть файлы .ass из папки "RUS Subtitles [<автор(ы) перевода>]" в одну папку с видео - плеер подгрузит их автоматически при открытии видео.

  • Если у вас возникли проблемы с просмотром, не связанные с описанным выше, сообщите о них автору раздачи посредством сообщения в теме или ЛС Ampho_DnB.


Время раздачи: До первых сидов
[NNM-Club.me]_Danmachi [BD] [720p].torrent
 Торрент: Платиновая раздача  Зарегистрирован
 
Примагнититься

Скачать
 Зарегистрирован:   07 Янв 2016 18:00:00
 Размер:   9,39 GB  (
 Рейтинг:   4,3 (Голосов: 30)
 Поблагодарили:   60
 Проверка:   Оформление проверено модератором 07 Янв 2016 21:35:02
Как cкачать  ·  Как раздать  ·  Правильно оформить  ·  Поднять ратио!  
Дима184
Стаж: 1 год 8 мес.
Сообщений: 4
Ratio: 69,736
13.92%
не понимаю где написано кто озвучил, или так сложно написать, озвучено теми-то? а вот чье производство воообще [неинтересно]

 !  Примечание от ElSwanko:
Давайте без мата.
Ampho_DnB ®
RG Releasers
 
Стаж: 5 лет 4 мес.
Сообщений: 4020
Ratio: 177,845
Поблагодарили: 66118
100%
Откуда: дует?
roody.gif
Дима184
В разделе "Список озвучек"
Dimitrius0
 
Стаж: 6 лет 9 мес.
Сообщений: 118
Ratio: 7,627
Поблагодарили: 38
100%
russia.gif
Неплохой сериал, но как-то не окончен. Но в целом понравился, необычный. Название легкомысленное, но сюжет довольно тяжёлый и серьёзный.
Показать сообщения:   
Начать новую тему   Ответить на тему    Торрент-трекер NNM-Club -> Аниме с озвучкой -> Аниме с озвучкой (HD) Часовой пояс: GMT + 3
Страница 1 из 1