Классический форум-трекер
canvas not supported
Нас вместе: 4 078 900

James Bay - Chaos And The Calm (2015) [FLAC|Lossless]<Indie Pop, Indie Folk>


 
 
RSS
Начать новую тему   Ответить на тему    Торрент-трекер NNM-Club -> Other Styles -> Folk (Lossless)
Автор Сообщение
Ska 2014 ®
Uploader 100+
Стаж: 5 лет 7 мес.
Сообщений: 630
Ratio: 1011,548
Раздал: 124,6 TB
Поблагодарили: 66779
100%
James Bay - Chaos And The Calm (2015)
Год: 2015
Жанр: Indie Pop, Indie Folk
Продолжительность: 00:48:26
Издатель (лейбл): Republic Records
Номер по каталогу: 472476-0

Кодек: FLAC
Битрейт: Lossless
Тип рипа: image+.cue

Треклист:
01. Craving
02. Hold Back The River
03. Let It Go
04. If You Ever Want To Be In Love
05. Best Fake Smile
06. When We Were On Fire
07. Move Together
08. Scars
09. Collide
10. Get Out While You Can
11. Need The Sun To Break
12. Incomplete
Код:

-----------------------

DON'T MODIFY THIS FILE

-----------------------

PERFORMER: auCDtect Task Manager, ver. 1.6.0 RC1 build 1.6.0.1
Copyright (c) 2008-2010 y-soft. All rights reserved
http://y-soft.org

ANALYZER: auCDtect: CD records authenticity detector, version 0.8.2
Copyright (c) 2004 Oleg Berngardt. All rights reserved.
Copyright (c) 2004 Alexander Djourik. All rights reserved.

FILE: James Bay - Chaos And The Calm.flac
  Size: 319493321 Hash: 5E5282C06E53640333C09B97E7E8FE6A Accuracy: -m40
  Conclusion: CDDA 99%
  Signature: 66BE4A00359BCE79F86BD7C454E592C8330EA0B4
Код:

REM GENRE Pop
REM DATE 2015
REM DISCID A40B5A0C
REM COMMENT "ExactAudioCopy v1.0b4"
PERFORMER "James Bay"
TITLE "Chaos And The Calm"
FILE "James Bay - Chaos And The Calm.flac" WAVE
  TRACK 01 AUDIO
    TITLE "Craving"
    PERFORMER "James Bay"
    INDEX 01 00:00:00
  TRACK 02 AUDIO
    TITLE "Hold Back The River"
    PERFORMER "James Bay"
    INDEX 00 03:48:09
    INDEX 01 03:48:59
  TRACK 03 AUDIO
    TITLE "Let It Go"
    PERFORMER "James Bay"
    INDEX 00 07:47:40
    INDEX 01 07:48:31
  TRACK 04 AUDIO
    TITLE "If You Ever Want To Be In Love"
    PERFORMER "James Bay"
    INDEX 00 12:08:71
    INDEX 01 12:11:30
  TRACK 05 AUDIO
    TITLE "Best Fake Smile"
    PERFORMER "James Bay"
    INDEX 00 16:10:28
    INDEX 01 16:12:20
  TRACK 06 AUDIO
    TITLE "When We Were On Fire"
    PERFORMER "James Bay"
    INDEX 00 19:37:22
    INDEX 01 19:38:63
  TRACK 07 AUDIO
    TITLE "Move Together"
    PERFORMER "James Bay"
    INDEX 00 23:37:20
    INDEX 01 23:38:03
  TRACK 08 AUDIO
    TITLE "Scars"
    PERFORMER "James Bay"
    INDEX 00 28:13:40
    INDEX 01 28:15:26
  TRACK 09 AUDIO
    TITLE "Collide"
    PERFORMER "James Bay"
    INDEX 00 32:47:71
    INDEX 01 32:49:39
  TRACK 10 AUDIO
    TITLE "Get Out While You Can"
    PERFORMER "James Bay"
    INDEX 00 36:13:32
    INDEX 01 36:14:38
  TRACK 11 AUDIO
    TITLE "Need The Sun To Break"
    PERFORMER "James Bay"
    INDEX 00 40:54:60
    INDEX 01 40:56:12
  TRACK 12 AUDIO
    TITLE "Incomplete"
    PERFORMER "James Bay"
    INDEX 00 44:40:73
    INDEX 01 44:42:25
Время раздачи: 24/7 (круглосуточно)


Поглощение/вытеснение
Только с согласия релизера

J_Man
[NNM-Club.me]_James Bay - Chaos And The Calm (2015) FLAC.torrent
 Торрент: Платиновая раздача  Зарегистрирован
 
Скачать


Примагнититься
 Зарегистрирован:   23 Мар 2015 15:56:39
 Размер:   311 MB  (
 Рейтинг:    (Голосов: 9)
 Поблагодарили:   47
 Проверка:   Оформление проверено модератором 24 Мар 2015 09:52:18
Как cкачать  ·  Как раздать  ·  Правильно оформить  ·  Поднять ратио!  
Загрузка...
zic3d
Стаж: 9 лет 3 мес.
Сообщений: 2
Ratio: 4,574
7.69%
russia.gif
Простите, не подскажите, раздача актуальна? Спрашиваю, т.к. не могу скачать альбом на протяжении нескольких месяцев,если время раздачи изменилось, и осуществляется по расписанию, не могли бы вы указать актуальное время для запуска трекера. Заранее благодарен.
Показать сообщения:   
Начать новую тему   Ответить на тему    Торрент-трекер NNM-Club -> Other Styles -> Folk (Lossless) Часовой пояс: GMT + 3
Страница 1 из 1