Классический форум-трекер
canvas not supported
Нас вместе: 4 076 960

Linkin Park - New Divide (OST Transformers 2: Revenge Of The Fallen) (2009) WEBRip [H.264/720p-LQ]


 
 
RSS
Начать новую тему   Ответить на тему    Торрент-трекер NNM-Club -> Архив торрентов -> Архив Музыкального Видео
Автор Сообщение
Экс ®
Стаж: 11 лет 9 мес.
Сообщений: 88
Ratio: 6,459
Поблагодарили: 51
100%
Откуда: Тюмень
russia.gif
Linkin Park - New Divide (OST Transformers 2: Revenge Of The Fallen) (2009) WEBRip [H.264/720p-LQ]
Год выпуска: 2009
Жанр: Alternative Rock, Rapcore, Nu-Metal

Описание фильма:
Клип Linkin Park - New Divide.

Продолжительность: 00:04:26

Видеокодек: MPEG-4 AVC/H.264
Битрейт видео: ~1999 kb/s
Размер кадра: 1280 x 720
Качество видео: WEBRip
Аудиокодек: AAC, 2 ch.
Битрейт аудио: ~125 kb/s
Полное имя : F:\Linkin Park - New Divide.mp4
Формат : MPEG-4
Профиль формата : Base Media / Version 2
Идентификатор кодека : mp42
Размер файла : 67,5 Мбайт
Продолжительность : 4 м. 26 с.
Режим общего битрейта : Переменный
Общий поток : 2124 Кбит/сек
Дата кодирования : UTC 2009-06-14 18:22:14
Дата пометки : UTC 2009-06-14 18:22:14

Видео
Идентификатор : 2
Формат : AVC
Формат/Информация : Advanced Video Codec
Профиль формата : High@L3.1
Параметр CABAC формата : Да
Параметр ReFrames формата : 3 кадра
Идентификатор кодека : avc1
Идентификатор кодека/Информация : Advanced Video Coding
Продолжительность : 4 м. 26 с.
Битрейт : 2000 Кбит/сек
Максимальный битрейт : 8609 Кбит/сек
Ширина : 1280 пикселей
Высота : 720 пикселей
Соотношение сторон : 16:9
Режим частоты кадров : Постоянный
Частота кадров : 23,976 кадра/сек
Цветовое пространство : YUV
Субдискретизация насыщенности : 4:2:0
Битовая глубина : 8 бит
Тип развёртки : Прогрессивная
Бит/(Пиксели*Кадры) : 0.090
Размер потока : 63,4 Мбайт (94%)
Заголовок : (C) 2007 Google Inc. v08.13.2007.
Дата кодирования : UTC 2009-06-14 18:22:15
Дата пометки : UTC 2009-06-14 18:22:16

Аудио
Идентификатор : 1
Формат : AAC
Формат/Информация : Advanced Audio Codec
Профиль формата : LC
Идентификатор кодека : 40
Продолжительность : 4 м. 26 с.
Вид битрейта : Переменный
Битрейт : 125 Кбит/сек
Максимальный битрейт : 137 Кбит/сек
Каналы : 2 канала
Расположение каналов : Front: L R
Частота : 44,1 КГц
Метод сжатия : С потерями
Размер потока : 3,99 Мбайт (6%)
Заголовок : (C) 2007 Google Inc. v08.13.2007.
Дата кодирования : UTC 2009-06-14 18:22:14
Дата пометки : UTC 2009-06-14 18:22:16
Скриншоты:


Время раздачи: 24/7
[NNM-Club.ru] Linkin Park - New Divide (Transformers 2 - Revenge Of The Fallen O.S.T.).torrent
 Торрент: Платиновая раздача  Зарегистрирован
 
Скачать


 Зарегистрирован:   21 Июн 2009 14:13:14
 Размер:   67,5 MB  (
 Рейтинг:   5 (Голосов: 23)
 Поблагодарили:   51
 Проверка:   Оформление проверено модератором 28 Июн 2009 17:23:43
Как cкачать  ·  Как раздать  ·  Правильно оформить  ·  Поднять ратио!  
Dr.Watson
Стаж: 10 лет 5 мес.
Сообщений: 38
Ratio: 2,573
12.9%
uk.gif
Круто, спасибо !
Топик был перенесен из форума Музыкальные клипы в форум Архив Музыкального Видео

Причина переноса: Отсутствие сидов более трех месяцев.

Исправил релиз - напиши ЛС ALLic, дав ссылку на релиз.
Если нет ответа 24 часа - нажми на кнопку "Обратить внимание модераторов".
Экс ®
Стаж: 11 лет 9 мес.
Сообщений: 88
Ratio: 6,459
Поблагодарили: 51
100%
Откуда: Тюмень
russia.gif
Жесткий диск с релизом неожиданно отдал концы.
Я извиняюсь что не написал сразу про проблему, просто забыл.
Показать сообщения:   
Начать новую тему   Ответить на тему    Торрент-трекер NNM-Club -> Архив торрентов -> Архив Музыкального Видео Часовой пояс: GMT + 3
Страница 1 из 1