Классический форум-трекер
canvas not supported
Нас вместе: 4 093 502

На зов скорби / Les Revenants (2012) [H.264] PDTVRip (Сезон 1, серии 1-8 из 8) [FR/Ru, FR sub]


 
 
RSS
Начать новую тему   Ответить на тему    Торрент-трекер NNM-Club -> Зарубежные сериалы -> Сериалы без перевода
Автор Сообщение
surikatx ®
Стаж: 8 лет 2 мес.
Сообщений: 61
Ratio: 8,089
Поблагодарили: 408
100%
На зов скорби / Les Revenants (2012) [H.264] PDTVRip (Сезон 1, серии 1-8 из 8) [FR/Ru, FR sub]
Страна: Франция
Год выпуска: 2012
Жанр: Триллер, Драма

Перевод: Отсутствует
Язык: FR
Вид субтитров: Отдельным файлом
Язык субтитров: Русские(notabenoid), Французские



Режиссер: Фабрис Гобер (Fabrice Gobert) и Фредерик Мерму (Frédéric Mermoud)
Актеры: Фредерик Пьерро (Frédéric Pierrot) - Жером; Жан-Франсуа Сивадье (Jean-François Sivadier) - Пьер, Женна Тиам (Jenna Thiam) - Лена; Анн Косиньи (Anne Consigny) - Клэр; Клотильд Эсм (Clotilde Hesme) - Адель; Селин Салетт (Céline Sallette) - Жюли; Пьер Перрье (Pierre Perrier) - Симон; Яра Пиларц (Yara Pilartz) - Камилла; Сванн Намботин (Swann Nambotin) - Виктор; Гийом Гуи (Guillaume Gouix) - Серж; Грегори Гадебуа (Grégory Gadebois) - Тони; Самир Гесми (Samir Guesmi) - Томаc;

Описание фильма:
В горном городке, над которым возвышается гигантская дамба, в один и тот же день люди разного возраста и из разных слоев общества пытаются вернуться к себе домой, полностью дезориентированные. Они еще не знают, что умерли много лет назад, что совсем не постарели и что никто их не ждет. Решив снова занять свое место в жизни, место, которого больше не существует, мало помалу они обнаруживают, что они не единственные вернувшиеся и что их возвращение сопровождается другими аномалиями.
Что, если это только начало еще более страшного потрясения?

Спасибо olgalumpy

Продолжительность: 8 x ~00:52:00
Качество видео: PDTVRip-AVC
Сэмпл: Скачать
Формат: MP4
Видеокодек: H.264
Размер кадра: 712x400 (16:9), 25 fps, 533 kbps, 0.075 bit/pixel
Аудиокодек: French, AAC, 48 kHz, 2 ch, 128 kbps

Скриншоты:
Формат : MPEG-4
Профиль формата : Base Media
Идентификатор кодека : isom
Размер файла : 260 Мбайт
Продолжительность : 54 м.
Режим общего битрейта : Переменный
Общий поток : 665 Кбит/сек
Дата кодирования : UTC 2012-11-26 21:29:06
Дата пометки : UTC 2012-11-26 21:29:06

Видео
Идентификатор : 1
Формат : AVC
Формат/Информация : Advanced Video Codec
Профиль формата : Main@L3.1
Параметр CABAC формата : Да
Параметр ReFrames формата : 5 кадров
Идентификатор кодека : avc1
Идентификатор кодека/Информация : Advanced Video Coding
Продолжительность : 54 м.
Битрейт : 533 Кбит/сек
Максимальный битрейт : 3697 Кбит/сек
Ширина : 712 пикселей
Высота : 400 пикселей
Соотношение сторон : 16:9
Режим частоты кадров : Постоянный
Частота кадров : 25,000 кадров/сек
Цветовое пространство : YUV
Субдискретизация насыщенности : 4:2:0
Битовая глубина : 8 бит
Тип развёртки : Прогрессивная
Бит/(Пиксели*Кадры) : 0.075
Размер потока : 209 Мбайт (80%)
Библиотека кодирования : x264 core 129 r2230 1cffe9f
Настройки программы : cabac=1 / ref=5 / deblock=1:0:0 / analyse=0x1:0x111 / me=umh / subme=8 / psy=1 / psy_rd=1.00:0.00 / mixed_ref=1 / me_range=16 / chroma_me=1 / trellis=1 / 8x8dct=0 / cqm=0 / deadzone=21,11 / fast_pskip=1 / chroma_qp_offset=-2 / threads=18 / lookahead_threads=3 / sliced_threads=0 / nr=0 / decimate=1 / interlaced=0 / bluray_compat=0 / constrained_intra=0 / bframes=3 / b_pyramid=2 / b_adapt=2 / b_bias=0 / direct=3 / weightb=1 / open_gop=0 / weightp=2 / keyint=250 / keyint_min=25 / scenecut=40 / intra_refresh=0 / rc_lookahead=50 / rc=crf / mbtree=1 / crf=19.0 / qcomp=0.60 / qpmin=0 / qpmax=69 / qpstep=4 / ip_ratio=1.40 / aq=1:1.00
Дата кодирования : UTC 2012-11-26 21:29:06
Дата пометки : UTC 2012-11-26 21:29:12
Коэффициенты матрицы : BT.709

Аудио
Идентификатор : 2
Формат : AAC
Формат/Информация : Advanced Audio Codec
Профиль формата : LC
Идентификатор кодека : 40
Продолжительность : 54 м.
Вид битрейта : Переменный
Битрейт : 128 Кбит/сек
Максимальный битрейт : 175 Кбит/сек
Каналы : 2 канала
Расположение каналов : Front: L R
Частота : 48,0 КГц
Метод сжатия : С потерями
Размер потока : 50,1 Мбайт (19%)
Дата кодирования : UTC 2012-11-26 21:29:11
Дата пометки : UTC 2012-11-26 21:29:1
На зов скорби / Les Revenants на NNM-Club
Время раздачи: 24/7
[NNM-Club.ru]_Les Revenants S01.torrent
 Торрент: Платиновая раздача  Зарегистрирован
 
Скачать


 Зарегистрирован:   29 Янв 2013 14:14:01
 Размер:   2,33 GB  (
 Рейтинг:   4,6 (Голосов: 25)
 Поблагодарили:   81
 Проверка:   Оформление проверено модератором 31 Янв 2013 13:12:48
Как cкачать  ·  Как раздать  ·  Правильно оформить  ·  Поднять ратио!  
surikatx ®
Стаж: 8 лет 2 мес.
Сообщений: 61
Ratio: 8,089
Поблагодарили: 408
100%
Mogwai полный OST тут
Anonn
 
Стаж: 9 лет 8 мес.
Сообщений: 33
Ratio: 4,441
Поблагодарили: 947
100%
Откуда: Москва
russia.gif
ААААААА)))) Спасибоооооо)))) А то я с ума сойду, ждать пока с озвучкой все серии появится!((( Спасибо автору еще рааааааз))))))

_________________
Я на Иоте, так что не бейте за скорость...)
witer07
Стаж: 8 лет 5 мес.
Сообщений: 21
Ratio: 4,517
0.66%
ukraine.gif
спасибо...
здОрово!
maxdonbass
Стаж: 7 лет
Сообщений: 8
Ratio: 18,41
100%
witch.png
Спасибо!!!!!!
abasi
Предупреждений: 1
Предупреждений: 1 
Стаж: 12 лет 2 мес.
Сообщений: 289
Ratio: 4,029
Поблагодарили: 343
100%
Откуда: Волшебная страна СПб
russia.gif
Спасибо!
Rain_82
Стаж: 9 лет 2 мес.
Сообщений: 534
Ratio: 24,298
Раздал: 15,16 TB
88.5%
Откуда: Екатеринбург
russia.gif
аНО того стоит качать? Или муть?
dublikat17
Стаж: 6 лет 10 мес.
Сообщений: 125
Ratio: 1,485
Поблагодарили: 156
100%
Откуда: Дети планеты
nnm-club.gif
спасибо!
tim_despair
Стаж: 8 лет 3 мес.
Сообщений: 6
Ratio: 2,446
14.04%
russia.gif
Помогите скачать!
nyakahime
Стаж: 8 лет 10 мес.
Сообщений: 46
Ratio: 6,589
Поблагодарили: 74
100%
Спасибо тому единственному сиду, который до сих пор остался. Ты мой герой!
Показать сообщения:   
Начать новую тему   Ответить на тему    Торрент-трекер NNM-Club -> Зарубежные сериалы -> Сериалы без перевода Часовой пояс: GMT + 3
Страница 1 из 1