Классический форум-трекер
canvas not supported
Нас вместе: 4 102 273

History Channel. Кто на самом деле открыл Америку / Who Really Discovered America (2010) HDTVRip [H.264/720p]


 
 
RSS
Начать новую тему   Ответить на тему    Торрент-трекер NNM-Club -> Зарубежные TV-бренды -> History Channel
Автор Сообщение
Отец Лоренцо ®
Uploader 1000+, Сталкер
Стаж: 8 лет 3 мес.
Сообщений: 4039
Ratio: 7393,141
Раздал: 1,0172 PB
Поблагодарили: 122149
100%
Откуда: Харьков, Украина
History Channel. Кто на самом деле открыл Америку / Who Really Discovered America (2010) HDTVRip [H.264/720p]
Год выпуска: 2010
Производство: США, A&E Television Networks, LLC, Committee Films, inc. for History Channel
Режиссер: Энди Эйвс
Жанр: Документальный, история

Релиз группы

Перевод: Двухголосый закадровый (профессиональный, студия "СВ-Дубль" по заказу ГТРК "Культура")

Описание фильма: Если спросить, кто открыл Америку, большинство ответит: "Христофор Колумб". Именно так утверждают учебники истории. Но учебники ошибаются. Совершив путешествие во времени, мы узнаем о мореплавателях, посетивших Новый Свет тысячи лет назад. Карта их маршрута выглядит как план морского вторжения, начавшегося задолго до прибытия Колумба.

Продолжительность: 01:27:59

Качество: HDTVRip [720p]
Видео кодек: MPEG-4 AVC/H.264
Битрейт видео: 7300 Кбит/сек
Размер кадра: 1280 x 720
Аудио #1: [Русский] АС3, 2.0 ch, 192 Кбит/с (студия "СВ-Дубль" по заказу ГТРК "Культура")
Аудио #2: [Английский] АС3, 2.0 ch, 192 Кбит/с
General
Unique ID : 197872892518477684994663357677223442338 (0x94DCEED1C5F1C7489E0A3A2328B677A2)
Complete name : A:\Релизы\Who.Really.Discovered.America.(2010).HDTVRip.720p.mkv
Format : Matroska
Format version : Version 4 / Version 2
File size : 4.72 GiB
Duration : 1h 27mn
Overall bit rate : 7 686 Kbps
Encoded date : UTC 2013-07-03 17:37:48
Writing application : mkvmerge v6.2.0 ('Promised Land') built on Apr 28 2013 12:22:01
Writing library : libebml v1.3.0 + libmatroska v1.4.0

Video
ID : 1
Format : AVC
Format/Info : Advanced Video Codec
Format profile : High@L4.1
Format settings, CABAC : Yes
Format settings, ReFrames : 9 frames
Codec ID : V_MPEG4/ISO/AVC
Duration : 1h 27mn
Bit rate : 7 300 Kbps
Width : 1 280 pixels
Height : 720 pixels
Display aspect ratio : 16:9
Frame rate mode : Constant
Frame rate : 25.000 fps
Color space : YUV
Chroma subsampling : 4:2:0
Bit depth : 8 bits
Scan type : Progressive
Bits/(Pixel*Frame) : 0.317
Stream size : 4.39 GiB (93%)
Writing library : x264 core 133 r2334 a3ac64b
Encoding settings : cabac=1 / ref=9 / deblock=1:-3:-3 / analyse=0x3:0x133 / me=umh / subme=9 / psy=1 / psy_rd=1.00:0.15 / mixed_ref=1 / me_range=32 / chroma_me=1 / trellis=2 / 8x8dct=1 / cqm=0 / deadzone=21,11 / fast_pskip=0 / chroma_qp_offset=-3 / threads=8 / lookahead_threads=1 / sliced_threads=0 / nr=0 / decimate=1 / interlaced=0 / bluray_compat=0 / constrained_intra=0 / bframes=3 / b_pyramid=2 / b_adapt=2 / b_bias=0 / direct=3 / weightb=1 / open_gop=0 / weightp=2 / keyint=250 / keyint_min=25 / scenecut=40 / intra_refresh=0 / rc_lookahead=50 / rc=2pass / mbtree=1 / bitrate=7300 / ratetol=1.0 / qcomp=0.60 / qpmin=10 / qpmax=61 / qpstep=4 / cplxblur=20.0 / qblur=0.5 / vbv_maxrate=62500 / vbv_bufsize=78125 / nal_hrd=none / ip_ratio=1.40 / aq=1:1.00
Default : Yes
Forced : Yes
Color primaries : BT.709
Transfer characteristics : BT.709
Matrix coefficients : BT.709

Audio #1
ID : 2
Format : AC-3
Format/Info : Audio Coding 3
Mode extension : CM (complete main)
Format settings, Endianness : Big
Codec ID : A_AC3
Duration : 1h 27mn
Bit rate mode : Constant
Bit rate : 192 Kbps
Channel(s) : 2 channels
Channel positions : Front: L R
Sampling rate : 48.0 KHz
Bit depth : 16 bits
Compression mode : Lossy
Stream size : 121 MiB (2%)
Language : Russian
Default : Yes
Forced : Yes

Audio #2
ID : 3
Format : AC-3
Format/Info : Audio Coding 3
Mode extension : CM (complete main)
Format settings, Endianness : Big
Codec ID : A_AC3
Duration : 1h 27mn
Bit rate mode : Constant
Bit rate : 192 Kbps
Channel(s) : 2 channels
Channel positions : Front: L R
Sampling rate : 48.0 KHz
Bit depth : 16 bits
Compression mode : Lossy
Stream size : 121 MiB (2%)
Language : English
Default : No
Forced : No
Скриншоты:



Пожалуйста, не уходите с раздачи - помогите докачать другим. Если понравился релиз - жмите кнопку "Спасибо"! :приветствую:

Время раздачи: 24 / 7

"Кто на самом деле открыл Америку / Who Really Discovered America" на трекере
[NNM-Club.ru]_Who.Really.Discovered.America.(2010).HDTVRip.720p.mkv.torrent
 Торрент: Платиновая раздача  Зарегистрирован
 
Скачать


Примагнититься
 Зарегистрирован:   27 Июл 2013 14:56:33
 Размер:   4,72 GB  (
 Рейтинг:   4,8 (Голосов: 32)
 Поблагодарили:   111
 Проверка:   Оформление проверено модератором 27 Июл 2013 15:02:56
Как cкачать  ·  Как раздать  ·  Правильно оформить  ·  Поднять ратио!  
Баетс
Стаж: 3 года 10 мес.
Сообщений: 349
Ratio: 0,634
100%
Согласно последним исследованиям Америку открыли украинцы, они же и Канаду основали, чтобы два раза не бегать.
derini
 
Стаж: 13 лет 1 мес.
Сообщений: 1232
Ratio: 6,031
Поблагодарили: 4693
100%
comoros.gif
Баетс писал(а): Перейти к сообщению
Америку открыли украинцы, они же и Канаду основали, чтобы два раза не бегать.


Вот зачем спойлеры писать. Взял, и весь сюжет фильма рассказал.
Trixxxy
Стаж: 6 лет 3 мес.
Сообщений: 1490
Ratio: 7,77
100%
papuanewguinea.gif
Даже не смешно.

_________________
И так всё понятно.
baby666
Стаж: 8 лет
Сообщений: 16
Ratio: 12,538
0%
Интересно а можно эту Америку закрыть? :поклоняется:
Показать сообщения:   
Начать новую тему   Ответить на тему    Торрент-трекер NNM-Club -> Зарубежные TV-бренды -> History Channel Часовой пояс: GMT + 3
Страница 1 из 1