Классический форум-трекер
canvas not supported
Нас вместе: 4 103 992

CRYSTAL VIBE - Change Is the Only Constant (2014) [FLAC|24/44,1|WEB-DL|Tracks]<Ambient, Psychill, Downtempo>


 
 
RSS
Начать новую тему   Ответить на тему    Торрент-трекер NNM-Club -> HD Audio и Многоканальная Музыка -> WEB-DL-Audio
Автор Сообщение
seregasgas ®
Стаж: 9 лет 2 мес.
Сообщений: 311
Ratio: 54,314
Поблагодарили: 7498
100%
Откуда: St.Petersburg
pirates.png
CRYSTAL VIBE Change Is the Only Constant
Год издания: 2014
Жанр: Ambient, Psychill, Downtempo
Издатель(лейбл): Altar Records
Номер по каталогу: ARDEP23
Носитель: WEB
Страна-производитель диска: Canada
Страна исполнителя: Ukraine

Аудиокодек: FLAC (*.flac)
Разрядность: 24/41,1
Тип рипа: tracks
Битрейт аудио: lossless
Продолжительность: 01:07:42

Треклист:
01. Waking Life (9:04)
02. Shift Of The Ages (9:51)
03. Tentura - Resonance (Crystal Vibe Remix) (9:35)
04. Ancient Technology (10:26)
05. Change is the Only Constant (8:39)
06. Inside (9:50)
07. Pandora (10:16)
Код:

Общее
Полное имя                               : H:\uTorrent\Crystal Vibe - Change Is the Only Constant (2014) [WEB] [FLAC-24bit]\05. Crystal Vibe - Change is the Only Constant.flac
Формат                                   : FLAC
Формат/Информация                        : Free Lossless Audio Codec
Размер файла                             : 105 Мбайт
Продолжительность                        : 8 м. 39 с.
Режим общего битрейта                    : Переменный
Общий поток                              : 1694 Кбит/сек
Альбом                                   : Change Is the Only Constant
Альбом/Исполнитель                       : Crystal Vibe
Трек                                     : Change is the Only Constant
Трек/Положение                           : 5
Исполнитель                              : Crystal Vibe
Жанр                                     : Ambient/Downtempo
Дата записи                              : 2014
Обложка                                  : Yes
Тип обложки                              : Cover (front)
MIME-тип обложки                         : image/jpeg

Аудио
Формат                                   : FLAC
Формат/Информация                        : Free Lossless Audio Codec
Продолжительность                        : 8 м. 39 с.
Вид битрейта                             : Переменный
Битрейт                                  : 1689 Кбит/сек
Каналы                                   : 2 канала
Частота                                  : 44,1 КГц
Битовая глубина                          : 24 бит
Размер потока                            : 105 Мбайт (100%)
Библиотека кодирования                   : libFLAC 1.2.1 (UTC 2007-09-17)

Общее
Полное имя                               : H:\uTorrent\Crystal Vibe - Change Is the Only Constant (2014) [WEB] [FLAC-24bit]\06. Crystal Vibe - Inside.flac
Формат                                   : FLAC
Формат/Информация                        : Free Lossless Audio Codec
Размер файла                             : 121 Мбайт
Продолжительность                        : 9 м. 50 с.
Режим общего битрейта                    : Переменный
Общий поток                              : 1723 Кбит/сек
Альбом                                   : Change Is the Only Constant
Альбом/Исполнитель                       : Crystal Vibe
Трек                                     : Inside
Трек/Положение                           : 6
Исполнитель                              : Crystal Vibe
Жанр                                     : Ambient/Downtempo
Дата записи                              : 2014
Обложка                                  : Yes
Тип обложки                              : Cover (front)
MIME-тип обложки                         : image/jpeg

Аудио
Формат                                   : FLAC
Формат/Информация                        : Free Lossless Audio Codec
Продолжительность                        : 9 м. 50 с.
Вид битрейта                             : Переменный
Битрейт                                  : 1718 Кбит/сек
Каналы                                   : 2 канала
Частота                                  : 44,1 КГц
Битовая глубина                          : 24 бит
Размер потока                            : 121 Мбайт (100%)
Библиотека кодирования                   : libFLAC 1.2.1 (UTC 2007-09-17)

Общее
Полное имя                               : H:\uTorrent\Crystal Vibe - Change Is the Only Constant (2014) [WEB] [FLAC-24bit]\07. Crystal Vibe - Pandora.flac
Формат                                   : FLAC
Формат/Информация                        : Free Lossless Audio Codec
Размер файла                             : 126 Мбайт
Продолжительность                        : 10 м.
Режим общего битрейта                    : Переменный
Общий поток                              : 1711 Кбит/сек
Альбом                                   : Change Is the Only Constant
Альбом/Исполнитель                       : Crystal Vibe
Трек                                     : Pandora
Трек/Положение                           : 7
Исполнитель                              : Crystal Vibe
Жанр                                     : Ambient/Downtempo
Дата записи                              : 2014
Обложка                                  : Yes
Тип обложки                              : Cover (front)
MIME-тип обложки                         : image/jpeg

Аудио
Формат                                   : FLAC
Формат/Информация                        : Free Lossless Audio Codec
Продолжительность                        : 10 м.
Вид битрейта                             : Переменный
Битрейт                                  : 1706 Кбит/сек
Каналы                                   : 2 канала
Частота                                  : 44,1 КГц
Битовая глубина                          : 24 бит
Размер потока                            : 125 Мбайт (100%)
Библиотека кодирования                   : libFLAC 1.2.1 (UTC 2007-09-17)

Общее
Полное имя                               : H:\uTorrent\Crystal Vibe - Change Is the Only Constant (2014) [WEB] [FLAC-24bit]\01. Crystal Vibe - Waking Life.flac
Формат                                   : FLAC
Формат/Информация                        : Free Lossless Audio Codec
Размер файла                             : 112 Мбайт
Продолжительность                        : 9 м. 4 с.
Режим общего битрейта                    : Переменный
Общий поток                              : 1729 Кбит/сек
Альбом                                   : Change Is the Only Constant
Альбом/Исполнитель                       : Crystal Vibe
Трек                                     : Waking Life
Трек/Положение                           : 1
Исполнитель                              : Crystal Vibe
Жанр                                     : Ambient/Downtempo
Дата записи                              : 2014
Обложка                                  : Yes
Тип обложки                              : Cover (front)
MIME-тип обложки                         : image/jpeg

Аудио
Формат                                   : FLAC
Формат/Информация                        : Free Lossless Audio Codec
Продолжительность                        : 9 м. 4 с.
Вид битрейта                             : Переменный
Битрейт                                  : 1724 Кбит/сек
Каналы                                   : 2 канала
Частота                                  : 44,1 КГц
Битовая глубина                          : 24 бит
Размер потока                            : 112 Мбайт (100%)
Библиотека кодирования                   : libFLAC 1.2.1 (UTC 2007-09-17)

Общее
Полное имя                               : H:\uTorrent\Crystal Vibe - Change Is the Only Constant (2014) [WEB] [FLAC-24bit]\02. Crystal Vibe - Shift Of The Ages.flac
Формат                                   : FLAC
Формат/Информация                        : Free Lossless Audio Codec
Размер файла                             : 121 Мбайт
Продолжительность                        : 9 м. 51 с.
Режим общего битрейта                    : Переменный
Общий поток                              : 1722 Кбит/сек
Альбом                                   : Change Is the Only Constant
Альбом/Исполнитель                       : Crystal Vibe
Трек                                     : Shift Of The Ages
Трек/Положение                           : 2
Исполнитель                              : Crystal Vibe
Жанр                                     : Ambient/Downtempo
Дата записи                              : 2014
Обложка                                  : Yes
Тип обложки                              : Cover (front)
MIME-тип обложки                         : image/jpeg

Аудио
Формат                                   : FLAC
Формат/Информация                        : Free Lossless Audio Codec
Продолжительность                        : 9 м. 51 с.
Вид битрейта                             : Переменный
Битрейт                                  : 1717 Кбит/сек
Каналы                                   : 2 канала
Частота                                  : 44,1 КГц
Битовая глубина                          : 24 бит
Размер потока                            : 121 Мбайт (100%)
Библиотека кодирования                   : libFLAC 1.2.1 (UTC 2007-09-17)

Общее
Полное имя                               : H:\uTorrent\Crystal Vibe - Change Is the Only Constant (2014) [WEB] [FLAC-24bit]\03. Tentura - Resonance (Crystal Vibe Remix).flac
Формат                                   : FLAC
Формат/Информация                        : Free Lossless Audio Codec
Размер файла                             : 112 Мбайт
Продолжительность                        : 9 м. 34 с.
Режим общего битрейта                    : Переменный
Общий поток                              : 1631 Кбит/сек
Альбом                                   : Change Is the Only Constant
Альбом/Исполнитель                       : Crystal Vibe
Трек                                     : Resonance (Crystal Vibe Remix)
Трек/Положение                           : 3
Исполнитель                              : Tentura
Жанр                                     : Ambient/Downtempo
Дата записи                              : 2014
Обложка                                  : Yes
Тип обложки                              : Cover (front)
MIME-тип обложки                         : image/jpeg

Аудио
Формат                                   : FLAC
Формат/Информация                        : Free Lossless Audio Codec
Продолжительность                        : 9 м. 34 с.
Вид битрейта                             : Переменный
Битрейт                                  : 1626 Кбит/сек
Каналы                                   : 2 канала
Частота                                  : 44,1 КГц
Битовая глубина                          : 24 бит
Размер потока                            : 111 Мбайт (100%)
Библиотека кодирования                   : libFLAC 1.2.1 (UTC 2007-09-17)

Общее
Полное имя                               : H:\uTorrent\Crystal Vibe - Change Is the Only Constant (2014) [WEB] [FLAC-24bit]\04. Crystal Vibe - Ancient Technology.flac
Формат                                   : FLAC
Формат/Информация                        : Free Lossless Audio Codec
Размер файла                             : 125 Мбайт
Продолжительность                        : 10 м.
Режим общего битрейта                    : Переменный
Общий поток                              : 1674 Кбит/сек
Альбом                                   : Change Is the Only Constant
Альбом/Исполнитель                       : Crystal Vibe
Трек                                     : Ancient Technology
Трек/Положение                           : 4
Исполнитель                              : Crystal Vibe
Жанр                                     : Ambient/Downtempo
Дата записи                              : 2014
Обложка                                  : Yes
Тип обложки                              : Cover (front)
MIME-тип обложки                         : image/jpeg

Аудио
Формат                                   : FLAC
Формат/Информация                        : Free Lossless Audio Codec
Продолжительность                        : 10 м.
Вид битрейта                             : Переменный
Битрейт                                  : 1669 Кбит/сек
Каналы                                   : 2 канала
Частота                                  : 44,1 КГц
Битовая глубина                          : 24 бит
Размер потока                            : 125 Мбайт (100%)
Библиотека кодирования                   : libFLAC 1.2.1 (UTC 2007-09-17)
Время раздачи: 14/7
[NNM-Club.me]_Crystal Vibe - Change Is the Only Constant (2014) [WEB] [FLAC-24bit].torrent
 Торрент: Платиновая раздача  Зарегистрирован
 
Скачать


Примагнититься
 Зарегистрирован:   01 Янв 2015 06:03:41
 Размер:   823 MB  (
 Рейтинг:   4,9 (Голосов: 19)
 Поблагодарили:   79
 Проверка:   Оформление проверено модератором 03 Янв 2015 00:53:45
Как cкачать  ·  Как раздать  ·  Правильно оформить  ·  Поднять ратио!  
seregasgas ®
Стаж: 9 лет 2 мес.
Сообщений: 311
Ratio: 54,314
Поблагодарили: 7498
100%
Откуда: St.Petersburg
pirates.png
Поздравляю всех с наступившем Новым Годом! :НГ_прыжок:
Прослушка: https://altar.bandcamp.com/album/change-is-the-only-constant-24bits
HAMIL1985
Стаж: 9 лет
Сообщений: 39
Ratio: 0,517
100%
israel.gif
:НГ_прыжок: Поздравляю всех с Новым Годом! :НГ_прыжок: :новогоднее пиво: :респект:
Anti-gen
Стаж: 7 лет 7 мес.
Сообщений: 2
Ratio: 1770,497
54.55%
Del
Показать сообщения:   
Начать новую тему   Ответить на тему    Торрент-трекер NNM-Club -> HD Audio и Многоканальная Музыка -> WEB-DL-Audio Часовой пояс: GMT + 3
Страница 1 из 1