Классический форум-трекер
canvas not supported
Нас вместе: 4 064 961

Dr. Alban - 4 Singles (1992 - 1997) [APE|Lossless]<Eurodance>


 
 
RSS
Начать новую тему   Ответить на тему    Торрент-трекер NNM-Club -> Pop -> Eurodance, Euro-House, Technopop (Lossless)
Автор Сообщение
Beijing65 ®
Модератор Музыки
RG Music
 
Стаж: 8 лет 3 мес.
Сообщений: 2258
Ratio: 1657,631
Поблагодарили: 113517
100%
Dr. Alban - 4 Singles (1992 - 1997)
Год: 1992 - 1997
Жанр: Eurodance
Продолжительность: 01:33:10

Кодек: APE
Битрейт: Lossless
Описание:
Dr. Alban (Alban Uzoma Nwapa) - шведский музыкант нигерийского происхождения, работающий в стиле Eurodance, владелец собственного звукозаписывающего лейбла Dr-Records. В псевдониме "Dr." (Доктор) - это намёк о несостоявшейся карьере стоматолога.
Профессионально заниматься музыкой начал в возрасте 23 лет. Дебютный альбом «Hello Africa» расходится по миру миллионным тиражом и приносит Албану мировую известность. Второй альбом – «One Love», достигает отметки в 1.6 млн. экземпляров, а композиция «It’s My life» занимает ведущие позиции в хит-парадах Израиля, Нидерландов, Германии и Великобритании и становится визитной карточкой Dr. Alban.

Треклист:
1992 - It`s My Life (US)
1994 - Look Who`s Talking (The Remix)
1995 - Swing ft. Dr. Alban - Sweet Dreams
1997 - Long Time Ago
Трeклист:
01. It's My Life (Single Version)
02. It's My Life (U.S. Club Version)
03. It's My Life (Euro Club Mix)
04. It's My Life (Ragga Mix)

Прoдолжительность: 00:24:06
Код:
Exact Audio Copy V0.99 prebeta 3 from 28. July 2007

Отчёт EAC об извлечении, выполненном 7. февраля 2011, 21:55

Dr. Alban / It's My Life (Single)

Дисковод: PIONEER DVD-RW  DVR-112D   Adapter: 1  ID: 0

Режим чтения                 : Достоверность
Использование точного потока : Да
Отключение кэша аудио        : Да
Использование указателей C2  : Нет

Коррекция смещения при чтении                     : 48
Способность читать области Lead-in и Lead-out     : Нет
Заполнение пропущенных сэмплов тишиной            : Да
Удаление блоков с тишиной в начале и конце        : Нет
При вычислениях CRC использовались нулевые сэмплы : Да
Интерфейс                                         : Встроенный Win32-интерфейс для Win NT/2000

Выходной формат : Внутренние WAV-операции
Формат сэмплов  : 44.100 Гц; 16 бит; стерео

TOC извлечённого CD

     Трек |   Старт  | Длительность | Начальный сектор | Конечный сектор
    ---------------------------------------------------------------------
       1  |  0:00.00 |    4:02.13   |           0      |      18162
       2  |  4:02.13 |    7:45.50   |       18163      |      53087
       3  | 11:47.63 |    7:45.07   |       53088      |      87969
       4  | 19:32.70 |    4:33.55   |       87970      |     108499

Характеристики диапазона извлечения и сообщения об ошибках

Выбранный диапазон

     Имя файла G:\for tracker\Dr. Alban\Singles\Dr. Alban - 1993 - It`s My Life (US) CD5\CDImage.wav

     Пиковый уровень 97.7 %
     Качество диапазона 100.0 %
     CRC теста D8A5318E
     CRC копии D8A5318E
     Копирование... OK

Ошибок не произошло

AccurateRip: сводка

Трек  1  точное извлечение (доверие 5)  [ABE4B572]
Трек  2  точное извлечение (доверие 5)  [5E247BF3]
Трек  3  точное извлечение (доверие 5)  [A401A126]
Трек  4  точное извлечение (доверие 5)  [6154E060]

Все треки извлечены точно

Конец отчёта
Код:
-----------------------

DON'T MODIFY THIS FILE

-----------------------

PERFORMER: auCDtect Task Manager, ver. 1.5.1RC4 build 1.5.1.5
Copyright (c) 2008-2010 y-soft. All rights reserved
http://y-soft.org

ANALYZER: auCDtect: CD records authenticity detector, version 0.8.2
Copyright (c) 2004 Oleg Berngardt. All rights reserved.
Copyright (c) 2004 Alexander Djourik. All rights reserved.

FILE: Dr. Alban - It's My Life.ape
  Size: 167452876 Hash: 2A81B4233B829357CBF6AED4C8F4FFD6 Accuracy: -m0
  Conclusion: CDDA 100%
  Signature: 3FEFB831FFBCB142DA500F2D20FB93FF8FAB0D3F
Трeклист:
01. Look Who's Talking (Lucky Version)
02. Look Who's Talking (Lucky Edit)
03. Look Who's Talking (Attitude Version)
04. Look Who's Talking (Rascal Instrumental)

Прoдолжительность: 00:27:01
Код:
Exact Audio Copy V0.99 prebeta 3 from 28. July 2007

Отчёт EAC об извлечении, выполненном 7. февраля 2011, 6:19

Dr. Alban / Look Whos Talking (The Remix)

Дисковод: PIONEER DVD-RW  DVR-112D   Adapter: 1  ID: 0

Режим чтения                 : Достоверность
Использование точного потока : Да
Отключение кэша аудио        : Да
Использование указателей C2  : Нет

Коррекция смещения при чтении                     : 48
Способность читать области Lead-in и Lead-out     : Нет
Заполнение пропущенных сэмплов тишиной            : Да
Удаление блоков с тишиной в начале и конце        : Нет
При вычислениях CRC использовались нулевые сэмплы : Да
Интерфейс                                         : Встроенный Win32-интерфейс для Win NT/2000

Выходной формат : Внутренние WAV-операции
Формат сэмплов  : 44.100 Гц; 16 бит; стерео

TOC извлечённого CD

     Трек |   Старт  | Длительность | Начальный сектор | Конечный сектор
    ---------------------------------------------------------------------
       1  |  0:00.00 |    5:53.70   |           0      |      26544
       2  |  5:53.70 |    3:31.52   |       26545      |      42421
       3  |  9:25.47 |   10:43.33   |       42422      |      90679
       4  | 20:09.05 |    6:52.25   |       90680      |     121604

Характеристики диапазона извлечения и сообщения об ошибках

Выбранный диапазон

     Имя файла G:\for tracker\Dr. Alban\Singles\Dr. Alban - 1994 - Look Who`s Talking (The Remix) CD5\CDImage.wav

     Пиковый уровень 100.0 %
     Качество диапазона 100.0 %
     CRC теста 8BE86651
     CRC копии 8BE86651
     Копирование... OK

Ошибок не произошло

AccurateRip: сводка

Трек  1  точное извлечение (доверие 8)  [EEDA8C4F]
Трек  2  точное извлечение (доверие 7)  [47DBA578]
Трек  3  точное извлечение (доверие 7)  [17A68AEC]
Трек  4  точное извлечение (доверие 7)  [09065B48]

Все треки извлечены точно

Конец отчёта
Код:
-----------------------

DON'T MODIFY THIS FILE

-----------------------

PERFORMER: auCDtect Task Manager, ver. 1.5.1RC4 build 1.5.1.5
Copyright (c) 2008-2010 y-soft. All rights reserved
http://y-soft.org

ANALYZER: auCDtect: CD records authenticity detector, version 0.8.2
Copyright (c) 2004 Oleg Berngardt. All rights reserved.
Copyright (c) 2004 Alexander Djourik. All rights reserved.

FILE: Dr. Alban - Look Who`s Talking (The Remix).ape
  Size: 169675288 Hash: FFD312865A222C997E30DD22D8CB663C Accuracy: -m0
  Conclusion: CDDA 99%
  Signature: 95BE636FECD0872CD2BC10E0DE15E405ABE8A3E7
Трeклист:
01. Sweet Dreams (Radio)
02. Sweet Dreams (Extended)
03. Sweet Dreams (Aura Mix)
04. Sweet Dreams (Tabledance)

Прoдолжительность: 00:21:24
Код:
Exact Audio Copy V0.99 prebeta 3 from 28. July 2007

Отчёт EAC об извлечении, выполненном 8. февраля 2011, 20:20

Swing feat. Dr. Alban / Sweet Dreams

Дисковод: PIONEER DVD-RW  DVR-112D   Adapter: 1  ID: 0

Режим чтения                 : Достоверность
Использование точного потока : Да
Отключение кэша аудио        : Да
Использование указателей C2  : Нет

Коррекция смещения при чтении                     : 48
Способность читать области Lead-in и Lead-out     : Нет
Заполнение пропущенных сэмплов тишиной            : Да
Удаление блоков с тишиной в начале и конце        : Нет
При вычислениях CRC использовались нулевые сэмплы : Да
Интерфейс                                         : Встроенный Win32-интерфейс для Win NT/2000

Выходной формат : Внутренние WAV-операции
Формат сэмплов  : 44.100 Гц; 16 бит; стерео

TOC извлечённого CD

     Трек |   Старт  | Длительность | Начальный сектор | Конечный сектор
    ---------------------------------------------------------------------
       1  |  0:00.00 |    3:30.25   |           0      |      15774
       2  |  3:30.25 |    6:02.40   |       15775      |      42964
       3  |  9:32.65 |    6:08.57   |       42965      |      70621
       4  | 15:41.47 |    5:42.68   |       70622      |      96339

Характеристики диапазона извлечения и сообщения об ошибках

Выбранный диапазон

     Имя файла G:\for tracker\Dr. Alban\Singles\Swing feat. Dr. Alban - 1995 - Sweet Dreams CD5\CDImage.wav

     Пиковый уровень 99.9 %
     Качество диапазона 100.0 %
     CRC теста 0564BF1D
     CRC копии 0564BF1D
     Копирование... OK

Ошибок не произошло

AccurateRip: сводка

Трек  1  нет в базе данных
Трек  2  нет в базе данных
Трек  3  нет в базе данных
Трек  4  нет в базе данных

Ни одного трека нет в базе AccurateRip

Конец отчёта
Код:
-----------------------

DON'T MODIFY THIS FILE

-----------------------

PERFORMER: auCDtect Task Manager, ver. 1.5.1RC4 build 1.5.1.5
Copyright (c) 2008-2010 y-soft. All rights reserved
http://y-soft.org

ANALYZER: auCDtect: CD records authenticity detector, version 0.8.2
Copyright (c) 2004 Oleg Berngardt. All rights reserved.
Copyright (c) 2004 Alexander Djourik. All rights reserved.

FILE: Swing ft. Dr. Alban - Sweet Dreams.ape
  Size: 142941404 Hash: 35DEA590A9273B857A42E6DB6C94F317 Accuracy: -m0
  Conclusion: CDDA 100%
  Signature: A983CC1FB494F7C9CBDD0C3FF48CFBB0EB14C052
Очень приличный кавер на одноименную композицию Eurythmics
Трeклист:
01. Long Time Ago (Bundes Radio Mix)
02. Long Time Ago (Sash! Mix)
03. Long Time Ago (Album Version)
04. Long Time Ago (Sash! Extended)
05. Long Time Ago (Ari's Dr. Records Remix)

Прoдолжительность: 00:20:39
Код:
Exact Audio Copy V0.99 prebeta 4 from 23. January 2008

Отчёт EAC об извлечении, выполненном 18. декабря 2008, 14:07

Dr. Alban / Long Time Ago (CDM)

Дисковод: HL-DT-STDVDRAM GSA-H10N   Adapter: 0  ID: 0

Режим чтения                 : Достоверность
Использование точного потока : Да
Отключение кэша аудио        : Да
Использование указателей C2  : Нет

Коррекция смещения при чтении                     : 667
Способность читать области Lead-in и Lead-out     : Нет
Заполнение пропущенных сэмплов тишиной            : Да
Удаление блоков с тишиной в начале и конце        : Нет
При вычислениях CRC использовались нулевые сэмплы : Да
Интерфейс                                         : Установленный внешний ASPI-интерфейс

Выходной формат : Внутренние WAV-операции
Формат сэмплов  : 44.100 Гц; 16 бит; стерео

TOC извлечённого CD

     Трек |   Старт  | Длительность | Начальный сектор | Конечный сектор
    ---------------------------------------------------------------------
       1  |  0:00.00 |    4:16.67   |           0      |      19266
       2  |  4:16.67 |    3:12.10   |       19267      |      33676
       3  |  7:29.02 |    3:31.33   |       33677      |      49534
       4  | 11:00.35 |    5:13.10   |       49535      |      73019
       5  | 16:13.45 |    4:25.72   |       73020      |      92966

Характеристики диапазона извлечения и сообщения об ошибках

Выбранный диапазон

     Имя файла E:\=NEW YEAR\Dr.Alban - Long Time Ago (CDM) (1997) (lossless-DENnv)\Dr. Alban - Long Time Ago.wav

     Пиковый уровень 99.9 %
     Качество диапазона 100.0 %
     CRC копии AF5AB36C
     Копирование... OK

Ошибок не произошло

Конец отчёта
Код:
-----------------------

DON'T MODIFY THIS FILE

-----------------------

PERFORMER: auCDtect Task Manager, ver. 1.5.1RC4 build 1.5.1.5
Copyright (c) 2008-2010 y-soft. All rights reserved
http://y-soft.org

ANALYZER: auCDtect: CD records authenticity detector, version 0.8.2
Copyright (c) 2004 Oleg Berngardt. All rights reserved.
Copyright (c) 2004 Alexander Djourik. All rights reserved.

FILE: Dr. Alban - Long Time Ago.ape
  Size: 149719780 Hash: BBBFFCA540CA6343BA1D9581B9030E93 Accuracy: -m0
  Conclusion: CDDA 100%
  Signature: 169023E4D4EDEC82104BA5D81985DFC813BF1B65
Время раздачи: 24/7 до 5-ти сидов


Поглощение/вытеснение
Только с согласия релизера

DesideriuM

Реставрация релиза: DesideriuM
Dr. Alban - Singles [NNM-club].torrent
 Торрент: Платиновая раздача  Зарегистрирован
 
Скачать


 Зарегистрирован:   11 Мар 2011 11:07:25
 Размер:   601 MB  (
 Рейтинг:   4,8 (Голосов: 21)
 Поблагодарили:   48
 Проверка:   Оформление проверено модератором 11 Мар 2011 21:28:23
Как cкачать  ·  Как раздать  ·  Правильно оформить  ·  Поднять ратио!  
Krucha
Стаж: 9 лет 7 мес.
Сообщений: 3647
Ratio: 163,335
Поблагодарили: 251221
100%
Откуда: Запорожье
ussr.gif
Спасибо! :респект:
как раз в настроение попал!
baralgin1983
Стаж: 9 лет 2 мес.
Сообщений: 1
Ratio: 12,591
2.08%
russia.gif
встаньте на раздачу
Показать сообщения:   
Начать новую тему   Ответить на тему    Торрент-трекер NNM-Club -> Pop -> Eurodance, Euro-House, Technopop (Lossless) Часовой пояс: GMT + 3
Страница 1 из 1