Классический форум-трекер
canvas not supported
Нас вместе: 4 101 300

History Channel. Древние пришельцы / Ancient Aliens (2010) HDTVRip [H.264/720p] [Cезон 5: 12 серий из 12]


 
 
RSS
Начать новую тему   Ответить на тему    Торрент-трекер NNM-Club -> Зарубежные TV-бренды -> History Channel
Автор Сообщение
Отец Лоренцо ®
Uploader 1000+, Сталкер
Стаж: 8 лет 3 мес.
Сообщений: 4039
Ratio: 7393,141
Раздал: 1,0172 PB
Поблагодарили: 122139
100%
Откуда: Харьков, Украина
History Channel. Древние пришельцы / Ancient Aliens (2012) HDTVRip [H.264/720p]
[Cезон 5: 12 серий из 12]

Режиссер / Телекомпания: Кевин Барнс, Дэвид Сильвер / History Channel
Страна: США
Год выпуска: 2012
Жанр: Документальный, научно-популярный, уфология, альтернативная история, псевдоистория
В ролях: Уильям Джей Бернс, Линда Молтон Хоу, Роберт Клотуорти, Джордж Нури, Джонатан Янг, Луис Навия, Бэрри Доунинг, Эрих фон Дэникен, Майкл Кремо, Дэвид Чайлдресс

Описание:
Возможно ли, что разумные формы жизни посетили Землю тысячи лет назад, принеся с собой технологии, кардинально повлиявшие на ход истории и развития человечества? Теория "древних пришельцев", опубликованная в 1968 году в бестселлере Эриха фон Деникена "Колесницы богов", пошатнула представления людей об общеизвестном прогрессе человечества. Древние пещерные рисунки странных существ, остатки взлетно-посадочных полос в Перу, индийские тексты, описывающие "летающие машины богов" - вот лишь некоторые необычные археологические артефакты, на которые ссылается Деникен, в качестве доказательств того, что "древние астронавты" были хорошо известны нашим предкам.

Продолжительность: 12 x ~00:43:00

Перевод: Многоголосый закадровый (профессиональный)

Видеокодек: MPEG-4 AVC/H.264
Битрейт видео: ~4 180 Кбит/с
Размер кадра: 1280 x 720
Качество видео: BDRip [720p]
Аудио:
1. [русский] MP3, 2 ch, 128 Кбит/с
2. [english] АС3, 6 ch, 384 Кбит/с

Содержание:
Скриншоты:

Скриншоты:

Скриншоты:

Скриншоты:

Скриншоты:

Скриншоты:

Скриншоты:
Скриншоты:

Скриншоты:

Скриншоты:

Скриншоты:

Скриншоты:

Скриншоты:

General
Unique ID : 201589090137704678777367362672287783097 (0x97A8A5820F3210F6B7E80FB983B798B9)
Complete name : I:\МУСОР\Ancient.Aliens.2012.(season5).HDTVRip.720p\Ancient.Aliens.S05E01.Secrets.of.the.Pyramids.720p.mkv
Format : Matroska
Format version : Version 2
File size : 1.44 GiB
Duration : 44mn 0s
Overall bit rate : 4 689 Kbps
Encoded date : UTC 2013-08-28 19:23:42
Writing application : mkvmerge v5.7.0 ('The Whirlwind') built on Jul 29 2012 15:12:35
Writing library : libebml v1.2.3 + libmatroska v1.3.0

Video
ID : 1
Format : AVC
Format/Info : Advanced Video Codec
Format profile : High@L4.1
Format settings, CABAC : Yes
Format settings, ReFrames : 9 frames
Codec ID : V_MPEG4/ISO/AVC
Duration : 44mn 0s
Bit rate : 4 175 Kbps
Width : 1 280 pixels
Height : 720 pixels
Display aspect ratio : 16:9
Frame rate mode : Constant
Frame rate : 23.976 fps
Color space : YUV
Chroma subsampling : 4:2:0
Bit depth : 8 bits
Scan type : Progressive
Bits/(Pixel*Frame) : 0.189
Stream size : 1.26 GiB (87%)
Writing library : x264 core 129 r2245kMod bc13772
Encoding settings : cabac=1 / ref=9 / deblock=1:-3:-3 / analyse=0x3:0x133 / me=umh / subme=10 / psy=1 / fade_compensate=0.00 / psy_rd=1.10:0.00 / mixed_ref=1 / me_range=24 / chroma_me=1 / trellis=2 / 8x8dct=1 / cqm=0 / deadzone=21,11 / fast_pskip=0 / chroma_qp_offset=-2 / threads=6 / lookahead_threads=1 / sliced_threads=0 / nr=0 / decimate=0 / interlaced=0 / bluray_compat=0 / constrained_intra=0 / bframes=7 / b_pyramid=2 / b_adapt=2 / b_bias=0 / direct=3 / weightb=1 / open_gop=0 / weightp=2 / keyint=250 / keyint_min=23 / scenecut=40 / intra_refresh=0 / rc=2pass / mbtree=0 / bitrate=4175 / ratetol=1.0 / qcomp=0.70 / qpmin=10 / qpmax=51 / qpstep=4 / cplxblur=20.0 / qblur=0.5 / ip_ratio=1.40 / pb_ratio=1.30 / aq=1:0.80
Language : English
Default : No
Forced : No

Audio #1
ID : 2
Format : MPEG Audio
Format version : Version 1
Format profile : Layer 3
Mode : Joint stereo
Mode extension : MS Stereo
Codec ID : A_MPEG/L3
Codec ID/Hint : MP3
Duration : 43mn 59s
Bit rate mode : Constant
Bit rate : 128 Kbps
Channel(s) : 2 channels
Sampling rate : 48.0 KHz
Compression mode : Lossy
Stream size : 40.3 MiB (3%)
Writing library : LAME3.93
Encoding settings : -m j -V 4 -q 2 -lowpass 15.3 -b 128
Language : Russian
Default : Yes
Forced : Yes

Audio #2
ID : 3
Format : AC-3
Format/Info : Audio Coding 3
Mode extension : CM (complete main)
Format settings, Endianness : Big
Codec ID : A_AC3
Duration : 44mn 0s
Bit rate mode : Constant
Bit rate : 384 Kbps
Channel(s) : 6 channels
Channel positions : Front: L C R, Side: L R, LFE
Sampling rate : 48.0 KHz
Bit depth : 16 bits
Compression mode : Lossy
Stream size : 121 MiB (8%)
Language : English
Default : No
Forced : No

Text
ID : 4
Format : UTF-8
Codec ID : S_TEXT/UTF8
Codec ID/Info : UTF-8 Plain Text
Language : English
Default : No
Forced : No
Пожалуйста, не уходите с раздачи - помогите докачать другим. Если понравился релиз - жмите кнопку "Спасибо"! :приветствую:

Время раздачи: 24 / 7

"Древние пришельцы / Ancient Aliens" на NoNaMe Club
[NNM-Club.me]_Ancient.Aliens.2012.(season5).HDTVRip.720p.torrent
 Торрент: Платиновая раздача  Зарегистрирован
 
Скачать


 Зарегистрирован:   28 Сен 2013 12:09:11
 Размер:   17,3 GB  (
 Рейтинг:   4,7 (Голосов: 95)
 Поблагодарили:   335
 Проверка:   Оформление проверено модератором 28 Сен 2013 12:50:12
Как cкачать  ·  Как раздать  ·  Правильно оформить  ·  Поднять ратио!  
PavlikMi
Стаж: 9 лет 8 мес.
Сообщений: 132
Ratio: 0,611
Раздал: 1,104 TB
46.71%
lithuania.gif
в каждой серии рассказывают одно и тоже с другого ракурса, в каждом сезоне, а может быть это - ЭТО?!? на фоне одних и тех же камней
melt_brain
Uploader 100+
Стаж: 10 лет
Сообщений: 345
Ratio: 390,893
Раздал: 154,8 TB
100%
Откуда: адуктО
nnm-club.gif
ну это знаете, как впаривают крем, или авто, содержимое одно и то же, но упаковка-то уже другая. Инновации они такие
PlayStation
Стаж: 13 лет
Сообщений: 959
Ratio: 33,436
Поблагодарили: 918
57.77%
confederate.gif
саус-парк 15-13. там все сказано про канал History и инопланетян.

_________________
PlayStation.
Real game is coming !!!
viktorAM
Стаж: 7 лет 11 мес.
Сообщений: 475
Ratio: 14,301
Раздал: 23,43 TB
34.34%
nnm-club.gif
Прошивают мозги в правильном направлении.То.что получено в мозги в школе явное зомбирование.На планете Земля было много цивилизаций и это факт.Влияние на развитие человечества инопланетян тоже факт.В каждом сезоне сериала показывается также много нового и интересного.Для развития молодежи очень ценный фильм.Спасибо.
JiNN_10
Стаж: 10 лет 2 мес.
Сообщений: 215
Ratio: 5,897
Раздал: 2,677 TB
Поблагодарили: 4955
100%
ussr.gif
Правильно разместил раздающий этот материал у себя на диске...
Цитата:
Complete name : I:\МУСОР\Ancient.Aliens.2012.(season5).HDTVRip.720p\Ancient.Aliens.S05E01.Secrets.of.the.Pyramids.720p.mkv
psymagic
Стаж: 7 лет 3 мес.
Сообщений: 319
Ratio: 17,209
9.49%
те, кто считает, что произошол от обезьяны - могут молча пройти мимо
kbvverde
Стаж: 6 лет 2 мес.
Сообщений: 237
Ratio: 6,016
32.99%
psymagic писал(а): Перейти к сообщению
те, кто считает, что произошол от обезьяны - могут молча пройти мимо

Читая слово прозошол, употребляют слова чо и тд... начинаешь задумываться а может и не все люди
произошли от обезъян. а некоторые и от орангутангов :D
radiodoctor
Uploader 100+
Стаж: 9 лет 10 мес.
Сообщений: 38
Ratio: 70,228
100%
russia.gif
Орангутанов

Добавлено спустя 2 минуты 27 секунд:

Они же орангутаны

Добавлено спустя 1 минуту 12 секунд:

Друзья
psymagic
Стаж: 7 лет 3 мес.
Сообщений: 319
Ratio: 17,209
9.49%
kbvverde писал(а): Перейти к сообщению
psymagic писал(а): Перейти к сообщению
те, кто считает, что произошол от обезьяны - могут молча пройти мимо

Читая слово прозошол, употребляют слова чо и тд... начинаешь задумываться а может и не все люди
произошли от обезъян. а некоторые и от орангутангов :D

Не понимаешь, что человек мог сделать опечатку, когда вслепую набирал, может умышленно так написал или может русский язык - это не его родной язык? Поучаешь, при этом сам пишешь со смысловыми и стилистическими ("Читая слово прозошол, употребляют слова чо", "произошли от обезъян. а некоторые и от орангутангов") ошибками. Присутствуют пунктуационная (нет запятой перед "а может") и орфографическая ("орангутанГ" - правильно - "орангутан") ошибки. Позорище.
veorel3000
Стаж: 3 года 5 мес.
Сообщений: 16
Ratio: 1,119
0%
На российской версии канала H2 в настоящее время идёт показ отсутствующих в русской озвучке серий "Древних пришельцев":
https://tv.yandex.ru/213/program/2283795
В связи с тем, что традиционно в нумерации сезонов именно этого проекта наблюдается путаница, в программе телеканала под "7 сезоном" транслируются на самом деле, например, серии сезона 10, а под вывеской "10 сезон" - свежевыпущенные серии 12-го, которые только что прошли в Америке.
На торрентах, начиная с 6 сезона, также наблюдается путаница. 6-й и 7-й сезоны скомпиллированы в т.н. 19-серийный "6 сезон" и т.д., и только с 11 сезона путаница была устранена. В связи с чем, окончательно выпали из внимания релизёров реальные сезоны 9-10 (наверное, потому что в эфире они идут под "вывеской" 7 или 8 сезона, и эти сезоны "якобы" давно озвучены, что на самом деле не так.
Источники актуальной информации по правильной разбивке на сезоны:
https://en.wikipedia.org/wiki/Ancient_Aliens
http://www.imdb.com/title/tt1643266/
http://www.history.com/shows/ancient-aliens

На этой неделе в эфире канала H2 (рус) серии "Бесследно исчезнувшие", "Пришельцы и Гражданская война", "Скрытые пирамиды", "Инопланетны заговор", "Загадки Сфинкса". Это серии 9-го сезона, но в программе заявлены как серии 7-го. В интернете серии отсутствуют...

Пожалуйста, у кого есть возможность и талант, запишите транслирующиеся серии!
Показать сообщения:   
Начать новую тему   Ответить на тему    Торрент-трекер NNM-Club -> Зарубежные TV-бренды -> History Channel Часовой пояс: GMT + 3
Страница 1 из 1