Классический форум-трекер
canvas not supported
Нас вместе: 4 104 821

History Channel: Древние пришельцы / Ancient Aliens (2014) HDTVRip (Сезон 7, серия 5 )


 
 
RSS
Начать новую тему   Ответить на тему    Торрент-трекер NNM-Club -> Зарубежные TV-бренды -> History Channel
Автор Сообщение
svlesin ®
Модератор Документалистики/TV
RG Releasers
Релизер 25000+ Uploader 300+
 
Стаж: 10 лет 4 мес.
Сообщений: 33809
Ratio: 1833,449
Поблагодарили: 3253642
100%
russia.gif
History Channel: Древние пришельцы / Ancient Aliens (2014) HDTVRip (Сезон 7, серия 5 )
Режиссер / Телекомпания: History

Русское название: Древние пришельцы
Оригинальное название: Ancient Aliens
Год выпуска: 2014
Жанр: Документальный, паранормальный, уфология, мистика, альтернативная история, псевдоистория
Выпущено: США, Prometheus Entertainment, A&E Television Networks, LLC., History Channel

Описание:
Возможно ли, что разумные формы жизни посетили Землю тысячи лет назад, принеся с собой технологии кардинально повлиявшие на ход истории и развития человечества? Теория "древних пришельцев", опубликованная в 1968 году в бестселлере Эриха фон Деникена "Колесницы богов", пошатнула представления людей об общеизвестном прогрессе человечества. Древние пещерные рисунки странных существ, остатки взлетно-посадочных полос в Перу, индийские тексты, описывающие "летающие машины богов"... вот лишь некоторые необычные археологические артефакты на которые ссылается Деникен в качестве доказательств того, что "древние астронавты" были хорошо известны нашим предкам.

Режиссёр: Кевин Барнс, Дэвид Сильвер
Актёры: Уильям Джей. Бернс, Линда Молтон Хоу, Роберт Клотуорти, Джордж Нури, Джонатан Янг, Луис Навия, Бэрри Доунинг, Эрих фон Дэникен, Майкл Кремо, Дэвид Чайлдресс

В выпуске: Пришельцы и супергерои / Aliens and Superheroes
В мифологии всех народов есть рассказы о существах с чудесными сверхчеловеческими силами и способностями. Возможно ли, что эти мифы основаны на реальных историях о пришельцах, когда-то живших на Земле?

Перевод: Одноголосый закадровый
Продолжительность: ~ 00:41:09

Видеокодек: XVID
Битрейт видео: ~1800 kb/s
Размер кадра: 720 x 400
Качество видео: HDTVRip
Аудиокодек: AC-3, 2ch.
Битрейт аудио: 192 kb/s
Формат : AVI
Формат/Информация : Audio Video Interleave
Размер файла : 589 Мбайт
Продолжительность : 41 м.
Общий поток : 1999 Кбит/сек
Программа кодирования : TMPGEnc Video Mastering Works 5 Version. 5.0.6.38
Библиотека кодирования : TMPGEnc Video Mastering Works 5 Version. 5.0.6.38

Видео
Идентификатор : 0
Формат : MPEG-4 Visual
Профиль формата : Advanced Simple@L5
Параметр BVOP формата : 2
Параметр QPel формата : Нет
Параметр GMC формата : Без точки перехода
Параметр матрицы формата : Default (H.263)
Режим смешивания : Сжатый битовый поток
Идентификатор кодека : XVID
Идентификатор кодека/Подсказка : XviD
Продолжительность : 41 м.
Битрейт : 1799 Кбит/сек
Ширина : 720 пикселей
Высота : 400 пикселей
Соотношение сторон : 16:9
Частота кадров : 25,000 кадров/сек
Цветовое пространство : YUV
Субдискретизация насыщенности : 4:2:0
Битовая глубина : 8 бит
Тип развёртки : Прогрессивная
Метод сжатия : С потерями
Бит/(Пиксели*Кадры) : 0.250
Размер потока : 530 Мбайт (90%)
Библиотека кодирования : XviD 64

Аудио
Идентификатор : 1
Формат : AC-3
Формат/Информация : Audio Coding 3
Расширение режима : CM (complete main)
Идентификатор кодека : 2000
Продолжительность : 41 м.
Вид битрейта : Постоянный
Битрейт : 192 Кбит/сек
Каналы : 2 канала
Расположение каналов : Front: L R
Частота : 48,0 КГц
Битовая глубина : 16 бит
Метод сжатия : С потерями
Размер потока : 56,5 Мбайт (10%)
Выравнивание : Соединение по промежуткам
Продолжительность промежутка : 240 мс. (6,00 видеокадров)
Время предзагрузки промежутка : 224 мс.
Скриншоты:
Время раздачи: 24/7. До первых 5 скачавших.
Древние пришельцы на NoNaMe Club
[NNM-Club.me]_Drevnie prishel'tsyi (Sezon 7, seriya 05) - Ancient Aliens (2014).avi.torrent
 Торрент: Платиновая раздача  Зарегистрирован
 
Скачать


Примагнититься
 Зарегистрирован:   22 Окт 2014 16:56:15
 Размер:   589 MB  (
 Рейтинг:   4,4 (Голосов: 42)
 Поблагодарили:   162
 Проверка:   Оформление проверено модератором 22 Окт 2014 16:56:38
Как cкачать  ·  Как раздать  ·  Правильно оформить  ·  Поднять ратио!  

_________________
Уважаемые пользователи Клуба! От меня релизов больше не будет. Может быть, буду поддерживать «Обновляемые раздачи». Спасибо всем, кто благодарил меня и говорил/нажимал «Спасибо»!
sttv-pc
Стаж: 8 лет 6 мес.
Сообщений: 174
Ratio: 209,887
Раздал: 118 TB
Поблагодарили: 2
100%
Откуда: Город пробок
roody.gif
эммм... а сделать все сезоны (или хотя бы все серии одного сезона) одной раздачей - слабо? ;-)

_________________
Люблю аниме и кошек (и кошек в аниме)
svlesin ®
Модератор Документалистики/TV
RG Releasers
Релизер 25000+ Uploader 300+
 
Стаж: 10 лет 4 мес.
Сообщений: 33809
Ratio: 1833,449
Поблагодарили: 3253642
100%
russia.gif
sttv-pc писал(а): Перейти к сообщению
слабо?

Да.

_________________
Уважаемые пользователи Клуба! От меня релизов больше не будет. Может быть, буду поддерживать «Обновляемые раздачи». Спасибо всем, кто благодарил меня и говорил/нажимал «Спасибо»!
C_A
Стаж: 11 лет
Сообщений: 16
Ratio: 16,472
31.09%
russia.gif
svlesin ®,
часом не отсюда по одной серии тащим - !? =)
svlesin ®
Модератор Документалистики/TV
RG Releasers
Релизер 25000+ Uploader 300+
 
Стаж: 10 лет 4 мес.
Сообщений: 33809
Ratio: 1833,449
Поблагодарили: 3253642
100%
russia.gif
C_A писал(а): Перейти к сообщению
часом не отсюда по одной серии тащим

А тех данные совпадают?

_________________
Уважаемые пользователи Клуба! От меня релизов больше не будет. Может быть, буду поддерживать «Обновляемые раздачи». Спасибо всем, кто благодарил меня и говорил/нажимал «Спасибо»!
drongo-74
Стаж: 5 лет 10 мес.
Сообщений: 497
Ratio: 1,651
87.61%
Откуда: Ереван
armenia.gif
Я не понял, после первой серии сразу пятая идет? А где же промежуточные??? :-))))
skorpionN
Ведущий Документалист
Стаж: 12 лет 8 мес.
Сообщений: 9514
Ratio: 2629,145
Раздал: 22,35 TB
Поблагодарили: 364158
100%
drongo-74 писал(а): Перейти к сообщению
Я не понял, после первой серии сразу пятая идет? А где же промежуточные??? :-))))

На скринах указано где промежуточные :лол:
FormaCvt
Стаж: 12 лет 3 мес.
Сообщений: 537
Ratio: 4,977
100%
germany.gif
drongo-74 писал(а): Перейти к сообщению
Я не понял, после первой серии сразу пятая идет? А где же промежуточные??? :-))))
Неправда. Есть 1, 2, 4 и 5 седьмого сезона. Нет только третей.
А в шестом отсутствуют четыре последние.
Augusto
Стаж: 9 лет 6 мес.
Сообщений: 410
Ratio: 8,348
100%
Откуда: Лысая Гора
witch.png
Ребята, пожалуйста подключитесь к раздаче... процесс по времени стоит до бесконечности :(

_________________
Взаимопонимание- перспектива отношений!
Показать сообщения:   
Начать новую тему   Ответить на тему    Торрент-трекер NNM-Club -> Зарубежные TV-бренды -> History Channel Часовой пояс: GMT + 3
Страница 1 из 1