Классический форум-трекер
canvas not supported
Нас вместе: 4 095 087

Звёздный Крейсер Галактика / BattleStar Galactica (2003-2009) BDRip-AVC [cезоны 1, 2, 3, 4, минисерии]


 
 
RSS
Начать новую тему   Ответить на тему    Торрент-трекер NNM-Club -> Зарубежные сериалы -> Звездный Крейсер Галактика / BattleStar Galactica
Автор Сообщение
AremShot ®
Стаж: 8 лет 6 мес.
Сообщений: 8
Ratio: 54,4
Раздал: 2,861 TB
Поблагодарили: 342
93.83%
Откуда: Пермь
russia.gif
Звёздный Крейсер Галактика / BattleStar Galactica (2003-2009) BDRip-AVC [cезоны 1, 2, 3, 4, минисерии]
[poster=right] Русское название: Звёздный Крейсер Галактика
Оригинальное название: BattleStar Galactica
Год выпуска: 2003-2009
Жанр: Фантастика, Боевик, Драма

Перевод: Многоголосый закадровый, профессиональный
Озвучка / Автор перевода: LostFilm
Вид субтитров: Вшитые отключаемые
Язык субтитров: Английские, Французкие , Испанские , Русские (1 сезон)



Режиссер: Майкл Раймер, Рональд Д. Мур, Марита Грабиак, Аллан Кроекер, Род Харди, Серджио Мимика-Геззан, Роберт Янг, Бред Тернер, Эдвард Джеймс Олмос, Джефф Вулног, Джонас Пэйт
Актеры: Эдвард Джеймс Олмос, Мэри МакДоннелл, Джейми Бамбер, Джеймс Кэллис, Тришиа Хелфер, Грейс Пак, Кэти Сакхофф, Майкл Хоган, Аарон Дуглас

Описание фильма:
Чудом уцелев после нападения Сайлонов на колонии Кобола, гражданский колониальный флот в сопровождении Звёздного крейсера Галактика летит прочь от мест, где их могут найти вражеские силы. Восстановив гражданское правительство и собрав все имеющиеся силы, остатки человечества начинают неравную борьбу со временем, обстоятельствами и Сайлонами. Разбираясь с всё новыми внешними и внутренними проблемами, постепенно раскрывая личности 12 человекоподобных моделей Сайлонов, они летят на поиски давно потерянной 13 колонии Кобола, упоминания о которой есть в древних сказаниях, нового дома, имя которому — Земля.
Порядок просмотра :
1. мини-сериал - пилотная серия (Battlestar Galactica Miniseries)
2. 1 сезон
3. 2 сезон
4. Battlestar galactica the resistance webisodes
5. 3 сезон
6. Battlestar galactica razor flashback
7. Battlestar Galactica Razor
8. 4 сезон 01-11
9. Лицо врага(face of the enemy)
10. 4 сезон 12-20
11. План
Format : Matroska
Format version : Version 2
File size : 1.14 GiB
Duration : 1h 34mn
Overall bit rate : 1 720 Kbps
Movie name : DeadShot
Encoded date : UTC 2012-08-23 09:27:24
Writing application : mkvmerge v5.7.0 ('The Whirlwind') built on Jul 8 2012 20:08:51
Writing library : libebml v1.2.3 + libmatroska v1.3.0

Video
ID : 1
Format : AVC
Format/Info : Advanced Video Codec
Format profile : High@L3.1
Format settings, CABAC : Yes
Format settings, ReFrames : 7 frames
Codec ID : V_MPEG4/ISO/AVC
Duration : 1h 34mn
Bit rate : 1 200 Kbps
Width : 1 056 pixels
Height : 592 pixels
Display aspect ratio : 16:9
Frame rate mode : Variable
Frame rate : 23.976 fps
Color space : YUV
Chroma subsampling : 4:2:0
Bit depth : 8 bits
Scan type : Progressive
Bits/(Pixel*Frame) : 0.080
Stream size : 795 MiB (68%)
Writing library : x264 core 125
Encoding settings : cabac=1 / ref=7 / deblock=1:-2:-1 / analyse=0x3:0x133 / me=umh / subme=10 / psy=1 / psy_rd=1.00:0.00 / mixed_ref=1 / me_range=32 / chroma_me=1 / trellis=2 / 8x8dct=1 / cqm=0 / deadzone=21,11 / fast_pskip=0 / chroma_qp_offset=-2 / threads=9 / lookahead_threads=1 / sliced_threads=0 / nr=0 / decimate=1 / interlaced=0 / bluray_compat=0 / constrained_intra=0 / bframes=7 / b_pyramid=2 / b_adapt=2 / b_bias=0 / direct=3 / weightb=1 / open_gop=0 / weightp=2 / keyint=240 / keyint_min=24 / scenecut=40 / intra_refresh=0 / rc_lookahead=60 / rc=2pass / mbtree=1 / bitrate=1200 / ratetol=2.0 / qcomp=0.60 / qpmin=3 / qpmax=69 / qpstep=4 / cplxblur=20.0 / qblur=0.5 / ip_ratio=1.40 / aq=1:1.00
Language : English
Default : Yes
Forced : No
Color primaries : BT.709-5, BT.1361, IEC 61966-2-4, SMPTE RP177
Transfer characteristics : BT.709-5, BT.1361
Matrix coefficients : BT.709-5, BT.1361, IEC 61966-2-4 709, SMPTE RP177

Audio #1
ID : 2
Format : AC-3
Format/Info : Audio Coding 3
Mode extension : CM (complete main)
Format settings, Endianness : Big
Codec ID : A_AC3
Duration : 1h 34mn
Bit rate mode : Constant
Bit rate : 256 Kbps
Channel(s) : 6 channels
Channel positions : Front: L C R, Side: L R, LFE
Sampling rate : 48.0 KHz
Bit depth : 16 bits
Compression mode : Lossy
Stream size : 173 MiB (15%)
Language : Russian
Default : Yes
Forced : No

Audio #2
ID : 3
Format : AC-3
Format/Info : Audio Coding 3
Mode extension : CM (complete main)
Format settings, Endianness : Big
Codec ID : A_AC3
Duration : 1h 34mn
Bit rate mode : Constant
Bit rate : 256 Kbps
Channel(s) : 6 channels
Channel positions : Front: L C R, Side: L R, LFE
Sampling rate : 48.0 KHz
Bit depth : 16 bits
Compression mode : Lossy
Stream size : 173 MiB (15%)
Language : English
Default : No
Forced : No

Text
ID : 4
Format : VobSub
Muxing mode : zlib
Codec ID : S_VOBSUB
Codec ID/Info : The same subtitle format used on DVDs
Language : English
Default : No
Forced : No

Menu
00:00:00.000 : en:00:00:00.000
00:05:00.000 : en:00:05:00.000
00:10:00.000 : en:00:10:00.000
00:15:00.000 : en:00:15:00.000
00:20:00.000 : en:00:20:00.000
00:25:00.000 : en:00:25:00.000
00:30:00.000 : en:00:30:00.000
00:35:00.000 : en:00:35:00.000
00:40:00.000 : en:00:40:00.000
00:45:00.000 : en:00:45:00.000
00:50:00.000 : en:00:50:00.000
00:55:00.000 : en:00:55:00.000
01:00:00.000 : en:01:00:00.000
01:05:00.000 : en:01:05:00.000
01:10:00.000 : en:01:10:00.000
01:15:00.000 : en:01:15:00.000
01:20:00.000 : en:01:20:00.000
01:25:00.000 : en:01:25:00.000
01:30:00.000 : en:01:30:00.000
Продолжительность: 1:34:39+1:29:30
Видеокодек: MPEG-4 AVC/H.264
Битрейт видео: ~1200 kbps
Размер кадра: 1 056х592
Аудио:
1. Russian: AC3 5.1, 48 kHz, 256 kbps
2. English: AC3 5.1, 48 kHz, 256 kbps
Скриншоты:
Format : Matroska
Format version : Version 2
File size : 535 MiB
Duration : 43mn 37s
Overall bit rate : 1 714 Kbps
Movie name : DeadShot
Encoded date : UTC 2012-08-13 05:57:00
Writing application : mkvmerge v5.7.0 ('The Whirlwind') built on Jul 8 2012 20:08:51
Writing library : libebml v1.2.3 + libmatroska v1.3.0

Video
ID : 1
Format : AVC
Format/Info : Advanced Video Codec
Format profile : High@L3.1
Format settings, CABAC : Yes
Format settings, ReFrames : 7 frames
Codec ID : V_MPEG4/ISO/AVC
Duration : 43mn 37s
Bit rate : 1 200 Kbps
Width : 1 056 pixels
Height : 592 pixels
Display aspect ratio : 16:9
Frame rate mode : Variable
Frame rate : 23.976 fps
Color space : YUV
Chroma subsampling : 4:2:0
Bit depth : 8 bits
Scan type : Progressive
Bits/(Pixel*Frame) : 0.080
Stream size : 364 MiB (68%)
Writing library : x264 core 125
Encoding settings : cabac=1 / ref=7 / deblock=1:-2:-1 / analyse=0x3:0x133 / me=umh / subme=10 / psy=1 / psy_rd=1.00:0.00 / mixed_ref=1 / me_range=32 / chroma_me=1 / trellis=2 / 8x8dct=1 / cqm=0 / deadzone=21,11 / fast_pskip=0 / chroma_qp_offset=-2 / threads=9 / lookahead_threads=1 / sliced_threads=0 / nr=0 / decimate=1 / interlaced=0 / bluray_compat=0 / constrained_intra=0 / bframes=7 / b_pyramid=2 / b_adapt=2 / b_bias=0 / direct=3 / weightb=1 / open_gop=0 / weightp=2 / keyint=240 / keyint_min=24 / scenecut=40 / intra_refresh=0 / rc_lookahead=60 / rc=2pass / mbtree=1 / bitrate=1200 / ratetol=2.0 / qcomp=0.60 / qpmin=3 / qpmax=69 / qpstep=4 / cplxblur=20.0 / qblur=0.5 / ip_ratio=1.40 / aq=1:1.00
Language : English
Default : Yes
Forced : No
Color primaries : BT.709-5, BT.1361, IEC 61966-2-4, SMPTE RP177
Transfer characteristics : BT.709-5, BT.1361
Matrix coefficients : BT.709-5, BT.1361, IEC 61966-2-4 709, SMPTE RP177

Audio #1
ID : 2
Format : AC-3
Format/Info : Audio Coding 3
Mode extension : CM (complete main)
Format settings, Endianness : Big
Codec ID : A_AC3
Duration : 43mn 37s
Bit rate mode : Constant
Bit rate : 256 Kbps
Channel(s) : 6 channels
Channel positions : Front: L C R, Side: L R, LFE
Sampling rate : 48.0 KHz
Bit depth : 16 bits
Compression mode : Lossy
Stream size : 79.9 MiB (15%)
Language : Russian
Default : Yes
Forced : No

Audio #2
ID : 3
Format : AC-3
Format/Info : Audio Coding 3
Mode extension : CM (complete main)
Format settings, Endianness : Big
Codec ID : A_AC3
Duration : 43mn 37s
Bit rate mode : Constant
Bit rate : 256 Kbps
Channel(s) : 6 channels
Channel positions : Front: L C R, Side: L R, LFE
Sampling rate : 48.0 KHz
Bit depth : 16 bits
Compression mode : Lossy
Stream size : 79.9 MiB (15%)
Language : English
Default : No
Forced : No

Text #1
ID : 4
Format : UTF-8
Codec ID : S_TEXT/UTF8
Codec ID/Info : UTF-8 Plain Text
Language : Russian
Default : No
Forced : No

Text #2
ID : 5
Format : UTF-8
Codec ID : S_TEXT/UTF8
Codec ID/Info : UTF-8 Plain Text
Language : English
Default : No
Forced : No

Text #3
ID : 6
Format : UTF-8
Codec ID : S_TEXT/UTF8
Codec ID/Info : UTF-8 Plain Text
Language : French
Default : No
Forced : No

Text #4
ID : 7
Format : UTF-8
Codec ID : S_TEXT/UTF8
Codec ID/Info : UTF-8 Plain Text
Language : Spanish
Default : No
Forced : No

Menu
00:00:00.000 : en:00:00:00.000
00:05:39.714 : en:00:05:39.714
00:14:32.872 : en:00:14:32.872
00:35:40.930 : en:00:35:40.930
Продолжительность: 13 x ~00:44
Видеокодек: MPEG-4 AVC/H.264
Битрейт видео: ~1200 kbps
Размер кадра: 1 056х592
Аудио:
1. Russian: AC3 5.1, 48 kHz, 256 kbps
2. English: AC3 5.1, 48 kHz, 256 kbps
Скриншоты:
Format : Matroska
Format version : Version 2
File size : 506 MiB
Duration : 43mn 41s
Overall bit rate : 1 618 Kbps
Movie name : DeadShot
Encoded date : UTC 2012-09-28 10:00:54
Writing application : mkvmerge v5.8.0 ('No Sleep / Pillow') built on Sep 2 2012 15:37:04
Writing library : libebml v1.2.3 + libmatroska v1.3.0

Video
ID : 1
Format : AVC
Format/Info : Advanced Video Codec
Format profile : High@L3.1
Format settings, CABAC : Yes
Format settings, ReFrames : 7 frames
Codec ID : V_MPEG4/ISO/AVC
Duration : 43mn 41s
Bit rate : 1 200 Kbps
Width : 1 056 pixels
Height : 592 pixels
Display aspect ratio : 16:9
Frame rate mode : Variable
Frame rate : 23.976 fps
Color space : YUV
Chroma subsampling : 4:2:0
Bit depth : 8 bits
Scan type : Progressive
Bits/(Pixel*Frame) : 0.080
Stream size : 366 MiB (72%)
Writing library : x264 core 125
Encoding settings : cabac=1 / ref=7 / deblock=1:-2:-1 / analyse=0x3:0x133 / me=umh / subme=10 / psy=1 / psy_rd=1.00:0.00 / mixed_ref=1 / me_range=32 / chroma_me=1 / trellis=2 / 8x8dct=1 / cqm=0 / deadzone=21,11 / fast_pskip=0 / chroma_qp_offset=-2 / threads=9 / lookahead_threads=1 / sliced_threads=0 / nr=0 / decimate=1 / interlaced=0 / bluray_compat=0 / constrained_intra=0 / bframes=7 / b_pyramid=2 / b_adapt=2 / b_bias=0 / direct=3 / weightb=1 / open_gop=0 / weightp=2 / keyint=240 / keyint_min=24 / scenecut=40 / intra_refresh=0 / rc_lookahead=60 / rc=2pass / mbtree=1 / bitrate=1200 / ratetol=2.0 / qcomp=0.60 / qpmin=3 / qpmax=69 / qpstep=4 / cplxblur=20.0 / qblur=0.5 / ip_ratio=1.40 / aq=1:1.00
Language : English
Default : Yes
Forced : No
Color primaries : BT.709-5, BT.1361, IEC 61966-2-4, SMPTE RP177
Transfer characteristics : BT.709-5, BT.1361
Matrix coefficients : BT.709-5, BT.1361, IEC 61966-2-4 709, SMPTE RP177

Audio #1
ID : 2
Format : AC-3
Format/Info : Audio Coding 3
Mode extension : CM (complete main)
Format settings, Endianness : Big
Codec ID : A_AC3
Duration : 43mn 41s
Bit rate mode : Constant
Bit rate : 160 Kbps
Channel(s) : 2 channels
Channel positions : Front: L R
Sampling rate : 48.0 KHz
Bit depth : 16 bits
Compression mode : Lossy
Stream size : 50.0 MiB (10%)
Language : Russian
Default : Yes
Forced : No

Audio #2
ID : 3
Format : AC-3
Format/Info : Audio Coding 3
Mode extension : CM (complete main)
Format settings, Endianness : Big
Codec ID : A_AC3
Duration : 43mn 41s
Bit rate mode : Constant
Bit rate : 256 Kbps
Channel(s) : 6 channels
Channel positions : Front: L C R, Side: L R, LFE
Sampling rate : 48.0 KHz
Bit depth : 16 bits
Compression mode : Lossy
Stream size : 80.0 MiB (16%)
Language : English
Default : No
Forced : No

Text #1
ID : 4
Format : ASS
Codec ID : S_TEXT/ASS
Codec ID/Info : Advanced Sub Station Alpha
Compression mode : Lossless
Language : Russian
Default : Yes
Forced : No

Text #2
ID : 5
Format : UTF-8
Codec ID : S_TEXT/UTF8
Codec ID/Info : UTF-8 Plain Text
Title : English
Language : English
Default : No
Forced : No

Text #3
ID : 6
Format : UTF-8
Codec ID : S_TEXT/UTF8
Codec ID/Info : UTF-8 Plain Text
Title : French
Language : French
Default : No
Forced : No

Text #4
ID : 7
Format : UTF-8
Codec ID : S_TEXT/UTF8
Codec ID/Info : UTF-8 Plain Text
Title : Spanish
Language : Spanish
Default : No
Forced : No

Menu
00:00:00.000 : :00:00:00.000
00:06:41.276 : :00:06:41.276
00:24:02.566 : :00:24:02.566
00:29:53.875 : :00:29:53.875
Продолжительность: 20 x ~00:44
Видеокодек: MPEG-4 AVC/H.264
Битрейт видео: ~1200 kbps
Размер кадра: 1 056х592
Аудио:
1. Russian: AC3 2.0, 48 kHz, 160 kbps
2. English: AC3 5.1, 48 kHz, 256 kbps
Скриншоты:
Format : Matroska
Format version : Version 2
File size : 340 MiB
Duration : 26mn 24s
Overall bit rate : 1 799 Kbps
Movie name : DeadShot
Encoded date : UTC 2012-09-12 05:15:47
Writing application : mkvmerge v5.8.0 ('No Sleep / Pillow') built on Sep 2 2012 15:37:04
Writing library : libebml v1.2.3 + libmatroska v1.3.0

Video
ID : 1
Format : AVC
Format/Info : Advanced Video Codec
Format profile : High@L3.1
Format settings, CABAC : Yes
Format settings, ReFrames : 7 frames
Codec ID : V_MPEG4/ISO/AVC
Duration : 26mn 24s
Nominal bit rate : 1 490 Kbps
Width : 720 pixels
Height : 416 pixels
Display aspect ratio : 1.731
Frame rate mode : Variable
Frame rate : 23.976 fps
Color space : YUV
Chroma subsampling : 4:2:0
Bit depth : 8 bits
Scan type : Progressive
Bits/(Pixel*Frame) : 0.207
Writing library : x264 core 125
Encoding settings : cabac=1 / ref=7 / deblock=1:-2:-1 / analyse=0x3:0x133 / me=umh / subme=10 / psy=1 / psy_rd=1.00:0.00 / mixed_ref=1 / me_range=32 / chroma_me=1 / trellis=2 / 8x8dct=1 / cqm=0 / deadzone=21,11 / fast_pskip=0 / chroma_qp_offset=-2 / threads=9 / lookahead_threads=1 / sliced_threads=0 / nr=0 / decimate=1 / interlaced=0 / bluray_compat=0 / constrained_intra=0 / bframes=7 / b_pyramid=2 / b_adapt=2 / b_bias=0 / direct=3 / weightb=1 / open_gop=0 / weightp=2 / keyint=240 / keyint_min=24 / scenecut=40 / intra_refresh=0 / rc_lookahead=60 / rc=2pass / mbtree=1 / bitrate=1490 / ratetol=2.0 / qcomp=0.60 / qpmin=3 / qpmax=69 / qpstep=4 / cplxblur=20.0 / qblur=0.5 / ip_ratio=1.40 / aq=1:1.00
Language : English
Default : Yes
Forced : No
Color primaries : BT.601-6 525, BT.1358 525, BT.1700 NTSC, SMPTE 170M
Transfer characteristics : BT.709-5, BT.1361
Matrix coefficients : BT.601-6 525, BT.1358 525, BT.1700 NTSC, SMPTE 170M

Audio #1
ID : 2
Format : AAC
Format/Info : Advanced Audio Codec
Format profile : LC
Codec ID : A_AAC
Duration : 26mn 24s
Channel(s) : 2 channels
Channel positions : Front: L R
Sampling rate : 48.0 KHz
Compression mode : Lossy
Language : Russian
Default : Yes
Forced : No

Audio #2
ID : 3
Format : AC-3
Format/Info : Audio Coding 3
Mode extension : CM (complete main)
Format settings, Endianness : Big
Codec ID : A_AC3
Duration : 26mn 24s
Bit rate mode : Constant
Bit rate : 160 Kbps
Channel(s) : 2 channels
Channel positions : Front: L R
Sampling rate : 48.0 KHz
Bit depth : 16 bits
Compression mode : Lossy
Stream size : 30.2 MiB (9%)
Language : English
Default : No
Forced : No
Продолжительность: 00:26:25
Видеокодек: MPEG-4 AVC/H.264
Битрейт видео: ~1490 kbps
Размер кадра: 720х416
Аудио:
1. Russian: AAC 2.0, 48 kHz, 160 kbps
2. English: AC3 2.0, 48 kHz, 160 kbps
Скриншоты:
Format : Matroska
Format version : Version 2
File size : 508 MiB
Duration : 43mn 52s
Overall bit rate : 1 618 Kbps
Movie name : DeadShot
Encoded date : UTC 2012-08-31 05:03:09
Writing application : mkvmerge v5.7.0 ('The Whirlwind') built on Jul 8 2012 20:08:51
Writing library : libebml v1.2.3 + libmatroska v1.3.0

Video
ID : 1
Format : AVC
Format/Info : Advanced Video Codec
Format profile : High@L3.1
Format settings, CABAC : Yes
Format settings, ReFrames : 7 frames
Codec ID : V_MPEG4/ISO/AVC
Duration : 43mn 52s
Bit rate : 1 200 Kbps
Width : 1 056 pixels
Height : 592 pixels
Display aspect ratio : 16:9
Frame rate mode : Variable
Frame rate : 23.976 fps
Color space : YUV
Chroma subsampling : 4:2:0
Bit depth : 8 bits
Scan type : Progressive
Bits/(Pixel*Frame) : 0.080
Stream size : 367 MiB (72%)
Writing library : x264 core 125
Encoding settings : cabac=1 / ref=7 / deblock=1:-2:-1 / analyse=0x3:0x133 / me=umh / subme=10 / psy=1 / psy_rd=1.00:0.00 / mixed_ref=1 / me_range=32 / chroma_me=1 / trellis=2 / 8x8dct=1 / cqm=0 / deadzone=21,11 / fast_pskip=0 / chroma_qp_offset=-2 / threads=9 / lookahead_threads=1 / sliced_threads=0 / nr=0 / decimate=1 / interlaced=0 / bluray_compat=0 / constrained_intra=0 / bframes=7 / b_pyramid=2 / b_adapt=2 / b_bias=0 / direct=3 / weightb=1 / open_gop=0 / weightp=2 / keyint=240 / keyint_min=24 / scenecut=40 / intra_refresh=0 / rc_lookahead=60 / rc=2pass / mbtree=1 / bitrate=1200 / ratetol=2.0 / qcomp=0.60 / qpmin=3 / qpmax=69 / qpstep=4 / cplxblur=20.0 / qblur=0.5 / ip_ratio=1.40 / aq=1:1.00
Language : English
Default : Yes
Forced : No
Color primaries : BT.709-5, BT.1361, IEC 61966-2-4, SMPTE RP177
Transfer characteristics : BT.709-5, BT.1361
Matrix coefficients : BT.709-5, BT.1361, IEC 61966-2-4 709, SMPTE RP177

Audio #1
ID : 2
Format : AC-3
Format/Info : Audio Coding 3
Mode extension : CM (complete main)
Format settings, Endianness : Big
Codec ID : A_AC3
Duration : 43mn 52s
Bit rate mode : Constant
Bit rate : 160 Kbps
Channel(s) : 2 channels
Channel positions : Front: L R
Sampling rate : 48.0 KHz
Bit depth : 16 bits
Compression mode : Lossy
Stream size : 50.2 MiB (10%)
Language : Russian
Default : Yes
Forced : No

Audio #2
ID : 3
Format : AC-3
Format/Info : Audio Coding 3
Mode extension : CM (complete main)
Format settings, Endianness : Big
Codec ID : A_AC3
Duration : 43mn 52s
Bit rate mode : Constant
Bit rate : 256 Kbps
Channel(s) : 6 channels
Channel positions : Front: L C R, Side: L R, LFE
Sampling rate : 48.0 KHz
Bit depth : 16 bits
Compression mode : Lossy
Stream size : 80.3 MiB (16%)
Language : English
Default : No
Forced : No

Text #1
ID : 4
Format : ASS
Codec ID : S_TEXT/ASS
Codec ID/Info : Advanced Sub Station Alpha
Compression mode : Lossless
Title : Russian
Language : Russian
Default : Yes
Forced : No

Text #2
ID : 5
Format : UTF-8
Codec ID : S_TEXT/UTF8
Codec ID/Info : UTF-8 Plain Text
Title : English
Language : English
Default : No
Forced : No

Text #3
ID : 6
Format : UTF-8
Codec ID : S_TEXT/UTF8
Codec ID/Info : UTF-8 Plain Text
Title : French
Language : French
Default : No
Forced : No

Text #4
ID : 7
Format : UTF-8
Codec ID : S_TEXT/UTF8
Codec ID/Info : UTF-8 Plain Text
Title : Spanish
Language : Spanish
Default : No
Forced : No

Text #5
ID : 8
Format : ASS
Codec ID : S_TEXT/ASS
Codec ID/Info : Advanced Sub Station Alpha
Compression mode : Lossless
Title : English (ass)
Language : English
Default : No
Forced : No

Menu
00:00:00.000 : en:00:00:00.000
00:10:02.143 : en:00:10:02.143
00:27:35.571 : en:00:27:35.571
00:35:21.411 : en:00:35:21.411
Продолжительность: 20 x ~00:44
Видеокодек: MPEG-4 AVC/H.264
Битрейт видео: ~1200 kbps
Размер кадра: 1 056х592
Аудио:
1. Russian: AC3 2.0, 48 kHz, 160 kbps
2. English: AC3 5.1, 48 kHz, 256 kbps
Скриншоты:
Format : Matroska
Format version : Version 2
File size : 235 MiB
Duration : 19mn 17s
Overall bit rate : 1 701 Kbps
Movie name : DeadShot
Encoded date : UTC 2012-09-12 12:19:36
Writing application : mkvmerge v5.8.0 ('No Sleep / Pillow') built on Sep 2 2012 15:37:04
Writing library : libebml v1.2.3 + libmatroska v1.3.0

Video
ID : 1
Format : AVC
Format/Info : Advanced Video Codec
Format profile : High@L3.0
Format settings, CABAC : Yes
Format settings, ReFrames : 7 frames
Codec ID : V_MPEG4/ISO/AVC
Duration : 19mn 17s
Bit rate : 1 380 Kbps
Width : 720 pixels
Height : 400 pixels
Display aspect ratio : 16:9
Frame rate mode : Variable
Frame rate : 23.976 fps
Color space : YUV
Chroma subsampling : 4:2:0
Bit depth : 8 bits
Scan type : Progressive
Bits/(Pixel*Frame) : 0.200
Stream size : 186 MiB (79%)
Writing library : x264 core 125
Encoding settings : cabac=1 / ref=7 / deblock=1:-2:-1 / analyse=0x3:0x133 / me=umh / subme=10 / psy=1 / psy_rd=1.00:0.00 / mixed_ref=1 / me_range=32 / chroma_me=1 / trellis=2 / 8x8dct=1 / cqm=0 / deadzone=21,11 / fast_pskip=0 / chroma_qp_offset=-2 / threads=9 / lookahead_threads=1 / sliced_threads=0 / nr=0 / decimate=1 / interlaced=0 / bluray_compat=0 / constrained_intra=0 / bframes=7 / b_pyramid=2 / b_adapt=2 / b_bias=0 / direct=3 / weightb=1 / open_gop=0 / weightp=2 / keyint=240 / keyint_min=24 / scenecut=40 / intra_refresh=0 / rc_lookahead=60 / rc=2pass / mbtree=1 / bitrate=1380 / ratetol=2.0 / qcomp=0.60 / qpmin=3 / qpmax=69 / qpstep=4 / cplxblur=20.0 / qblur=0.5 / ip_ratio=1.40 / aq=1:1.00
Language : English
Default : Yes
Forced : No
Color primaries : BT.601-6 525, BT.1358 525, BT.1700 NTSC, SMPTE 170M
Transfer characteristics : BT.709-5, BT.1361
Matrix coefficients : BT.601-6 525, BT.1358 525, BT.1700 NTSC, SMPTE 170M

Audio #1
ID : 2
Format : AC-3
Format/Info : Audio Coding 3
Mode extension : CM (complete main)
Format settings, Endianness : Big
Codec ID : A_AC3
Duration : 19mn 17s
Bit rate mode : Constant
Bit rate : 160 Kbps
Channel(s) : 2 channels
Channel positions : Front: L R
Sampling rate : 48.0 KHz
Bit depth : 16 bits
Compression mode : Lossy
Stream size : 22.1 MiB (9%)
Language : Russian
Default : Yes
Forced : No

Audio #2
ID : 3
Format : AC-3
Format/Info : Audio Coding 3
Mode extension : CM (complete main)
Format settings, Endianness : Big
Codec ID : A_AC3
Duration : 19mn 17s
Bit rate mode : Constant
Bit rate : 160 Kbps
Channel(s) : 2 channels
Channel positions : Front: L R
Sampling rate : 48.0 KHz
Bit depth : 16 bits
Compression mode : Lossy
Stream size : 22.1 MiB (9%)
Language : English
Default : No
Forced : No

Text #1
ID : 4
Format : UTF-8
Codec ID : S_TEXT/UTF8
Codec ID/Info : UTF-8 Plain Text
Title : Русские (названия эпизодов)
Language : Russian
Default : Yes
Forced : No

Text #2
ID : 5
Format : UTF-8
Codec ID : S_TEXT/UTF8
Codec ID/Info : UTF-8 Plain Text
Language : English
Default : No
Forced : No

Menu
00:00:00.000 : ru:Episode 1: Day 4,571
00:02:32.700 : ru:Episode 2: The Hangar
00:05:05.000 : ru:Episode 3: Operation Raptor Talon
00:07:37.000 : ru:Episode 4: Free Fall
00:10:10.720 : ru:Episode 5: The Lab
00:12:43.000 : ru:Episode 6: Survivors
00:14:45.240 : ru:Episode 7: Escape
00:17:16.000 : ru:Credits
Продолжительность: 00:19:17
Видеокодек: MPEG-4 AVC/H.264
Битрейт видео: ~1380 kbps
Размер кадра: 720х400
Аудио:
1. Russian: AC3 2.0, 48 kHz, 160 kbps
2. English: AC3 2.0, 48 kHz, 160 kbps
Скриншоты:
Format : Matroska
Format version : Version 2
File size : 1.24 GiB
Duration : 1h 43mn
Overall bit rate : 1 712 Kbps
Movie name : DeadShot
Encoded date : UTC 2012-10-12 07:13:58
Writing application : mkvmerge v5.8.0 ('No Sleep / Pillow') built on Sep 2 2012 15:37:04
Writing library : libebml v1.2.3 + libmatroska v1.3.0

Video
ID : 1
Format : AVC
Format/Info : Advanced Video Codec
Format profile : High@L3.1
Format settings, CABAC : Yes
Format settings, ReFrames : 7 frames
Codec ID : V_MPEG4/ISO/AVC
Duration : 1h 43mn
Bit rate : 1 200 Kbps
Width : 1 056 pixels
Height : 592 pixels
Display aspect ratio : 16:9
Frame rate mode : Variable
Frame rate : 23.976 fps
Color space : YUV
Chroma subsampling : 4:2:0
Bit depth : 8 bits
Scan type : Progressive
Bits/(Pixel*Frame) : 0.080
Stream size : 865 MiB (68%)
Writing library : x264 core 125
Encoding settings : cabac=1 / ref=7 / deblock=1:-2:-1 / analyse=0x3:0x133 / me=umh / subme=10 / psy=1 / psy_rd=1.00:0.00 / mixed_ref=1 / me_range=32 / chroma_me=1 / trellis=2 / 8x8dct=1 / cqm=0 / deadzone=21,11 / fast_pskip=0 / chroma_qp_offset=-2 / threads=9 / lookahead_threads=1 / sliced_threads=0 / nr=0 / decimate=1 / interlaced=0 / bluray_compat=0 / constrained_intra=0 / bframes=7 / b_pyramid=2 / b_adapt=2 / b_bias=0 / direct=3 / weightb=1 / open_gop=0 / weightp=2 / keyint=240 / keyint_min=24 / scenecut=40 / intra_refresh=0 / rc_lookahead=60 / rc=2pass / mbtree=1 / bitrate=1200 / ratetol=2.0 / qcomp=0.60 / qpmin=3 / qpmax=69 / qpstep=4 / cplxblur=20.0 / qblur=0.5 / ip_ratio=1.40 / aq=1:1.00
Language : English
Default : Yes
Forced : No
Color primaries : BT.709-5, BT.1361, IEC 61966-2-4, SMPTE RP177
Transfer characteristics : BT.709-5, BT.1361
Matrix coefficients : BT.709-5, BT.1361, IEC 61966-2-4 709, SMPTE RP177

Audio #1
ID : 2
Format : AC-3
Format/Info : Audio Coding 3
Mode extension : CM (complete main)
Format settings, Endianness : Big
Codec ID : A_AC3
Duration : 1h 43mn
Bit rate mode : Constant
Bit rate : 256 Kbps
Channel(s) : 6 channels
Channel positions : Front: L C R, Side: L R, LFE
Sampling rate : 48.0 KHz
Bit depth : 16 bits
Compression mode : Lossy
Stream size : 190 MiB (15%)
Language : Russian
Default : Yes
Forced : No

Audio #2
ID : 3
Format : AC-3
Format/Info : Audio Coding 3
Mode extension : CM (complete main)
Format settings, Endianness : Big
Codec ID : A_AC3
Duration : 1h 43mn
Bit rate mode : Constant
Bit rate : 256 Kbps
Channel(s) : 6 channels
Channel positions : Front: L C R, Side: L R, LFE
Sampling rate : 48.0 KHz
Bit depth : 16 bits
Compression mode : Lossy
Stream size : 190 MiB (15%)
Language : English
Default : No
Forced : No

Text
ID : 4
Format : UTF-8
Codec ID : S_TEXT/UTF8
Codec ID/Info : UTF-8 Plain Text
Language : English
Default : No
Forced : No
Продолжительность: 1:43:43
Видеокодек: MPEG-4 AVC/H.264
Битрейт видео: ~1200 kbps
Размер кадра: 1 056х592
Аудио:
1. Russian: AC3 5.1, 48 kHz, 256 kbps
2. English: AC3 5.1, 48 kHz, 256 kbps
Скриншоты:
Format : Matroska
Format version : Version 2
File size : 506 MiB
Duration : 43mn 46s
Overall bit rate : 1 618 Kbps
Movie name : DeadShot
Encoded date : UTC 2012-10-22 05:09:27
Writing application : mkvmerge v5.8.0 ('No Sleep / Pillow') built on Sep 2 2012 15:37:04
Writing library : libebml v1.2.3 + libmatroska v1.3.0

Video
ID : 1
Format : AVC
Format/Info : Advanced Video Codec
Format profile : High@L3.1
Format settings, CABAC : Yes
Format settings, ReFrames : 7 frames
Codec ID : V_MPEG4/ISO/AVC
Duration : 43mn 46s
Bit rate : 1 200 Kbps
Width : 1 056 pixels
Height : 592 pixels
Display aspect ratio : 16:9
Frame rate mode : Variable
Frame rate : 23.976 fps
Color space : YUV
Chroma subsampling : 4:2:0
Bit depth : 8 bits
Scan type : Progressive
Bits/(Pixel*Frame) : 0.080
Stream size : 366 MiB (72%)
Writing library : x264 core 128
Encoding settings : cabac=1 / ref=7 / deblock=1:-2:-1 / analyse=0x3:0x133 / me=umh / subme=10 / psy=1 / psy_rd=1.00:0.00 / mixed_ref=1 / me_range=32 / chroma_me=1 / trellis=2 / 8x8dct=1 / cqm=0 / deadzone=21,11 / fast_pskip=0 / chroma_qp_offset=-2 / threads=9 / lookahead_threads=1 / sliced_threads=0 / nr=0 / decimate=1 / interlaced=0 / bluray_compat=0 / constrained_intra=0 / bframes=7 / b_pyramid=2 / b_adapt=2 / b_bias=0 / direct=3 / weightb=1 / open_gop=0 / weightp=2 / keyint=240 / keyint_min=24 / scenecut=40 / intra_refresh=0 / rc_lookahead=60 / rc=2pass / mbtree=1 / bitrate=1200 / ratetol=2.0 / qcomp=0.60 / qpmin=3 / qpmax=69 / qpstep=4 / cplxblur=20.0 / qblur=0.5 / ip_ratio=1.40 / aq=1:1.00
Language : English
Default : Yes
Forced : No
Color primaries : BT.709-5, BT.1361, IEC 61966-2-4, SMPTE RP177
Transfer characteristics : BT.709-5, BT.1361
Matrix coefficients : BT.709-5, BT.1361, IEC 61966-2-4 709, SMPTE RP177

Audio #1
ID : 2
Format : AC-3
Format/Info : Audio Coding 3
Mode extension : CM (complete main)
Format settings, Endianness : Big
Codec ID : A_AC3
Duration : 43mn 46s
Bit rate mode : Constant
Bit rate : 160 Kbps
Channel(s) : 2 channels
Channel positions : Front: L R
Sampling rate : 48.0 KHz
Bit depth : 16 bits
Compression mode : Lossy
Stream size : 50.1 MiB (10%)
Language : Russian
Default : Yes
Forced : No

Audio #2
ID : 3
Format : AC-3
Format/Info : Audio Coding 3
Mode extension : CM (complete main)
Format settings, Endianness : Big
Codec ID : A_AC3
Duration : 43mn 46s
Bit rate mode : Constant
Bit rate : 256 Kbps
Channel(s) : 6 channels
Channel positions : Front: L C R, Side: L R, LFE
Sampling rate : 48.0 KHz
Bit depth : 16 bits
Compression mode : Lossy
Stream size : 80.1 MiB (16%)
Language : English
Default : No
Forced : No

Text #1
ID : 4
Format : ASS
Codec ID : S_TEXT/ASS
Codec ID/Info : Advanced Sub Station Alpha
Compression mode : Lossless
Title : Russian
Language : Russian
Default : Yes
Forced : No

Text #2
ID : 5
Format : UTF-8
Codec ID : S_TEXT/UTF8
Codec ID/Info : UTF-8 Plain Text
Title : English
Language : English
Default : No
Forced : No

Text #3
ID : 6
Format : UTF-8
Codec ID : S_TEXT/UTF8
Codec ID/Info : UTF-8 Plain Text
Title : French
Language : French
Default : No
Forced : No

Text #4
ID : 7
Format : UTF-8
Codec ID : S_TEXT/UTF8
Codec ID/Info : UTF-8 Plain Text
Title : Spanish
Language : Spanish
Default : No
Forced : No

Text #5
ID : 8
Format : ASS
Codec ID : S_TEXT/ASS
Codec ID/Info : Advanced Sub Station Alpha
Compression mode : Lossless
Title : English (ass)
Language : English
Default : No
Forced : No

Menu
00:00:00.000 : en:00:00:00.000
00:10:20.829 : en:00:10:20.829
00:29:35.732 : en:00:29:35.732
00:36:34.984 : en:00:36:34.984
Продолжительность: 20 x ~00:44
Видеокодек: MPEG-4 AVC/H.264
Битрейт видео: ~1200 kbps
Размер кадра: 1 056х592
Аудио:
1. Russian: AC3 2.0, 48 kHz, 160 kbps
2. English: AC3 5.1, 48 kHz, 256 kbps
Скриншоты:
Format : Matroska
Format version : Version 2
File size : 371 MiB
Duration : 36mn 22s
Overall bit rate : 1 426 Kbps
Movie name : DeadShot
Encoded date : UTC 2012-09-12 14:10:04
Writing application : mkvmerge v5.8.0 ('No Sleep / Pillow') built on Sep 2 2012 15:37:04
Writing library : libebml v1.2.3 + libmatroska v1.3.0

Video
ID : 1
Format : AVC
Format/Info : Advanced Video Codec
Format profile : High@L3.0
Format settings, CABAC : Yes
Format settings, ReFrames : 7 frames
Codec ID : V_MPEG4/ISO/AVC
Duration : 36mn 22s
Bit rate : 1 200 Kbps
Width : 704 pixels
Height : 396 pixels
Display aspect ratio : 16:9
Frame rate mode : Variable
Frame rate : 23.976 fps
Color space : YUV
Chroma subsampling : 4:2:0
Bit depth : 8 bits
Scan type : Progressive
Bits/(Pixel*Frame) : 0.180
Stream size : 305 MiB (82%)
Writing library : x264 core 125
Encoding settings : cabac=1 / ref=7 / deblock=1:-2:-1 / analyse=0x3:0x133 / me=umh / subme=10 / psy=1 / psy_rd=1.00:0.00 / mixed_ref=1 / me_range=32 / chroma_me=1 / trellis=2 / 8x8dct=1 / cqm=0 / deadzone=21,11 / fast_pskip=0 / chroma_qp_offset=-2 / threads=9 / lookahead_threads=1 / sliced_threads=0 / nr=0 / decimate=1 / interlaced=0 / bluray_compat=0 / constrained_intra=0 / bframes=7 / b_pyramid=2 / b_adapt=2 / b_bias=0 / direct=3 / weightb=1 / open_gop=0 / weightp=2 / keyint=240 / keyint_min=24 / scenecut=40 / intra_refresh=0 / rc_lookahead=60 / rc=2pass / mbtree=1 / bitrate=1200 / ratetol=2.0 / qcomp=0.60 / qpmin=3 / qpmax=69 / qpstep=4 / cplxblur=20.0 / qblur=0.5 / ip_ratio=1.40 / aq=1:1.00
Language : English
Default : Yes
Forced : No
Color primaries : BT.601-6 525, BT.1358 525, BT.1700 NTSC, SMPTE 170M
Transfer characteristics : BT.709-5, BT.1361
Matrix coefficients : BT.601-6 525, BT.1358 525, BT.1700 NTSC, SMPTE 170M

Audio #1
ID : 2
Format : AC-3
Format/Info : Audio Coding 3
Mode extension : CM (complete main)
Format settings, Endianness : Big
Codec ID : A_AC3
Duration : 36mn 22s
Bit rate mode : Constant
Bit rate : 112 Kbps
Channel(s) : 2 channels
Channel positions : Front: L R
Sampling rate : 48.0 KHz
Bit depth : 16 bits
Compression mode : Lossy
Stream size : 29.1 MiB (8%)
Language : Russian
Default : Yes
Forced : No

Audio #2
ID : 3
Format : AC-3
Format/Info : Audio Coding 3
Mode extension : CM (complete main)
Format settings, Endianness : Big
Codec ID : A_AC3
Duration : 36mn 22s
Bit rate mode : Constant
Bit rate : 112 Kbps
Channel(s) : 2 channels
Channel positions : Front: L R
Sampling rate : 48.0 KHz
Bit depth : 16 bits
Compression mode : Lossy
Stream size : 29.1 MiB (8%)
Language : English
Default : No
Forced : No

Text
ID : 4
Format : UTF-8
Codec ID : S_TEXT/UTF8
Codec ID/Info : UTF-8 Plain Text
Language : English
Default : No
Forced : No
Продолжительность: 00:36:22
Видеокодек: MPEG-4 AVC/H.264
Битрейт видео: ~1200 kbps
Размер кадра: 704х396
Аудио:
1. Russian: AC3 2.0, 48 kHz, 112 kbps
2. English: AC3 2.0, 48 kHz, 112 kbps
Скриншоты:
Format : Matroska
Format version : Version 2
File size : 1.33 GiB
Duration : 1h 51mn
Overall bit rate : 1 712 Kbps
Movie name : DeadShot
Encoded date : UTC 2012-10-15 07:48:23
Writing application : mkvmerge v5.8.0 ('No Sleep / Pillow') built on Sep 2 2012 15:37:04
Writing library : libebml v1.2.3 + libmatroska v1.3.0

Video
ID : 1
Format : AVC
Format/Info : Advanced Video Codec
Format profile : High@L3.1
Format settings, CABAC : Yes
Format settings, ReFrames : 7 frames
Codec ID : V_MPEG4/ISO/AVC
Duration : 1h 51mn
Bit rate : 1 200 Kbps
Width : 1 056 pixels
Height : 592 pixels
Display aspect ratio : 16:9
Frame rate mode : Variable
Frame rate : 23.976 fps
Color space : YUV
Chroma subsampling : 4:2:0
Bit depth : 8 bits
Scan type : Progressive
Bits/(Pixel*Frame) : 0.080
Stream size : 929 MiB (68%)
Writing library : x264 core 125
Encoding settings : cabac=1 / ref=7 / deblock=1:-2:-1 / analyse=0x3:0x133 / me=umh / subme=10 / psy=1 / psy_rd=1.00:0.00 / mixed_ref=1 / me_range=32 / chroma_me=1 / trellis=2 / 8x8dct=1 / cqm=0 / deadzone=21,11 / fast_pskip=0 / chroma_qp_offset=-2 / threads=9 / lookahead_threads=1 / sliced_threads=0 / nr=0 / decimate=1 / interlaced=0 / bluray_compat=0 / constrained_intra=0 / bframes=7 / b_pyramid=2 / b_adapt=2 / b_bias=0 / direct=3 / weightb=1 / open_gop=0 / weightp=2 / keyint=240 / keyint_min=24 / scenecut=40 / intra_refresh=0 / rc_lookahead=60 / rc=2pass / mbtree=1 / bitrate=1200 / ratetol=2.0 / qcomp=0.60 / qpmin=3 / qpmax=69 / qpstep=4 / cplxblur=20.0 / qblur=0.5 / ip_ratio=1.40 / aq=1:1.00
Language : English
Default : Yes
Forced : No
Color primaries : BT.709-5, BT.1361, IEC 61966-2-4, SMPTE RP177
Transfer characteristics : BT.709-5, BT.1361
Matrix coefficients : BT.709-5, BT.1361, IEC 61966-2-4 709, SMPTE RP177

Audio #1
ID : 2
Format : AC-3
Format/Info : Audio Coding 3
Mode extension : CM (complete main)
Format settings, Endianness : Big
Codec ID : A_AC3
Duration : 1h 51mn
Bit rate mode : Constant
Bit rate : 256 Kbps
Channel(s) : 6 channels
Channel positions : Front: L C R, Side: L R, LFE
Sampling rate : 48.0 KHz
Bit depth : 16 bits
Compression mode : Lossy
Stream size : 204 MiB (15%)
Language : Russian
Default : Yes
Forced : No

Audio #2
ID : 3
Format : AC-3
Format/Info : Audio Coding 3
Mode extension : CM (complete main)
Format settings, Endianness : Big
Codec ID : A_AC3
Duration : 1h 51mn
Bit rate mode : Constant
Bit rate : 256 Kbps
Channel(s) : 6 channels
Channel positions : Front: L C R, Side: L R, LFE
Sampling rate : 48.0 KHz
Bit depth : 16 bits
Compression mode : Lossy
Stream size : 204 MiB (15%)
Language : English
Default : No
Forced : No

Text
ID : 4
Format : ASS
Codec ID : S_TEXT/ASS
Codec ID/Info : Advanced Sub Station Alpha
Compression mode : Lossless
Language : English
Default : No
Forced : No
Продолжительность: 1:51:23
Видеокодек: MPEG-4 AVC/H.264
Битрейт видео: ~1200 kbps
Размер кадра: 1 056х592
Аудио:
1. Russian: AC3 5.1, 48 kHz, 256 kbps
2. English: AC3 5.1, 48 kHz, 256 kbps
Скриншоты:
Подборка "Battlestar Galactica - Behind the Scenes" из 8 сюжетов содержит в себе рассказ о процессе создания сериала, в том числе о том, какими именно соображениями руководствовались сценаристы и художники-декораторы, пытаясь создать и показать "правдоподобный" антураж "морально устаревшего" боевого космического корабля, т.е. сюжетное обоснование совмещения в декорациях и реквизите знакомых нам предметов и технологий с вымышленными фантастическими - в отличии от других "полностью фантастических" космических эпопей, в которых все окружение и интерьер придуманы "с нуля"
Продолжительность: 8 x ~00:09
Видеокодек: MPEG-4 AVC/H.264
Битрейт видео: ~950 kbps
Размер кадра: 640х464
Аудио: AC3 2.0, 48 kHz, 128 kbps
Исследование на тему "История Двенадцати Колоний Кобола"
Продолжительность: 00:15
Видеокодек: MPEG-4 AVC/H.264
Битрейт видео: ~950 kbps
Размер кадра: 560х240
Аудио: AC3 2.0, 48 kHz, 128 kbps
интервью с создателями сериала и актерами Battlestar Galactica
Продолжительность: 2 x ~00:20
Видеокодек: MPEG-4 AVC/H.264
Битрейт видео: ~950 kbps
Размер кадра: 640х352
Аудио: AC3 2.0, 48 kHz, 112 kbps
Продолжительность: 73 серии по ~00:44:00
Качество видео: BDRip

Видеокодек: MPEG-4 AVC/H.264
Битрейт видео: ~1200 kbps
Размер кадра: 1 056х592
Аудио:
1. Russian: AC3 2.0, 48 kHz, 160 kbps
2. English: AC3 5.1, 48 kHz, 256 kbps

Скриншоты:


Время раздачи: по возможности
[NNM-Club.ru]_Battlestar Galactica.torrent
 Торрент: Платиновая раздача  Зарегистрирован
 
Скачать


 Зарегистрирован:   26 Окт 2012 12:23:43
 Размер:   45,1 GB  (
 Рейтинг:   4,7 (Голосов: 103)
 Поблагодарили:   342
 Проверка:   Оформление проверено модератором 26 Окт 2012 13:01:25
Как cкачать  ·  Как раздать  ·  Правильно оформить  ·  Поднять ратио!  
lvaseif
Стаж: 9 лет 2 мес.
Сообщений: 193
Ratio: 14,889
Раздал: 11,97 TB
Поблагодарили: 152
100%
Откуда: СССР
ussr.gif
обажаю такие фильмы!

_________________
SubМарина
Uploader 300+
Стаж: 9 лет 4 мес.
Сообщений: 710
Ratio: 2244,427
Раздал: 308,7 TB
100%
Откуда: Севастополь
ussr.gif
Хороший сериал! Я, правда, так и не поняла до конца, что там и к чему, но за развитием событий следила с неослабевающим вниманием! Вечерами, в 19.00 меня было не оторвать от телеканала SyFy ( Интернета в то время у меня ещё не было..) А недавно увидела "Каприку" (или как она там всериале, "номер шесть" кажется) в "Обмани меня", 3-ий сезон - похорошела девчонка!
Спасибо!!! Качаю, не задумываясь!
NAU Studio
Стаж: 7 лет 6 мес.
Сообщений: 295
Ratio: 262,238
Поблагодарили: 866
100%
Откуда: оттуда
russia.gif
Good, very good!!!
izya2000 писал(а):
А недавно увидела "Каприку"
Так, а где же сам мини-сериал, надо бы для полноты истории добавить, но всё равно хорошо, очень хорошо!!! :клево:
AremShot ®
Стаж: 8 лет 6 мес.
Сообщений: 8
Ratio: 54,4
Раздал: 2,861 TB
Поблагодарили: 342
93.83%
Откуда: Пермь
russia.gif
NAU Studio писал(а): Перейти к сообщению
Good, very good!!!
izya2000 писал(а):
А недавно увидела "Каприку"
Так, а где же сам мини-сериал, надо бы для полноты истории добавить, но всё равно хорошо, очень хорошо!!! :клево:

Мини-сериал - это Каприка? Если так то это другой сериал (хоть там и рассказывается о событиях предшествующих в сериале Звездный Крейсер Галактика, но общего с ним не так уж много). Да и к тому же Каприку закрыли после 1 сезона.
lvaseif
Стаж: 9 лет 2 мес.
Сообщений: 193
Ratio: 14,889
Раздал: 11,97 TB
Поблагодарили: 152
100%
Откуда: СССР
ussr.gif
Не плохо бы было упорядочить файлы, ну да поздно..

_________________
Yurik19860215
Стаж: 7 лет 11 мес.
Сообщений: 29
Ratio: 13,269
0.84%
На мой взгляд одни из лучших сериалов. -Звездные врата
-Звездный крейсер Галактика
-За гранью
-Доктор КТО
lvaseif
Стаж: 9 лет 2 мес.
Сообщений: 193
Ratio: 14,889
Раздал: 11,97 TB
Поблагодарили: 152
100%
Откуда: СССР
ussr.gif
Жаль не avi хотелось бы на плеере смотреть

_________________
AremShot ®
Стаж: 8 лет 6 мес.
Сообщений: 8
Ratio: 54,4
Раздал: 2,861 TB
Поблагодарили: 342
93.83%
Откуда: Пермь
russia.gif
lvaseif писал(а): Перейти к сообщению
Жаль не avi хотелось бы на плеере смотреть

В avi есть в этой раздаче Звёздный Крейсер Галактика / BattleStar Galactica (2004-2010) HDTVRip [полная хронология]
В H264 качество получается значительно лучше. Тем более сейчас большинство телевизоров и плееров его поддерживают.
DemonZondaF
Стаж: 7 лет 5 мес.
Сообщений: 5
Ratio: 4,972
100%
Однако крепкую траву сценаристы курили, это же надо так всё завертеть. Отличный сериал!
Diamond1699
Стаж: 9 лет 4 мес.
Сообщений: 37
Ratio: 15,055
100%
Откуда: Западный Урал
ussr.gif
Очень хороший фильмец
DGrei
Стаж: 7 лет 7 мес.
Сообщений: 2
Ratio: 3,364
100%
Спасибо большое за проделанную работу, мы все очень ценим. Также прошу Вас добавьте пожалуйста сериал "Каприка" такого же отличного качества.

Заранее благодарен!
BobbyDrake
Стаж: 4 года 4 мес.
Сообщений: 5
Поблагодарили: 1
33.33%
Спасибо большое за раздачу!

На мой взгляд сериал достаточно интересный и увлекательный с довольно драматичным сюжетом и неожиданным финалом.

Я видел много нф сериалов,таких как Star Trek,Babylon 5,Stargate но везде были несоотвтетствия в плане физики или устройстве мира,например люди в саге Star Trek все добрые а их мир напоминает утопию,ясно было что в реале такое мироустройство быть не может.

Что мы видим в BSG это то что люди там показаны такими,которыми они являются в реальности: ради достижения цели могут пойти на предательство,убийство,что они тоже могут любить и ненавидеть,предавать или идти на некоторые жертвы.

С технической стороны технологии,показанные в сериале BSG проработанны с точки зрения физики,если истребители летают то видно что передвигаются они по законам физики.

В сериале мы видим ретротехнологии,такие как переговорные устройства на корабле напоминают обычные телефоны и для того что бы связаться с каким нибудь отделением на корабле,надо подойти к стене,взять трубку,все это было взято с реальности: на подводных лодках такие переговорные системы имеются.

В Star Trek мы видим что Пикард любит пить чай и там автоматически все приготавливается,в BSG мы видим другое,например если Адама захочет выпить чай то ему надо вскипятить воду,потом добавить чай. Кораблем Энтерпрайз могут командовать два-три человека на мостике,в данном же сериале мы видим что упор делается на командную работу,каждый офицер отвечает за определную функцию корабля.

Тут нет такого как в том же Star Trek где нажали кнопку и все готово,все ультрофутуристичное и управляемое супер компьютерами,в BSG люди отказались от сложной техники так как технологии предали их,создав сайлонов и им пришлось откатится назад и больше надеятся на человеческий фактор чем на технологии,посему в сериале мы не увидим супертехнологичных устройств,радист на корабле переговаривается при помощи наушника с проводом а не как в звездном пути где наушник был беспроводным.

Так что все поклонникам действительно качественной нф рекомендую посмотреть данный сериал,вы не пожалеете.

Моя оценка сериалу 10 из 10 за создание действительно интересного мира с уникальным техническим ретро-стилем.
0JlEG
Стаж: 10 лет 9 мес.
Сообщений: 52
Ratio: 1,783
100%
Откуда: Рязанщина
russia.gif
Люди добрые, встаньте на раздачу пожалуйста.
45 Гигов весь сериал, MKV, родная звук. дорожка и все такое вкусное... да только неделю ни одного Мб пока скачать не могу.
Те два-три сида, которые обычно на раздаче, мой уТоррент-клиент в упор не видит - 0(2) - и хоть ты тресни, а так хочется посмотреть этот сериал до конца, ибо начало, помню смотрел пару лет назад и сильно понравилось.

Заранее благодарен.

P.S.: Если будет хороший сид, думаю за пару ночей скачаю со своим GSM-модемом...
0JlEG
Стаж: 10 лет 9 мес.
Сообщений: 52
Ratio: 1,783
100%
Откуда: Рязанщина
russia.gif
8 Гб удалось скачать за 5 дней, до четверга... последние три дня опять пропали кошерные,
для моего GSM-модема, сиды... :(
Показать сообщения:   
Начать новую тему   Ответить на тему    Торрент-трекер NNM-Club -> Зарубежные сериалы -> Звездный Крейсер Галактика / BattleStar Galactica Часовой пояс: GMT + 3
Страница 1 из 1