Классический форум-трекер
canvas not supported
Нас вместе: 4 079 066

Megadeth - Guitar Center Sessions (22.03.2012) HDRip [1080р]


 
 
RSS
Начать новую тему   Ответить на тему    Торрент-трекер NNM-Club -> Архив торрентов -> Архив Музыкального Видео
Автор Сообщение
orion319 ®
Стаж: 9 лет 4 мес.
Сообщений: 487
Ratio: 3,456
Раздал: 2,64 TB
Поблагодарили: 982
100%
Откуда: из Столицы
pirates.png
Megadeth - Guitar Center Sessions (22.03.2012) HDRip [1080р]
Оригинальное название: Megadeth - Guitar Center Sessions (Hollywood,Los Angeles,California)
Год выпуска: 2012
Жанр: Музыка, Треш металл, Документальный

Описание фильма:
Всемирно известный лос-анджельский "Guitar Center Session" центр, приглашает к себе на встречи мировых профи, профи которые владеют гитарой как единой целой частью своего тела. В этот раз, гостями центра стала группа "Megadeth" и конкретно её представитель, солист и идейный вдохновитель Дэйв Мастейн. В релизе чередуются интервью и исполнении легендарных треков в студии, любезно предоставленной центром.

Треклист:
01. She-Wolf
02. Interview
03. Trust
04. Interview
05. Use the Man
06. Interview
07. Symphony of Destruction
08. Interview
09. Angry Again
10. Interview
11. Whose Life (Is It Anyways?)
12. Interviewх.

Режиссер: Керри Асмуссен
Участники: Ник Харкурт — ведущий
Дэйв Мастейн — вокал, гитара
Дэвид Эллефсон — бас-гитара
Шон Дровер — ударные
Крис Бродерик — гитара

Продолжительность: 00:59:13
Перевод: Отсутствует
Язык: Английский
Релиз группа: orion HD Ltd.
Язык субтитров: отсутствуют
Дата выхода DVD релиза: неизвестно

Видеокодек: Xvid
Битрейт видео: ~11897 kbps
Размер кадра: 1280x1080
Качество видео: HDRip
Аудиокодек: Mpeg Layer 3
Битрейт аудио: 192.00 kbps

Сэмпл: http://yadi.sk/d/QxdmC3bR5RjHg
Общее
Полное имя : G:\Видео\КОНЦЕРТЫ\MEGADETH\Megadeth - March 22, 2012 - Hollywood, Los Angeles, California.avi
Формат : AVI
Формат/Информация : Audio Video Interleave
Профиль формата : OpenDML
Размер файла : 5,00 Гбайт
Продолжительность : 59 м.
Общий поток : 12,1 Мбит/сек
Дата записи : 27 октября 2012 г. ->12:24:25
Программа кодирования : Lavf52.32.0

Видео
Идентификатор : 0
Формат : MPEG-4 Visual
Профиль формата : Simple@L3
Параметр BVOP формата : Нет
Параметр QPel формата : Нет
Параметр GMC формата : Без точки перехода
Параметр матрицы формата : Default (H.263)
Идентификатор кодека : XVID
Идентификатор кодека/Подсказка : XviD
Продолжительность : 59 м.
Битрейт : 11,9 Мбит/сек
Ширина : 1920 пикселей
Высота : 1080 пикселей
Соотношение сторон : 16:9
Частота кадров : 30,000 кадров/сек
Цветовое пространство : YUV
Субдискретизация насыщенности : 4:2:0
Битовая глубина : 8 бит
Тип развёртки : Прогрессивная
Метод сжатия : С потерями
Бит/(Пиксели*Кадры) : 0.191
Размер потока : 4,92 Гбайт (98%)
Библиотека кодирования : XviD 1.1.2 (UTC 2006-11-01)

Аудио
Идентификатор : 1
Формат : MPEG Audio
Версия формата : Version 1
Профиль формата : Layer 3
Режим : Joint stereo
Расширение режима : MS Stereo
Идентификатор кодека : 55
Идентификатор кодека/Подсказка : MP3
Продолжительность : 59 м.
Вид битрейта : Постоянный
Битрейт : 192 Кбит/сек
Каналы : 2 канала
Частота : 48,0 КГц
Метод сжатия : С потерями
Размер потока : 81,3 Мбайт (2%)
Выравнивание : Соединение по промежуткам
Продолжительность промежутка : 24 мс. (0,72 видеокадр)


Время раздачи: до первых 5, затем по возможности и просьбе
[NNM-Club.ru]_Megadeth-GuitarSession_22.03.2012_Hollywood.avi.torrent
 Торрент: Платиновая раздача  Зарегистрирован
 
Скачать


 Зарегистрирован:   03 Июн 2013 12:45:11
 Размер:   5 GB  (
 Рейтинг:   4,7 (Голосов: 22)
 Поблагодарили:   46
 Проверка:   Оформление проверено модератором 04 Июн 2013 16:33:33
Как cкачать  ·  Как раздать  ·  Правильно оформить  ·  Поднять ратио!  
weather
 
Стаж: 8 лет 8 мес.
Сообщений: 989
Ratio: 16,274
Раздал: 65,73 TB
Поблагодарили: 3850
100%
kyrgyzstan.gif
:супер!:
Fors945
Стаж: 9 лет 3 мес.
Сообщений: 101
Ratio: 6,135
Поблагодарили: 166
100%
Откуда: Земношаринск
ukraine.gif
:стеб:
weather
 
Стаж: 8 лет 8 мес.
Сообщений: 989
Ratio: 16,274
Раздал: 65,73 TB
Поблагодарили: 3850
100%
kyrgyzstan.gif
Отличный релиз!!!

_________________
Добрых людей на путях ваших!
Apuley
Стаж: 12 лет 1 мес.
Сообщений: 8
Ratio: 4,311
100%
Откуда: Украина, Донецк
ukraine.gif
Качество видео и звука эквивалентно 700-мегабайтному рипу.
weather
 
Стаж: 8 лет 8 мес.
Сообщений: 989
Ratio: 16,274
Раздал: 65,73 TB
Поблагодарили: 3850
100%
kyrgyzstan.gif
Apuley писал(а): Перейти к сообщению
Качество видео и звука эквивалентно 700-мегабайтному рипу.

Ну и что? Считаю этот релиз раритетным.
И вообще, я бы золото раздаче присвоил!!!

_________________
Добрых людей на путях ваших!
orion319 ®
Стаж: 9 лет 4 мес.
Сообщений: 487
Ratio: 3,456
Раздал: 2,64 TB
Поблагодарили: 982
100%
Откуда: из Столицы
pirates.png
:приветствую: :выпивают: :стеб:

Р.s.: модератор принимавший релиз, не желаете сами изучить правила оформления скриншотов и извиниться за самовольную выходку с баном, я даже не обиделся, только родился вопрос о вашем соответствии занимаемого места и вашего же психического здоровья...так же необходимость удаления сообщений вами, то же остается в статусе открытой.
DaoDzen
 
Стаж: 12 лет 9 мес.
Сообщений: 512
Ratio: 15,368
Поблагодарили: 165
100%
russia.gif
Раздайте, братцы!

_________________
Очень хочется гидроусилитель мозга. Чтобы без труда думать сложные мысли.
Топик был перенесен из форума Концерты (HD) в форум Архив Музыкального Видео

Причина переноса: Отсутствие сидов более трех месяцев.

Исправил релиз - напиши ЛС ALLic, дав ссылку на релиз.
Если нет ответа 24 часа - нажми на кнопку "Обратить внимание модераторов".
Atman7
Стаж: 3 года 8 мес.
Сообщений: 1
Ratio: 6,282
100%
Други, дайте скачать! Останусь на раздаче потом :стеб:
Показать сообщения:   
Начать новую тему   Ответить на тему    Торрент-трекер NNM-Club -> Архив торрентов -> Архив Музыкального Видео Часовой пояс: GMT + 3
Страница 1 из 1