Классический форум-трекер
canvas not supported
Нас вместе: 4 077 799

Владимир Высоцкий - Ой, где был я вчера... (2005) [FLAC|Lossless]<Авторская песня>


 
 
RSS
Начать новую тему   Ответить на тему    Торрент-трекер NNM-Club -> Шансон, Авторская и Военная песня -> Авторская и Военная песня (Lossless)
Автор Сообщение
VolgaD ®
Стаж: 9 лет 3 мес.
Сообщений: 3562
Ratio: 1079,018
Поблагодарили: 42682
100%
newzealand.gif
Владимир Высоцкий - Ой, где был я вчера... (2005)
Год: 2005 | Жанр: Авторская песня
Лейбл: ВЭМ Production | Каталог#: ВЭМ-П 008/06-05
Продолжительность: 00:54:29
Кодек: FLAC | Битрейт: Lossless | Тип рипа: image + .cue
Треклист:
01. Наводчица
02. Нам вчера прислали...
03. Песенка о слухах
04. Если б водка была на одного...
05. Ой, где я был вчера
06. Про любовь в эпоху возрождения
07. Городской романс
08. Товарищи учёные
09. Песня о конькобежце на короткие дистанции
10. Песня о сентиментальном боксёре
11. Баллада о гипсе
12. Про любовь в каменном веке
13. Песня зависника
14. Мне каждый вечер зажигают свечи...
15. Всё позади - и КПЗ, и суд...
16. Песня про уголовный кодекс
17. Бал-Маскарад
18. То была не интрижка...
19. Банька по-чёрному
20. Диалог у телевизора
21. Посещение музы, или песенка плагиатора
В первой половине 2000-х годов компанией «New Sound — Новое звучание» было выпущено 22 компакт-диска с ремастированными песнями Владимира Семёновича. Треки были представлены современными ремейками, в основу которых лёг вокал Высоцкого, очищенный от авторского звукового сопровождения и наложенный на современные музыкальные аранжировки. Столь смелый эксперимент вызвал противоречивые мнения аудитории: с одной стороны, музыка приобрела довольно хорошее качество звучания, а с другой — добавилась некая «попсовость».
Код:

Exact Audio Copy V1.0 beta 3 from 29. August 2011

EAC extraction logfile from 18. March 2013, 21:08

Владимир Высоцкий / Ой, где я был вчера...

Used drive  : Optiarc DVD RW AD-5280S   Adapter: 0  ID: 2

Read mode               : Secure
Utilize accurate stream : Yes
Defeat audio cache      : Yes
Make use of C2 pointers : No

Read offset correction                      : 48
Overread into Lead-In and Lead-Out          : No
Fill up missing offset samples with silence : Yes
Delete leading and trailing silent blocks   : No
Null samples used in CRC calculations       : Yes
Used interface                              : Installed external ASPI interface

Used output format : Internal WAV Routines
Sample format      : 44.100 Hz; 16 Bit; Stereo

TOC of the extracted CD

     Track |   Start  |  Length  | Start sector | End sector
    ---------------------------------------------------------
        1  |  0:00.00 |  1:55.35 |         0    |     8659
        2  |  1:55.35 |  1:23.45 |      8660    |    14929
        3  |  3:19.05 |  3:00.71 |     14930    |    28500
        4  |  6:20.01 |  2:22.12 |     28501    |    39162
        5  |  8:42.13 |  2:54.72 |     39163    |    52284
        6  | 11:37.10 |  4:07.58 |     52285    |    70867
        7  | 15:44.68 |  2:51.52 |     70868    |    83744
        8  | 18:36.45 |  4:12.24 |     83745    |   102668
        9  | 22:48.69 |  2:53.17 |    102669    |   115660
       10  | 25:42.11 |  1:09.30 |    115661    |   120865
       11  | 26:51.41 |  4:36.41 |    120866    |   141606
       12  | 31:28.07 |  1:33.74 |    141607    |   148655
       13  | 33:02.06 |  1:48.62 |    148656    |   156817
       14  | 34:50.68 |  2:07.39 |    156818    |   166381
       15  | 36:58.32 |  2:20.68 |    166382    |   176949
       16  | 39:19.25 |  2:04.08 |    176950    |   186257
       17  | 41:23.33 |  1:41.54 |    186258    |   193886
       18  | 43:05.12 |  1:45.65 |    193887    |   201826
       19  | 44:51.02 |  3:15.69 |    201827    |   216520
       20  | 48:06.71 |  4:25.43 |    216521    |   236438
       21  | 52:32.39 |  1:57.05 |    236439    |   245218

Range status and errors

Selected range

     Filename D:\flacmusic.ru rip by ротарь\Владимир Высоцкий - Ой, где я был вчера....wav

     Peak level 100.0 %
     Extraction speed 4.1 X
     Range quality 100.0 %
     Test CRC 6F992B68
     Copy CRC 6F992B68
     Copy OK

No errors occurred

AccurateRip summary

Track  1  not present in database
Track  2  not present in database
Track  3  not present in database
Track  4  not present in database
Track  5  not present in database
Track  6  not present in database
Track  7  not present in database
Track  8  not present in database
Track  9  not present in database
Track 10  not present in database
Track 11  not present in database
Track 12  not present in database
Track 13  not present in database
Track 14  not present in database
Track 15  not present in database
Track 16  not present in database
Track 17  not present in database
Track 18  not present in database
Track 19  not present in database
Track 20  not present in database
Track 21  not present in database

None of the tracks are present in the AccurateRip database

End of status report

==== Log checksum 526EABA91466CBCB79BBD7E3B2B63D70830CB309645D9ACA814B75BA7890BA7F ====
Код:

-----------------------

DON'T MODIFY THIS FILE

-----------------------

PERFORMER: auCDtect Task Manager, ver. 1.5.1RC6 build 1.5.1.7
Copyright (c) 2008-2010 y-soft. All rights reserved
http://y-soft.org

ANALYZER: auCDtect: CD records authenticity detector, version 0.8.2
Copyright (c) 2004 Oleg Berngardt. All rights reserved.
Copyright (c) 2004 Alexander Djourik. All rights reserved.

FILE: Владимир Высоцкий - Ой, где я был вчера....flac
  Size: 323068701 Hash: AD063765B802033DE40A020BF98BF850 Accuracy: -m0
  Conclusion: CDDA 100%
  Signature: 3FBF4FFB278289E473E8B555D4C0CD3BEF9D8A5B
Время раздачи: c 19:00 до 24:00, по возможности в другое время
Спасибо: ротарь



Поглощение/вытеснение
Только с согласия релизера

VolgaD
[NNM-Club.ru]_Vladimir Vyisotskiy - Oy, gde ya byil vchera (2005).torrent
 Торрент: Платиновая раздача  Зарегистрирован
 
Скачать


 Зарегистрирован:   25 Июн 2013 11:42:12
 Размер:   348 MB  (
 Рейтинг:   4,7 (Голосов: 51)
 Поблагодарили:   187
 Проверка:   Оформление проверено модератором 25 Июн 2013 11:44:01
Как cкачать  ·  Как раздать  ·  Правильно оформить  ·  Поднять ратио!  
cimurgciti
Стаж: 5 лет 10 мес.
Сообщений: 3
0%
СПАСИБО!!!!!
XpycT_HayMbl4
Стаж: 11 лет 4 мес.
Сообщений: 36
Ratio: 10,508
Поблагодарили: 1
100%
russia.gif
А в MP3 нет такой подборочки?
zevc18
Стаж: 7 лет 7 мес.
Сообщений: 4
Ratio: 0,044
100%
спасибо!!!!
зенератор
Стаж: 6 лет 4 мес.
Сообщений: 103
Ratio: 47,581
100%
СИДы есть, а закачки уж сколько суток нет. Что за беда?!
Показать сообщения:   
Начать новую тему   Ответить на тему    Торрент-трекер NNM-Club -> Шансон, Авторская и Военная песня -> Авторская и Военная песня (Lossless) Часовой пояс: GMT + 3
Страница 1 из 1