Классический форум-трекер
canvas not supported
Нас вместе: 4 078 881

Звездные врата: Вселенная / Stargate Universe (2009-2011) HDTVRip, WEB-DLRip (Сезон 1-2, Серии 1-40 из 40) [LostFilm]


Страницы:   Пред.  1, 2 
 
RSS
Начать новую тему   Ответить на тему    Торрент-трекер NNM-Club -> Зарубежные сериалы -> Звездные врата / Stargate
Автор Сообщение
eremin_makcim ®
Стаж: 8 лет 7 мес.
Сообщений: 152
Ratio: 391,88
Раздал: 58,23 TB
Поблагодарили: 11841
100%
Откуда: Котлы
pirates.png
Звездные врата: Вселенная / Stargate Universe (2009-2011) HDTVRip, WEB-DLRip (Сезон 1-2, Серии 1-40 из 40) [LostFilm]

Год выпуска: 2009-2011
Жанр: Фантастика, Драма, Приключения

Перевод: Многоголосый закадровый, профессиональный
Релиз группа: LostFilm
Сэмпл:Сезон 1, Сезон 2 Серии 1- 10, Сезон 2 Серии 11-20



Режиссер: Энди Микита, Уильям Варинг, Питер ДеЛуис и др.
Актеры: Роберт Карлайл, Джастин Луис, Брайан Смит, Дэвид Блу, Элейна Каланж, Джамил Уолкер Смит, Элиз Левек, Питер Келамис, Патрик Гилмор, Джулия Андерсон и др.

Описание фильма:
Таинственный девятый шеврон переносит команду исследователей с Земли на беспилотное судно Древних с названием «Судьба», где выясняется, что возврата на Землю нет. Команде предстоит приспособиться к жизни на борту судна, несущего их в далекие уголки Вселенной по проложенному Древними курсу и, возможно, свыкнуться с мыслью, что этот корабль станет их домом и тюрьмой до последних секунд их жизней.

Продолжительность: 1-2 серия - 1:26:21, остальные ~0:44:00
Качество видео: Сезон 1 - HDTVRip, Сезон 2 - WEB-DLRip

Формат: AVI
Видеокодек: Xvid
Битрейт видео:~1080 кбит/с (Сезон 1), ~1150 (Сезон 2 Серии 1- 10), ~850кбит/с (Сезон 2 Серии 11-20)
Размер кадра: 624х352(Сезон 1),704х400(Сезон 2 Серии1- 10), 720х400(Сезон 2 Серии 11-20), (16:9), 23.976 fps
Аудиокодек: MP3
Битрейт аудио: 128 кбит/с(Сезон 1), 192 кбит/с(Сезон 2) ,48 kHz, MPEG Layer 3, 2 ch.
Общее
Полное имя : D:\на раздачу\Звёзные врата Вселенная\Сезон 1\Stargate.Universe.s01e03.rus.LostFilm.TV.avi
Формат : AVI
Формат/Информация : Audio Video Interleave
Размер файла : 383 Мбайт
Продолжительность : 43 м.
Общий поток : 1221 Кбит/сек
Программа кодирования : Nandub v1.0rc2
Библиотека кодирования : Nandub build 1853/release

Видео
Идентификатор : 0
Формат : MPEG-4 Visual
Профиль формата : Advanced Simple@L5
Параметр BVOP формата : 1
Параметр QPel формата : Нет
Параметр GMC формата : Без точки перехода
Параметр матрицы формата : Выборочная
Идентификатор кодека : XVID
Идентификатор кодека/Подсказка : XviD
Продолжительность : 43 м.
Битрейт : 1080 Кбит/сек
Ширина : 624 пикселя
Высота : 352 пикселя
Соотношение сторон : 16:9
Частота кадров : 23,976 кадра/сек
Цветовое пространство : YUV
Субдискретизация насыщенности : 4:2:0
Битовая глубина : 8 бит
Тип развёртки : Прогрессивная
Метод сжатия : С потерями
Бит/(Пиксели*Кадры) : 0.205
Размер потока : 339 Мбайт (88%)
Библиотека кодирования : XviD 1.2.1 (UTC 2008-12-04)

Аудио
Идентификатор : 1
Формат : MPEG Audio
Версия формата : Version 1
Профиль формата : Layer 3
Режим : Joint stereo
Расширение режима : MS Stereo
Идентификатор кодека : 55
Идентификатор кодека/Подсказка : MP3
Продолжительность : 43 м.
Вид битрейта : Постоянный
Битрейт : 128 Кбит/сек
Каналы : 2 канала
Частота : 48,0 КГц
Метод сжатия : С потерями
Размер потока : 40,1 Мбайт (10%)
Выравнивание : Соединение по промежуткам
Продолжительность промежутка : 24 мс. (0,58 видеокадр)
Время предзагрузки промежутка : 480 мс.
Общее
Полное имя : D:\на раздачу\Звёзные врата Вселенная\Сезон 2\Stargate.Universe.s02e02.rus.avi
Формат : AVI
Формат/Информация : Audio Video Interleave
Размер файла : 422 Мбайт
Продолжительность : 43 м.
Общий поток : 1352 Кбит/сек
Программа кодирования : Nandub v1.0rc2
Библиотека кодирования : Nandub build 1853/release

Видео
Идентификатор : 0
Формат : MPEG-4 Visual
Профиль формата : Advanced Simple@L5
Параметр BVOP формата : 1
Параметр QPel формата : Нет
Параметр GMC формата : Без точки перехода
Параметр матрицы формата : Выборочная
Идентификатор кодека : XVID
Идентификатор кодека/Подсказка : XviD
Продолжительность : 43 м.
Битрейт : 1147 Кбит/сек
Ширина : 704 пикселя
Высота : 400 пикселей
Соотношение сторон : 16:9
Частота кадров : 23,976 кадра/сек
Цветовое пространство : YUV
Субдискретизация насыщенности : 4:2:0
Битовая глубина : 8 бит
Тип развёртки : Прогрессивная
Метод сжатия : С потерями
Бит/(Пиксели*Кадры) : 0.170
Размер потока : 358 Мбайт (85%)
Библиотека кодирования : XviD 1.2.1 (UTC 2008-12-04)

Аудио
Идентификатор : 1
Формат : MPEG Audio
Версия формата : Version 1
Профиль формата : Layer 3
Режим : Joint stereo
Идентификатор кодека : 55
Идентификатор кодека/Подсказка : MP3
Продолжительность : 43 м.
Вид битрейта : Постоянный
Битрейт : 192 Кбит/сек
Каналы : 2 канала
Частота : 48,0 КГц
Метод сжатия : С потерями
Размер потока : 60,0 Мбайт (14%)
Выравнивание : Соединение по промежуткам
Продолжительность промежутка : 24 мс. (0,58 видеокадр)
Время предзагрузки промежутка : 480 мс.
Общее
Полное имя : D:\на раздачу\Звёзные врата Вселенная\Сезон 2\Stargate.Universe.s02e13.rus.avi
Формат : AVI
Формат/Информация : Audio Video Interleave
Размер файла : 330 Мбайт
Продолжительность : 43 м.
Режим общего битрейта : Переменный
Общий поток : 1057 Кбит/сек
Программа кодирования : Nandub v1.0rc2
Библиотека кодирования : Nandub build 1853/release

Видео
Идентификатор : 0
Формат : MPEG-4 Visual
Профиль формата : Simple@L3
Параметр BVOP формата : Нет
Параметр QPel формата : Нет
Параметр GMC формата : Без точки перехода
Параметр матрицы формата : Default (H.263)
Идентификатор кодека : XVID
Идентификатор кодека/Подсказка : XviD
Продолжительность : 43 м.
Битрейт : 856 Кбит/сек
Ширина : 720 пикселей
Высота : 400 пикселей
Соотношение сторон : 16:9
Частота кадров : 23,976 кадра/сек
Цветовое пространство : YUV
Субдискретизация насыщенности : 4:2:0
Битовая глубина : 8 бит
Тип развёртки : Прогрессивная
Метод сжатия : С потерями
Бит/(Пиксели*Кадры) : 0.124
Размер потока : 267 Мбайт (81%)
Библиотека кодирования : XviD 1.2.1 (UTC 2008-12-04)

Аудио
Идентификатор : 1
Формат : MPEG Audio
Версия формата : Version 1
Профиль формата : Layer 3
Режим : Joint stereo
Расширение режима : MS Stereo
Идентификатор кодека : 55
Идентификатор кодека/Подсказка : MP3
Продолжительность : 43 м.
Вид битрейта : Переменный
Битрейт : 192 Кбит/сек
Каналы : 2 канала
Частота : 48,0 КГц
Метод сжатия : С потерями
Размер потока : 58,9 Мбайт (18%)
Выравнивание : Соединение по промежуткам
Продолжительность промежутка : 24 мс. (0,58 видеокадр)
Время предзагрузки промежутка : 468 мс.
Библиотека кодирования : LAME3.97b
Настройки программы : -m j -V 4 -q 3 -lowpass 18.6 --abr 192
Скриншоты:


Все релизы Звездные врата: Вселенная / Stargate Universe


Время раздачи: с 2:00 до 8:00/7 дней в неделю
[NNM-Club.me]_Zveznyie vrata Vselennaya.torrent
 Торрент: Платиновая раздача  Зарегистрирован
 
Скачать


Примагнититься
 Зарегистрирован:   05 Июн 2014 20:15:55
 Размер:   16,3 GB  (
 Рейтинг:   4,8 (Голосов: 96)
 Поблагодарили:   391
 Проверка:   Оформление проверено модератором 05 Июн 2014 23:18:39
WedMoney кошелек для желающих помочь в покупке новых дисков для раздающего компьютера, а также для стимулирования и поощрения новых раздач
WedMoney R919724038424
Как cкачать  ·  Как раздать  ·  Правильно оформить  ·  Поднять ратио!  
Загрузка...
budod
Стаж: 10 лет 5 мес.
Сообщений: 239
Ratio: 0,691
100%
Откуда: Одесса
ussr.gif
Подписывайтесь для продолжения: https://www.change.org/p/ted-sarandos-save-stargate-universe :подмигивание:
HansonTroy
Стаж: 6 лет 2 мес.
Сообщений: 391
Ratio: 113,942
Раздал: 128,4 TB
100%
По моему -это лучший из SG, но если вам нравиться предидущие, то лучше не смотреть, совсем разное "KINO".
opoffis
Стаж: 9 лет
Сообщений: 16
Ratio: 6,875
40.91%
ussr.gif
HansonTroy писал(а): Перейти к сообщению
По моему -это лучший из SG, но если вам нравиться предидущие, то лучше не смотреть, совсем разное "KINO".

Эта часть Не лучшая, она просто современная. Но тут почти нет исследований, приключений, смены обстановок, закрученных сюжетных линий и много много куча всего того что было в СГ-1
Roland Taverner
 
Стаж: 8 лет 2 мес.
Сообщений: 24
Ratio: 130,144
Раздал: 35,3 TB
90.75%
opoffis писал(а): Перейти к сообщению
HansonTroy писал(а): Перейти к сообщению
По моему -это лучший из SG, но если вам нравиться предидущие, то лучше не смотреть, совсем разное "KINO".

Эта часть Не лучшая, она просто современная. Но тут почти нет исследований, приключений, смены обстановок, закрученных сюжетных линий и много много куча всего того что было в СГ-1

Главное, чего тут нет, так это тварей и людей из любого конца галактики, прекрасно изъясняющихся на чистейшем английском, в отличие от шлака SG1 и SG:A.
votur
Стаж: 7 лет 2 мес.
Сообщений: 4
Ratio: 3,793
100%
ussr.gif
Вселенная, лучшее - из всего сериала. Тут как будто бы всё по взрослому.
Приближаться к истоку бытия - идея просто гениальная, интересно бы было узнать по задумке авторов что же являлось источником реликтового излучения.
Да конечно много болтовни драмы и соплей, но сама идея продвижения замечательна.
Очень жаль что нет продолжения...
Augusto
Стаж: 9 лет
Сообщений: 341
Ratio: 4,57
100%
Откуда: Лысая Гора
witch.png
В раздаче нет второй серии первого сезона)

_________________
Взаимопонимание- перспектива отношений!
romerd
Стаж: 7 лет 9 мес.
Сообщений: 14
Ratio: 12,14
Поблагодарили: 1
85%
Откуда: Tallinn
estonia.gif
Хороший сериал, но жаль, что его тупо прервали на втором сезоне...
Показать сообщения:   
Начать новую тему   Ответить на тему    Торрент-трекер NNM-Club -> Зарубежные сериалы -> Звездные врата / Stargate Часовой пояс: GMT + 3
Страницы:   Пред.  1, 2
Страница 2 из 2