Классический форум-трекер
canvas not supported
Нас вместе: 4 076 863

VA - Владимир Шаинский – Всем, Всем, Всем... (Песни для детей) (1987) [FLAC 2.0 24/96|traks(Vinil-Rip)] <Pop, Children's>


 
 
RSS
Начать новую тему   Ответить на тему    Торрент-трекер NNM-Club -> Аудио -> Музыка и песни для детей
Автор Сообщение
tamtutnet ®
Стаж: 9 лет 7 мес.
Сообщений: 612
Ratio: 156,149
Поблагодарили: 23248
100%
Откуда: Санкт-Петербуг
russia.gif
Various - Владимир Шаинский – Всем, Всем, Всем... (Песни для детей) (1987)
Год: 1987
Жанр: Pop, Children's
Продолжительность: 00:36:45

Кодек: FLAC 2.0

Треклист:
Сторона 1
1. Сережа Парамонов – Песенка крокодила Гены 3:00
2. Л. Барашков – Улыбка 2:30
3. Сережа Парамонов – Антошка 2:03
4. Дима Викторов – Чунга-Чанга 2:05
5. Андрюша Орехов – Песенка о кузнечике 2:14
6. Сережа Парамонов – Голубой вагон 2:56
7. Виталий Николаев – Крейсер "Аврора" 3:08
Сторона 2
1. Большой детский хор – Вместе весело шагать 2:14
2. К. Румянова – Чебурашка 2:50
3. О. Попов – Цирк 3:02
4. Э. Хиль – Чему учат в школе 1:48
5. Марина Сергеева – Белочка 1:50
6. Дима Викторов – По секрету всему свету 1:28
7. Дима Голов – Игра 2:22
8. Дима Голов – Когда мои друзья со мной 3:15
Большой детский хор ЦТ И ВР, п/у Ю. Силантьева.
Эстрадно-симфонический оркестр ЦТ И ВР.
© «Мелодия», 1978 г.
Всесоюзная студия грамзаписи, запись 1978 г.
С50-10911-12. Апрелевский ЗГ, 1987 г.
Оцифровка собственная - два моно 24/192. В раздаче стерео 24/96. Запись - Technics SL-D303, картридж AT15Sa, фонокорректор Lehmannaudio Black Cube, АЦП Echo 2, WaveLab 6. Реставрация, мастеринг - Sound Forge 10, iZotope RX2.
Код: выделить все

Общее
Полное имя                               : D:\Раздачи\Владимир Шаинский\Всем, всем, всем\01. Сережа Парамонов – Песенка крокодила Гены.wav
Формат                                   : Wave
Размер файла                             : 98,4 Мбайт
Продолжительность                        : 2 м. 59 с.
Режим общего битрейта                    : Постоянный
Общий поток                              : 4608 Кбит/сек

Аудио
Идентификатор                            : 0
Формат                                   : PCM
Параметр Endianness формата              : Little
Идентификатор кодека                     : 1
Продолжительность                        : 2 м. 59 с.
Вид битрейта                             : Постоянный
Битрейт                                  : 4608 Кбит/сек
Каналы                                   : 2 канала
Частота                                  : 96,0 КГц
Битовая глубина                          : 24 бит
Размер потока                            : 98,4 Мбайт (100%)

Общее
Полное имя                               : D:\Раздачи\Владимир Шаинский\Всем, всем, всем\02. Л. Барашков – Улыбка.wav
Формат                                   : Wave
Размер файла                             : 82,4 Мбайт
Продолжительность                        : 2 м. 30 с.
Режим общего битрейта                    : Постоянный
Общий поток                              : 4608 Кбит/сек

Аудио
Идентификатор                            : 0
Формат                                   : PCM
Параметр Endianness формата              : Little
Идентификатор кодека                     : 1
Продолжительность                        : 2 м. 30 с.
Вид битрейта                             : Постоянный
Битрейт                                  : 4608 Кбит/сек
Каналы                                   : 2 канала
Частота                                  : 96,0 КГц
Битовая глубина                          : 24 бит
Размер потока                            : 82,4 Мбайт (100%)

Общее
Полное имя                               : D:\Раздачи\Владимир Шаинский\Всем, всем, всем\03. Сережа Парамонов – Антошка.wav
Формат                                   : Wave
Размер файла                             : 67,6 Мбайт
Продолжительность                        : 2 м. 3 с.
Режим общего битрейта                    : Постоянный
Общий поток                              : 4608 Кбит/сек

Аудио
Идентификатор                            : 0
Формат                                   : PCM
Параметр Endianness формата              : Little
Идентификатор кодека                     : 1
Продолжительность                        : 2 м. 3 с.
Вид битрейта                             : Постоянный
Битрейт                                  : 4608 Кбит/сек
Каналы                                   : 2 канала
Частота                                  : 96,0 КГц
Битовая глубина                          : 24 бит
Размер потока                            : 67,6 Мбайт (100%)

Общее
Полное имя                               : D:\Раздачи\Владимир Шаинский\Всем, всем, всем\04. Дима Викторов – Чунга-Чанга.wav
Формат                                   : Wave
Размер файла                             : 68,7 Мбайт
Продолжительность                        : 2 м. 5 с.
Режим общего битрейта                    : Постоянный
Общий поток                              : 4608 Кбит/сек

Аудио
Идентификатор                            : 0
Формат                                   : PCM
Параметр Endianness формата              : Little
Идентификатор кодека                     : 1
Продолжительность                        : 2 м. 5 с.
Вид битрейта                             : Постоянный
Битрейт                                  : 4608 Кбит/сек
Каналы                                   : 2 канала
Частота                                  : 96,0 КГц
Битовая глубина                          : 24 бит
Размер потока                            : 68,7 Мбайт (100%)

Общее
Полное имя                               : D:\Раздачи\Владимир Шаинский\Всем, всем, всем\05. Андрюша Орехов – Песенка о кузнечике.wav
Формат                                   : Wave
Размер файла                             : 73,6 Мбайт
Продолжительность                        : 2 м. 14 с.
Режим общего битрейта                    : Постоянный
Общий поток                              : 4608 Кбит/сек

Аудио
Идентификатор                            : 0
Формат                                   : PCM
Параметр Endianness формата              : Little
Идентификатор кодека                     : 1
Продолжительность                        : 2 м. 14 с.
Вид битрейта                             : Постоянный
Битрейт                                  : 4608 Кбит/сек
Каналы                                   : 2 канала
Частота                                  : 96,0 КГц
Битовая глубина                          : 24 бит
Размер потока                            : 73,6 Мбайт (100%)

Общее
Полное имя                               : D:\Раздачи\Владимир Шаинский\Всем, всем, всем\06. Сережа Парамонов – Голубой вагон.wav
Формат                                   : Wave
Размер файла                             : 96,7 Мбайт
Продолжительность                        : 2 м. 56 с.
Режим общего битрейта                    : Постоянный
Общий поток                              : 4608 Кбит/сек

Аудио
Идентификатор                            : 0
Формат                                   : PCM
Параметр Endianness формата              : Little
Идентификатор кодека                     : 1
Продолжительность                        : 2 м. 56 с.
Вид битрейта                             : Постоянный
Битрейт                                  : 4608 Кбит/сек
Каналы                                   : 2 канала
Частота                                  : 96,0 КГц
Битовая глубина                          : 24 бит
Размер потока                            : 96,7 Мбайт (100%)

Общее
Полное имя                               : D:\Раздачи\Владимир Шаинский\Всем, всем, всем\07. Виталий Николаев – Крейсер Аврора.wav
Формат                                   : Wave
Размер файла                             : 103 Мбайт
Продолжительность                        : 3 м. 8 с.
Режим общего битрейта                    : Постоянный
Общий поток                              : 4608 Кбит/сек

Аудио
Идентификатор                            : 0
Формат                                   : PCM
Параметр Endianness формата              : Little
Идентификатор кодека                     : 1
Продолжительность                        : 3 м. 8 с.
Вид битрейта                             : Постоянный
Битрейт                                  : 4608 Кбит/сек
Каналы                                   : 2 канала
Частота                                  : 96,0 КГц
Битовая глубина                          : 24 бит
Размер потока                            : 103 Мбайт (100%)

Общее
Полное имя                               : D:\Раздачи\Владимир Шаинский\Всем, всем, всем\08. Большой детский хор – Вместе весело шагать.wav
Формат                                   : Wave
Размер файла                             : 73,6 Мбайт
Продолжительность                        : 2 м. 14 с.
Режим общего битрейта                    : Постоянный
Общий поток                              : 4608 Кбит/сек

Аудио
Идентификатор                            : 0
Формат                                   : PCM
Параметр Endianness формата              : Little
Идентификатор кодека                     : 1
Продолжительность                        : 2 м. 14 с.
Вид битрейта                             : Постоянный
Битрейт                                  : 4608 Кбит/сек
Каналы                                   : 2 канала
Частота                                  : 96,0 КГц
Битовая глубина                          : 24 бит
Размер потока                            : 73,6 Мбайт (100%)

Общее
Полное имя                               : D:\Раздачи\Владимир Шаинский\Всем, всем, всем\09. К. Румянова – Чебурашка.wav
Формат                                   : Wave
Размер файла                             : 93,4 Мбайт
Продолжительность                        : 2 м. 50 с.
Режим общего битрейта                    : Постоянный
Общий поток                              : 4608 Кбит/сек

Аудио
Идентификатор                            : 0
Формат                                   : PCM
Параметр Endianness формата              : Little
Идентификатор кодека                     : 1
Продолжительность                        : 2 м. 50 с.
Вид битрейта                             : Постоянный
Битрейт                                  : 4608 Кбит/сек
Каналы                                   : 2 канала
Частота                                  : 96,0 КГц
Битовая глубина                          : 24 бит
Размер потока                            : 93,4 Мбайт (100%)

Общее
Полное имя                               : D:\Раздачи\Владимир Шаинский\Всем, всем, всем\10. О. Попов – Цирк.wav
Формат                                   : Wave
Размер файла                             : 100,0 Мбайт
Продолжительность                        : 3 м. 2 с.
Режим общего битрейта                    : Постоянный
Общий поток                              : 4608 Кбит/сек

Аудио
Идентификатор                            : 0
Формат                                   : PCM
Параметр Endianness формата              : Little
Идентификатор кодека                     : 1
Продолжительность                        : 3 м. 2 с.
Вид битрейта                             : Постоянный
Битрейт                                  : 4608 Кбит/сек
Каналы                                   : 2 канала
Частота                                  : 96,0 КГц
Битовая глубина                          : 24 бит
Размер потока                            : 100,0 Мбайт (100%)

Общее
Полное имя                               : D:\Раздачи\Владимир Шаинский\Всем, всем, всем\11. Э. Хиль – Чему учат в школе.wav
Формат                                   : Wave
Размер файла                             : 59,3 Мбайт
Продолжительность                        : 1 м. 48 с.
Режим общего битрейта                    : Постоянный
Общий поток                              : 4608 Кбит/сек

Аудио
Идентификатор                            : 0
Формат                                   : PCM
Параметр Endianness формата              : Little
Идентификатор кодека                     : 1
Продолжительность                        : 1 м. 48 с.
Вид битрейта                             : Постоянный
Битрейт                                  : 4608 Кбит/сек
Каналы                                   : 2 канала
Частота                                  : 96,0 КГц
Битовая глубина                          : 24 бит
Размер потока                            : 59,3 Мбайт (100%)

Общее
Полное имя                               : D:\Раздачи\Владимир Шаинский\Всем, всем, всем\12. Марина Сергеева – Белочка.wav
Формат                                   : Wave
Размер файла                             : 60,4 Мбайт
Продолжительность                        : 1 м. 50 с.
Режим общего битрейта                    : Постоянный
Общий поток                              : 4608 Кбит/сек

Аудио
Идентификатор                            : 0
Формат                                   : PCM
Параметр Endianness формата              : Little
Идентификатор кодека                     : 1
Продолжительность                        : 1 м. 50 с.
Вид битрейта                             : Постоянный
Битрейт                                  : 4608 Кбит/сек
Каналы                                   : 2 канала
Частота                                  : 96,0 КГц
Битовая глубина                          : 24 бит
Размер потока                            : 60,4 Мбайт (100%)

Общее
Полное имя                               : D:\Раздачи\Владимир Шаинский\Всем, всем, всем\13. Дима Викторов – По секрету всему свету.wav
Формат                                   : Wave
Размер файла                             : 48,3 Мбайт
Продолжительность                        : 1 м. 28 с.
Режим общего битрейта                    : Постоянный
Общий поток                              : 4608 Кбит/сек

Аудио
Идентификатор                            : 0
Формат                                   : PCM
Параметр Endianness формата              : Little
Идентификатор кодека                     : 1
Продолжительность                        : 1 м. 28 с.
Вид битрейта                             : Постоянный
Битрейт                                  : 4608 Кбит/сек
Каналы                                   : 2 канала
Частота                                  : 96,0 КГц
Битовая глубина                          : 24 бит
Размер потока                            : 48,3 Мбайт (100%)

Общее
Полное имя                               : D:\Раздачи\Владимир Шаинский\Всем, всем, всем\14. Дима Голов – Игра.wav
Формат                                   : Wave
Размер файла                             : 78,0 Мбайт
Продолжительность                        : 2 м. 22 с.
Режим общего битрейта                    : Постоянный
Общий поток                              : 4608 Кбит/сек

Аудио
Идентификатор                            : 0
Формат                                   : PCM
Параметр Endianness формата              : Little
Идентификатор кодека                     : 1
Продолжительность                        : 2 м. 22 с.
Вид битрейта                             : Постоянный
Битрейт                                  : 4608 Кбит/сек
Каналы                                   : 2 канала
Частота                                  : 96,0 КГц
Битовая глубина                          : 24 бит
Размер потока                            : 78,0 Мбайт (100%)

Общее
Полное имя                               : D:\Раздачи\Владимир Шаинский\Всем, всем, всем\15. Дима Голов – Когда мои друзья со мной.wav
Формат                                   : Wave
Размер файла                             : 107 Мбайт
Продолжительность                        : 3 м. 15 с.
Режим общего битрейта                    : Постоянный
Общий поток                              : 4608 Кбит/сек

Аудио
Идентификатор                            : 0
Формат                                   : PCM
Параметр Endianness формата              : Little
Идентификатор кодека                     : 1
Продолжительность                        : 3 м. 15 с.
Вид битрейта                             : Постоянный
Битрейт                                  : 4608 Кбит/сек
Каналы                                   : 2 канала
Частота                                  : 96,0 КГц
Битовая глубина                          : 24 бит
Размер потока                            : 107 Мбайт (100%)
Время раздачи: с 12:00 до 2:00 (другое время по возможности)
[NNM-Club.me]_Vsem, vsem, vsem.torrent
 Торрент: Платиновая раздача  Зарегистрирован
 
Скачать


Примагнититься
 Зарегистрирован:   26 Окт 2013 18:06:52
 Размер:   1,19 GB  (
 Рейтинг:   4,8 (Голосов: 54)
 Поблагодарили:   190
 Проверка:   Оформление проверено модератором 27 Окт 2013 05:39:35
Как cкачать  ·  Как раздать  ·  Правильно оформить  ·  Поднять ратио!  
asuswert
Стаж: 6 лет 11 мес.
Сообщений: 93
Ratio: 3,385
Поблагодарили: 629
100%
Откуда: Тараз, Казахстан
kazakhstan.gif
Большое спасибо! Наткнулся случайно - но качать буду обязательно!
tamtutnet ®
Стаж: 9 лет 7 мес.
Сообщений: 612
Ratio: 156,149
Поблагодарили: 23248
100%
Откуда: Санкт-Петербуг
russia.gif
Спасибо! Собрался сделать СД внукам, потом решил опубликовать.
DIMA882
Стаж: 8 лет 4 мес.
Сообщений: 50
Ratio: 6,329
0.5%
была в детстве эта и другие пластинки... вечная память
herezad
Стаж: 8 лет 2 мес.
Сообщений: 2119
Ratio: 25,055
Поблагодарили: 48205
100%
помню с садика))
Strelomoln
Стаж: 7 лет 6 мес.
Сообщений: 133
Ratio: 8,136
100%
Была у меня такая) Эх были времена)
Hubilgan
Uploader 100+
Стаж: 9 лет 4 мес.
Сообщений: 338
Ratio: 5426,886
Раздал: 311,3 TB
100%
ussr.gif
Светлая память Маэстро

_________________
Per aspera ad astra
Dubchek
Стаж: 8 лет 1 мес.
Сообщений: 535
Ratio: 18,427
100%
Откуда: Саратов
russia.gif
Грустно... - сочинения Владимира Шаинского являются частью моей души. Царство ему небесное...

_________________
Живет на свете Баобаб — как ободрение всем живущим.
Assambleyal
Стаж: 7 лет 8 мес.
Сообщений: 34
Ratio: 13,19
100%
Спасибо!
Показать сообщения:   
Начать новую тему   Ответить на тему    Торрент-трекер NNM-Club -> Аудио -> Музыка и песни для детей Часовой пояс: GMT + 3
Страница 1 из 1