Классический форум-трекер
canvas not supported
Нас вместе: 4 078 869

Приключения кота Леопольда (1975-1987) BDRip [H.264]


 
 
RSS
Начать новую тему   Ответить на тему    Торрент-трекер NNM-Club -> Мультфильмы -> Отечественные Мультфильмы для детей
Автор Сообщение
Николай Анатольевич ®
   
Почетный релизер
 
Стаж: 9 лет 9 мес.
Сообщений: 46540
Ratio: 10,197
Раздал: 7,418 TB
Поблагодарили: 2604114
100%
estonia.gif
Приключения кота Леопольда (1975-1987) BDRip [H.264]
«Ребята, давайте жить дружно.»

Год выпуска: 1975-1987
Производство: СССР, «Lizard Cinema Trade»
Жанр: Мультфильм

Режиссер: Анатолий Резников
Роли озвучивали: Александр Калягин, Геннадий Хазанов, Андрей Миронов

Описание:
Популярный мультсериал о добродушном и разумном коте Леопольде, который из фильма в фильм призывает шкодливых мышат "жить дружно", а те искренне просят прощения, но к следующей серии благополучно забывают об этом и с удовольствием продолжают проказничать.

Содержание:
«Месть кота Леопольда» (1975 г.)
«Леопольд и золотая рыбка» (1975 г.)
«Клад кота Леопольда» (1981 г.)
«Телевизор кота Леопольда» (1981 г.)
«День рождения Леопольда» (1982 г.)
«Прогулка кота Леопольда» (1982 г.)
«Лето кота Леопольда» (1983 г.)
«Кот Леопольд во сне и наяву» (1984 г.)
«Поликлиника кота Леопольда» (1986 г.)
«Автомобиль кота Леопольда» (1987 г.)

Дата выхода DVD релиза: 10 декабря 2008, «Азимут»

Продолжительность: 01:35:16
Качество видео: BDRip (AVC)

Видеокодек: MPEG-4 AVC/H.264
Битрейт видео: 3500 Кбит/сек
Размер кадра: 780x576
Аудио: Русский, AC3, 6 ch, 448 Кбит/с
Код: выделить все
Общее
Уникальный идентификатор                 : 223427166224693709811384511247257277120 (0xA81681C9956947549A3CC22960D592C0)
Полное имя                               : F:\Раздачи\Раздачи Видео\Приключения кота Леопольда (1975-1987) [H.264] BDRip.mkv
Формат                                   : Matroska
Версия формата                           : Version 2
Размер файла                             : 2,63 Гбайт
Продолжительность                        : 1 ч. 35 м.
Общий поток                              : 3949 Кбит/сек
Дата кодирования                         : UTC 2011-05-27 12:01:27
Программа кодирования                    : mkvmerge v4.5.0 ('Speed of Light') сборка от Feb  1 2011 02:10:32
Библиотека кодирования                   : libebml v1.2.0 + libmatroska v1.1.0

Видео
Идентификатор                            : 1
Формат                                   : AVC
Формат/Информация                        : Advanced Video Codec
Профиль формата                          : High@L4.1
Параметр CABAC формата                   : Да
Параметр ReFrames формата                : 8 кадров
Идентификатор кодека                     : V_MPEG4/ISO/AVC
Продолжительность                        : 1 ч. 35 м.
Битрейт                                  : 3500 Кбит/сек
Ширина                                   : 780 пикселей
Высота                                   : 576 пикселей
Соотношение сторон                       : 4:3
Частота кадров                           : 25,000 кадров/сек
Цветовое пространство                    : YUV
Субдискретизация насыщенности            : 4:2:0
Битовая глубина                          : 8 бит
Тип развёртки                            : Прогрессивная
Бит/(Пиксели*Кадры)                      : 0.312
Размер потока                            : 2,28 Гбайт (87%)
Заголовок                                : Priklyucheniya.kota.Leopolda.1975-1987.x264.BDRip.(AVC)-Kinozal.TV-AVC.mkv
Библиотека кодирования                   : x264 core 114 r1913 5fd3dce
Настройки программы                      : cabac=1 / ref=8 / deblock=1:-2:-2 / analyse=0x3:0x133 / me=umh / subme=10 / psy=1 / psy_rd=1.00:0.00 / mixed_ref=1 / me_range=48 / chroma_me=1 / trellis=2 / 8x8dct=1 / cqm=0 / deadzone=21,11 / fast_pskip=0 / chroma_qp_offset=-2 / threads=3 / sliced_threads=0 / nr=0 / decimate=1 / interlaced=0 / constrained_intra=0 / bframes=8 / b_pyramid=2 / b_adapt=2 / b_bias=0 / direct=3 / weightb=1 / open_gop=0 / weightp=2 / keyint=250 / keyint_min=23 / scenecut=40 / intra_refresh=0 / rc=2pass / mbtree=0 / bitrate=3500 / ratetol=1.0 / qcomp=0.60 / qpmin=10 / qpmax=51 / qpstep=4 / cplxblur=20.0 / qblur=0.5 / ip_ratio=1.40 / pb_ratio=1.30 / aq=2:1.00
Язык                                     : English
Default                                  : Да
Forced                                   : Нет

Аудио
Идентификатор                            : 2
Формат                                   : AC-3
Формат/Информация                        : Audio Coding 3
Расширение режима                        : CM (complete main)
Параметр Endianness формата              : Big
Идентификатор кодека                     : A_AC3
Продолжительность                        : 1 ч. 35 м.
Вид битрейта                             : Постоянный
Битрейт                                  : 448 Кбит/сек
Каналы                                   : 6 каналов
Расположение каналов                     : Front: L C R, Side: L R, LFE
Частота                                  : 48,0 КГц
Битовая глубина                          : 16 бит
Метод сжатия                             : С потерями
Размер потока                            : 305 Мбайт (11%)
Заголовок                                : Русский
Язык                                     : Russian
Default                                  : Да
Forced                                   : Нет

Меню
00:00:00.000                             : en:Chapter 01
00:10:06.559                             : en:Chapter 02
00:25:37.639                             : en:Chapter 03
00:29:38.320                             : en:Chapter 04
00:36:36.719                             : en:Chapter 05
00:46:06.080                             : en:Chapter 06
00:56:03.719                             : en:Chapter 07
01:05:51.160                             : en:Chapter 08
01:15:52.640                             : en:Chapter 09
01:25:31.400                             : en:Chapter 10
Скриншоты:


Время раздачи: 9.00 - 23.00 (по мере возможности...)
[NNM-Club.ru]_Priklyucheniya kota Leopol'da (1975-1987) [H.264] BDRip.mkv.torrent
 Торрент: Платиновая раздача  Зарегистрирован
 
Скачать


Примагнититься
 Зарегистрирован:   07 Июн 2012 10:37:47
 Размер:   2,63 GB  (
 Рейтинг:   4,9 (Голосов: 260)
 Поблагодарили:   1126
 Проверка:   Оформление проверено модератором 07 Июн 2012 19:12:44
Как cкачать  ·  Как раздать  ·  Правильно оформить  ·  Поднять ратио!  
Загрузка...
Keytas
Стаж: 6 лет 11 мес.
Сообщений: 3
Ratio: 0,171
0%
Ребята давайте жить дружно!
трезорыч
Стаж: 7 лет 2 мес.
Сообщений: 2713
Ratio: 76,377
100%
Откуда: Из Интернета
russia.gif
На таких мультиках я вырос ! Буду показывать дочке. Спасибо ! :приветствую:
ZhulickD
Стаж: 7 лет 7 мес.
Сообщений: 45
Ratio: 6,898
100%
cuba.gif
Лео красавчик, жаль что в наше время это мало ценится, наши дети растут на других мультгероях
маринасочи
Стаж: 6 лет 2 мес.
Сообщений: 1269
Ratio: 2,934
100%
шикарно Я пою
Co-Pilot
Uploader 100+
 
Стаж: 9 лет
Сообщений: 1814
Ratio: 10K
Раздал: 351,3 TB
Поблагодарили: 644
100%
Откуда: СССР
ussr.gif
Выходи, подлый трус!

_________________
Miaiz
Стаж: 6 лет 2 мес.
Сообщений: 55
Ratio: 3,165
100%
А в Англии даже значки продают с героями этого мультфильма)

_________________
almikl
Куратор Детского.
Модератор Видео.
RG Всё лучшее - детям!
Uploader 500+
 
Стаж: 12 лет 4 мес.
Сообщений: 4756
Ratio: 339,036
Поблагодарили: 107416
100%
Откуда: Дааалекое Подмосковье
russia.gif
В Германии на 78-м году жизни скончался Анатолий Резников — режиссер-мультипликатор, создатель мультфильмов про кота Леопольда.
Co-Pilot
Uploader 100+
 
Стаж: 9 лет
Сообщений: 1814
Ratio: 10K
Раздал: 351,3 TB
Поблагодарили: 644
100%
Откуда: СССР
ussr.gif
almikl
Очень печальная новость... Царствие ему небесное за то добро, что он отдал нам и нашим детям! Низкий поклон творцу волшебного мира мультиков!!!!

_________________
Показать сообщения:   
Начать новую тему   Ответить на тему    Торрент-трекер NNM-Club -> Мультфильмы -> Отечественные Мультфильмы для детей Часовой пояс: GMT + 3
Страница 1 из 1