Классический форум-трекер
canvas not supported
Нас вместе: 4 084 036
Платим за отзывы

Морозко (1964) DVD9 [Реставрация]


 
 
RSS
Начать новую тему   Ответить на тему    Торрент-трекер NNM-Club -> Видео -> Отечественные Фильмы для детей
Автор Сообщение
denver7979 ®
Зам. Куратора Детского.
Модератор Видео.
RG Всё лучшее - детям!
 
Стаж: 9 лет
Сообщений: 7863
Ratio: 517,576
Раздал: 35,6 TB
Поблагодарили: 319802
100%
Откуда: Земля
ussr.gif
Морозко (1964) DVD9 [Реставрация]
Русское название: Морозко
Год выпуска: 1964
Жанр: Русская народная сказка

Описание фильма:
Жила-была хорошая добрая девушка Настенька. Злая мачеха заставляла ее работать, не давая продыху. Однажды она решила избавиться от падчерицы и отправила ту замерзать в зимний лес. В этих же краях жил паренек Иван. Он полюбил Настеньку, да вот только был он большим хвастуном, потому лесной колдун и превратил его в медведя.
И Настеньке, и Ивану пришлось пройти через много испытаний, прежде чем соединить свои судьбы. И помог им в этом добрый волшебник — дедушка Морозко…
Мастерство режиссера Роу, создателя жанра киносказки, признано во всем мире. Даже Стивен Спилберг воздает дань его волшебным сказкам.

Режиссер: Александр Роу
Сценарий: Николай Эрдман, Михаил Вольпин
Актеры: Александр Хвыля,Наталья Седых, Эдуард Изотов, Инна Чурикова, Павел Павленко, Вера Алтайская, Георгий Милляр, Михаил Яншин,Галина Борисова,Анатолий Кубацкий,ВалентинБрылеев,ТатьянаПельтцер, ТатьянаБарышева, Варвара Попова,Зинаида Воркул,Анастасия Зуева, Маргарита Корабельникова.

Субтитры: Русские, Английские, Испанские, Французские, Немецкие, Голландские, Итальянские, Португальские, Иврит, Японские
Продолжительность: 01:24:00



Видеокодек: MPEG-2
Качество видео: DVD9

Видео: MPEG 2, 720x576 (4/3), 25.000 fps, 8 000 Kbps (0.755 bit/pixel)
Аудио #1: AC-3, 48.0 KHz, 6 ch, 448 Kbps, CBR (Русский)
Аудио #2: AC-3, 48.0 KHz, 6 ch, 448 Kbps, CBR (Английский)
Аудио #3: AC-3, 48.0 KHz, 6 ch, 448 Kbps, CBR (Французский)
Код:
Видео
Идентификатор                    : 224 (0xE0)
Формат                           : MPEG Video
Версия формата                   : Version 2
Профиль формата                  : Main@Main
Параметр BVOP формата            : Да
Параметр матрицы формата         : Выборочная
Параметр GOP формата             : M=3, N=12
Продолжительность                : 14 м.
Битрейт                          : 8000 Кбит/сек
Ширина                           : 720 пикселей
Высота                           : 576 пикселей
Соотношение сторон               : 4:3
Частота кадров                   : 25,000 кадров/сек
Стандарт вещания                 : PAL
Цветовое пространство            : YUV
Субдискретизация насыщенности    : 4:2:0
Битовая глубина                  : 8 бит
Тип развёртки                    : Чересстрочная
Порядок развёртки                : Верхнее поле первое
Метод сжатия                     : С потерями
Бит/(Пиксели*Кадры)              : 0.772
Размер потока                    : 859 Мбайт (84%)

Аудио #1
Идентификатор                    : 189 (0xBD)-128 (0x80)
Формат                           : AC-3
Формат/Информация                : Audio Coding 3
Расширение режима                : CM (complete main)
Режим смешивания                 : DVD-Video
Продолжительность                : 14 м.
Вид битрейта                     : Постоянный
Битрейт                          : 448 Кбит/сек
Каналы                           : 6 каналов
Расположение каналов             : Front: L C R, Side: L R, LFE
Частота                          : 48,0 КГц
Битовая глубина                  : 16 бит
Метод сжатия                     : С потерями
Задержка видео                   : -557 мс.
Размер потока                    : 48,0 Мбайт (5%)

Аудио #2
Идентификатор                    : 189 (0xBD)-129 (0x81)
Формат                           : AC-3
Формат/Информация                : Audio Coding 3
Расширение режима                : CM (complete main)
Режим смешивания                 : DVD-Video
Продолжительность                : 14 м.
Вид битрейта                     : Постоянный
Битрейт                          : 448 Кбит/сек
Каналы                           : 6 каналов
Расположение каналов             : Front: L C R, Side: L R, LFE
Частота                          : 48,0 КГц
Битовая глубина                  : 16 бит
Метод сжатия                     : С потерями
Задержка видео                   : -557 мс.
Размер потока                    : 48,0 Мбайт (5%)

Аудио #3
Идентификатор                    : 189 (0xBD)-130 (0x82)
Формат                           : AC-3
Формат/Информация                : Audio Coding 3
Расширение режима                : CM (complete main)
Режим смешивания                 : DVD-Video
Продолжительность                : 14 м.
Вид битрейта                     : Постоянный
Битрейт                          : 448 Кбит/сек
Каналы                           : 6 каналов
Расположение каналов             : Front: L C R, Side: L R, LFE
Частота                          : 48,0 КГц
Битовая глубина                  : 16 бит
Метод сжатия                     : С потерями
Задержка видео                   : -581 мс.
Размер потока                    : 48,0 Мбайт (5%)

Текст #1
Идентификатор                    : 189 (0xBD)-32 (0x20)
Формат                           : RLE
Формат/Информация                : Run-length encoding
Режим смешивания                 : DVD-Video

Текст #2
Идентификатор                    : 189 (0xBD)-33 (0x21)
Формат                           : RLE
Формат/Информация                : Run-length encoding
Режим смешивания                 : DVD-Video

Текст #3
Идентификатор                    : 189 (0xBD)-34 (0x22)
Формат                           : RLE
Формат/Информация                : Run-length encoding
Режим смешивания                 : DVD-Video

Текст #4
Идентификатор                    : 189 (0xBD)-35 (0x23)
Формат                           : RLE
Формат/Информация                : Run-length encoding
Режим смешивания                 : DVD-Video

Текст #5
Идентификатор                    : 189 (0xBD)-36 (0x24)
Формат                           : RLE
Формат/Информация                : Run-length encoding
Режим смешивания                 : DVD-Video

Текст #6
Идентификатор                    : 189 (0xBD)-37 (0x25)
Формат                           : RLE
Формат/Информация                : Run-length encoding
Режим смешивания                 : DVD-Video

Текст #7
Идентификатор                    : 189 (0xBD)-38 (0x26)
Формат                           : RLE
Формат/Информация                : Run-length encoding
Режим смешивания                 : DVD-Video

Текст #8
Идентификатор                    : 189 (0xBD)-39 (0x27)
Формат                           : RLE
Формат/Информация                : Run-length encoding
Режим смешивания                 : DVD-Video
  • Оригинальный ролик о фильме
  • Информация о фильме
  • Музыкальное сопровождение фильма
  • Детская комната
  • Хроника событий
Скриншоты:


Полная реставрация изображения

Внимание! Торрент обновлен 10.11.2013 по техническим причинам. Просьба перекачать торрент-файл.

Время раздачи: с 11:00 до 01:00
[NNM-Club.me]_Morozko_1964_DVD9_NNM_club.ru.torrent
 Торрент: Платиновая раздача  Зарегистрирован
 
Скачать


Примагнититься
 Зарегистрирован:   10 Ноя 2013 18:50:32
 Размер:   6,82 GB  (
 Рейтинг:   4,9 (Голосов: 139)
 Поблагодарили:   443
 Проверка:   Оформление проверено модератором 10 Ноя 2013 18:52:10
Как cкачать  ·  Как раздать  ·  Правильно оформить  ·  Поднять ратио!  

_________________
§ Основной FAQ & Все ПравилаНабор в RG NNM-Club Всё для детей, пап и мам
* Все вопросы в ☛ ЛС по вашим релизам ☣
обязательно со ссылками на темы, о которых идёт речь ☺
Loading...
эксклюзив
Стаж: 8 лет 8 мес.
Сообщений: 1169
Ratio: 159,795
Поблагодарили: 75388
100%
Спасибо большое. Как такую сказку да еще в качестве не скачать. Забираю. :респект:

_________________
Жизнь дает много тем для размышлений, но мало времени.
Gr44
Стаж: 9 лет
Сообщений: 22
Ratio: 2,294
100%
В ЖЖ Садальского есть интересная статья о судьбе актера, сыгравшего гравную роль в этом фильме. Очень советую к прочтению.
LGaGa
Стаж: 8 лет 6 мес.
Сообщений: 171
Ratio: 57,526
100%
Этот фильм должен быть у каждого. Тем более Free!
ornellit
Стаж: 10 лет 1 мес.
Сообщений: 1754
Ratio: 197,861
Поблагодарили: 97031
100%
ukraine.gif
поможем с раздачей :)
uoocin
Стаж: 9 лет
Сообщений: 131
Ratio: 4,018
Поблагодарили: 670
100%
russia.gif
спасибо

 !  Примечание от boroda-max:
одноименная кнопочка, для выражения своих чувств - чуть выше
Alekx-68
Стаж: 7 лет 8 мес.
Сообщений: 130
Ratio: 5,833
100%
Откуда: С Кузьминки
russia.gif
Можно скорости*
помогите кто-нибудь*
Alekx-68
Стаж: 7 лет 8 мес.
Сообщений: 130
Ratio: 5,833
100%
Откуда: С Кузьминки
russia.gif
Спасибо***
SIvan123
Стаж: 9 лет
Сообщений: 3
Ratio: 663,16
0%
Встаньте кто-нибудь на раздачу, пожалуйста! Заранее благодарен.
SergeP
Стаж: 8 лет 11 мес.
Сообщений: 121
Ratio: 65,722
100%
russia.gif
любимая русская сказка чехов!! По-чешски "Морозко" - "Мразик"))
 !  Примечание от denver7979:
Очень остроумно. Только не для детского раздела.
sa2rn
 
Стаж: 8 лет 7 мес.
Сообщений: 385
Ratio: 0,681
100%
russia.gif
Могли вместо реставрации сразу на блюрик перенести.
Oerby68
Стаж: 7 лет 2 мес.
Сообщений: 420
Ratio: 2,601
100%
russia.gif
Чурикова просто жжёт!!! С детства над ней угораю в этом фильме.
grishynya
Стаж: 8 лет
Сообщений: 10
Ratio: 16,625
100%
Огромное спасибо!!! Любимая сказка. Внук смотрит не выключая. Еще раз спасибо!!!
kolman67
Стаж: 5 лет 1 мес.
Сообщений: 288
Ratio: 103,997
Раздал: 15,15 TB
Поблагодарили: 2537
100%
australia.gif
Всё в коллекцию, спасибо !
riff5
Стаж: 4 года 7 мес.
Сообщений: 12
Ratio: 0,645
0.7%
france.gif
Покорнейше благодарю за шикарный фильм с французским!!!
Показать сообщения:   
Начать новую тему   Ответить на тему    Торрент-трекер NNM-Club -> Видео -> Отечественные Фильмы для детей Часовой пояс: GMT + 3
Страница 1 из 1