Классический форум-трекер
canvas not supported
Нас вместе: 4 079 410

Дюна (Виктор Рыбин) - 19 Альбомов (1992-2010) [FLAC|Lossless]<Pop>


 
 
RSS
Начать новую тему   Ответить на тему    Торрент-трекер NNM-Club -> Pop -> Отечественная поп-музыка (Lossless)
Автор Сообщение
Vadimka ®
Модератор Музыки
RG Music
 
Стаж: 8 лет 9 мес.
Сообщений: 6033
Ratio: 619,828
Поблагодарили: 298015
100%
nnm-club.gif
Дюна (Виктор Рыбин) - 19 Альбомов (1992-2010)
Год: 1992-2010
Жанр: Pop
Продолжительность: 13:38:08

Производители дисков: Россия, Sweden, European Union
Источник (релизер): bruk67
Наличие сканов в содержимом раздачи: Да, 600 dpi, JPG

Кодек: FLAC, (image+.cue)
Битрейт: Lossless

Трек лист:
Страна-производитель диска: Manufactured by UEP Ekaterinburg, Russia
Год издания диска: 1992
Издатель (лейбл): GALA Records
Номер по каталогу: GLCD 01949
Продолжительность: 00:37:23
Треклист:
01. За нами - Долгопрудный
02. Корефана
03. Вальс
04. Поёт душа
05. Малыш
06. Экологический марш
07. Время
08. Гороскоп
09. Казус
10. Старый сарай
Код:

Exact Audio Copy V0.99 prebeta 5 from 4. May 2009

EAC extraction logfile from 21. July 2010, 5:12

Дюна / За нами Долгопрудный

Used drive  : PIONEER DVD-RW  DVR-212   Adapter: 8  ID: 0

Read mode               : Secure
Utilize accurate stream : Yes
Defeat audio cache      : Yes
Make use of C2 pointers : No

Read offset correction                      : 48
Overread into Lead-In and Lead-Out          : No
Fill up missing offset samples with silence : Yes
Delete leading and trailing silent blocks   : No
Null samples used in CRC calculations       : Yes
Used interface                              : Installed external ASPI interface

Used output format : Internal WAV Routines
Sample format      : 44.100 Hz; 16 Bit; Stereo

TOC of the extracted CD

     Track |   Start  |  Length  | Start sector | End sector
    ---------------------------------------------------------
        1  |  0:00.10 |  3:03.00 |        10    |    13734
        2  |  3:03.10 |  3:34.33 |     13735    |    29817
        3  |  6:37.43 |  3:50.02 |     29818    |    47069
        4  | 10:27.45 |  3:36.25 |     47070    |    63294
        5  | 14:03.70 |  4:01.05 |     63295    |    81374
        6  | 18:05.00 |  3:05.53 |     81375    |    95302
        7  | 21:10.53 |  3:42.22 |     95303    |   111974
        8  | 24:53.00 |  3:46.33 |    111975    |   128957
        9  | 28:39.33 |  4:39.37 |    128958    |   149919
       10  | 33:18.70 |  4:04.33 |    149920    |   168252

Range status and errors

Selected range

     Filename B:\MP 3\Дюна (FLAC)\1992 За нами Долгопрудный\Дюна - За нами Долгопрудный.wav

     Peak level 99.9 %
     Range quality 100.0 %
     Test CRC D7992049
     Copy CRC D7992049
     Copy OK

No errors occurred

AccurateRip summary

Track  1  not present in database
Track  2  not present in database
Track  3  not present in database
Track  4  not present in database
Track  5  not present in database
Track  6  not present in database
Track  7  not present in database
Track  8  not present in database
Track  9  not present in database
Track 10  not present in database

None of the tracks are present in the AccurateRip database

End of status report
Код:

DON'T MODIFY THIS FILE

-----------------------

PERFORMER: auCDtect Task Manager, ver. 1.6.0 RC1 build 1.6.0.1
Copyright (c) 2008-2010 y-soft. All rights reserved
http://y-soft.org

ANALYZER: auCDtect: CD records authenticity detector, version 0.8.2
Copyright (c) 2004 Oleg Berngardt. All rights reserved.
Copyright (c) 2004 Alexander Djourik. All rights reserved.

FILE: Дюна - За нами Долгопрудный.flac
  Size: 268033483 Hash: 52296BFC5895445429710E207979CFAF Accuracy: -m0
  Conclusion: CDDA 100%
  Signature: 9272FAAF7604C116C6771E17290418E645AA638F
Страна-производитель диска: Россия
Год издания диска: 1993
Издатель (лейбл): RDM Co Ltd
Номер по каталогу: CDRDM 3 05 016
Продолжительность: 01:03:11
Треклист:

01 Привет с большого бадуна
02 Фирма
03 Гринпис
04 Пой, деревня
05 Гороскоп
06 Малыш
07 Блонда (Ох-ох !)
08 За нами Долгопрудный
09 Старый сарай
10 Восток - Алтай (Пижон)
11 Поёт душа
12 Долгопа - ламбада
13 Дай-дай
14 Копилка
15 Корефана
16 Страна Лимония
17 Винни-Пух
Код:

Exact Audio Copy V0.99 prebeta 5 from 4. May 2009

EAC extraction logfile from 21. July 2010, 13:49

Дюна / Привет с большого Бадуна! Лучшие песни

Used drive  : PIONEER DVD-RW  DVR-212   Adapter: 8  ID: 0

Read mode               : Secure
Utilize accurate stream : Yes
Defeat audio cache      : Yes
Make use of C2 pointers : No

Read offset correction                      : 48
Overread into Lead-In and Lead-Out          : No
Fill up missing offset samples with silence : Yes
Delete leading and trailing silent blocks   : No
Null samples used in CRC calculations       : Yes
Used interface                              : Installed external ASPI interface

Used output format : Internal WAV Routines
Sample format      : 44.100 Hz; 16 Bit; Stereo

TOC of the extracted CD

     Track |   Start  |  Length  | Start sector | End sector
    ---------------------------------------------------------
        1  |  0:00.50 |  2:26.00 |        50    |    10999
        2  |  2:26.50 |  4:17.37 |     11000    |    30311
        3  |  6:44.12 |  3:05.63 |     30312    |    44249
        4  |  9:50.00 |  3:37.37 |     44250    |    60561
        5  | 13:27.37 |  3:45.25 |     60562    |    77461
        6  | 17:12.62 |  4:00.50 |     77462    |    95511
        7  | 21:13.37 |  4:08.13 |     95512    |   114124
        8  | 25:21.50 |  3:02.25 |    114125    |   127799
        9  | 28:24.00 |  4:13.00 |    127800    |   146774
       10  | 32:37.00 |  3:43.00 |    146775    |   163499
       11  | 36:20.00 |  3:35.00 |    163500    |   179624
       12  | 39:55.00 |  3:47.00 |    179625    |   196649
       13  | 43:42.00 |  2:55.00 |    196650    |   209774
       14  | 46:37.00 |  3:40.25 |    209775    |   226299
       15  | 50:17.25 |  3:33.50 |    226300    |   242324
       16  | 53:51.00 |  3:38.50 |    242325    |   258724
       17  | 57:29.50 |  5:41.25 |    258725    |   284324

Range status and errors

Selected range

     Filename B:\MP 3\Дюна (FLAC)\1993 Привет с большого Бадуна! Лучшие песни\Дюна - Привет с большого Бадуна! Лучшие песни.wav

     Peak level 60.7 %
     Range quality 99.9 %
     Test CRC 3B9A479A
     Copy CRC 3B9A479A
     Copy OK

No errors occurred

AccurateRip summary

Track  1  cannot be verified as accurate (confidence 1)  [9ED71F24], AccurateRip returned [827CE23E]
Track  2  cannot be verified as accurate (confidence 1)  [9A0B8F7F], AccurateRip returned [E094CF48]
Track  3  cannot be verified as accurate (confidence 1)  [D03C67A7], AccurateRip returned [58150DD1]
Track  4  cannot be verified as accurate (confidence 1)  [4EFDCC65], AccurateRip returned [AD700B90]
Track  5  cannot be verified as accurate (confidence 1)  [A3717BAE], AccurateRip returned [A956800E]
Track  6  cannot be verified as accurate (confidence 1)  [EC634EC3], AccurateRip returned [6C82A71B]
Track  7  cannot be verified as accurate (confidence 1)  [5B8AA4AF], AccurateRip returned [766DCC9F]
Track  8  cannot be verified as accurate (confidence 1)  [30D189AC], AccurateRip returned [FCE7A969]
Track  9  cannot be verified as accurate (confidence 1)  [0B81EE80], AccurateRip returned [9EE39F81]
Track 10  cannot be verified as accurate (confidence 1)  [E78AB88D], AccurateRip returned [481C9553]
Track 11  cannot be verified as accurate (confidence 1)  [A79DC554], AccurateRip returned [184AAC91]
Track 12  cannot be verified as accurate (confidence 1)  [6D3B9A56], AccurateRip returned [4B0C34CE]
Track 13  cannot be verified as accurate (confidence 1)  [34D19F6E], AccurateRip returned [350AD113]
Track 14  cannot be verified as accurate (confidence 1)  [DC546D6B], AccurateRip returned [65773827]
Track 15  cannot be verified as accurate (confidence 1)  [3DA43744], AccurateRip returned [31EB290F]
Track 16  cannot be verified as accurate (confidence 1)  [676B3BD8], AccurateRip returned [35EE7EFF]
Track 17  cannot be verified as accurate (confidence 1)  [10073F32], AccurateRip returned [49605773]

No tracks could be verified as accurate
You may have a different pressing from the one(s) in the database

End of status report
Код:

DON'T MODIFY THIS FILE

-----------------------

PERFORMER: auCDtect Task Manager, ver. 1.6.0 RC1 build 1.6.0.1
Copyright (c) 2008-2010 y-soft. All rights reserved
http://y-soft.org

ANALYZER: auCDtect: CD records authenticity detector, version 0.8.2
Copyright (c) 2004 Oleg Berngardt. All rights reserved.
Copyright (c) 2004 Alexander Djourik. All rights reserved.

FILE: Дюна - Привет с большого Бадуна! Лучшие песни.flac
  Size: 391837411 Hash: A103F14C06FDADF26D140907DC6726C6 Accuracy: -m0
  Conclusion: CDDA 100%
  Signature: 4A2CE9674799BB1BD2B6A76C4C9B8062FA58BA16
Страна-производитель диска: Россия
Год издания диска: 1993
Издатель (лейбл): RDM Co Ltd
Номер по каталогу: CDRDM 3 05 011
Продолжительность: 00:35:36
Треклист:

01. Пиво
02. Лим-Пом-По
03. Город Иванов
04. Для народа
05. Пулемёт
06. Женька
07. Анашик
08. Матрёна
09. Толстый Шейк
10. Браточки
Код:

Exact Audio Copy V0.99 prebeta 5 from 4. May 2009

EAC extraction logfile from 28. July 2010, 0:31

Дюна / Витек

Used drive  : PIONEER DVD-RW  DVR-212   Adapter: 8  ID: 0

Read mode               : Secure
Utilize accurate stream : Yes
Defeat audio cache      : Yes
Make use of C2 pointers : No

Read offset correction                      : 48
Overread into Lead-In and Lead-Out          : No
Fill up missing offset samples with silence : Yes
Delete leading and trailing silent blocks   : No
Null samples used in CRC calculations       : Yes
Used interface                              : Installed external ASPI interface

Used output format : Internal WAV Routines
Sample format      : 44.100 Hz; 16 Bit; Stereo

TOC of the extracted CD

     Track |   Start  |  Length  | Start sector | End sector
    ---------------------------------------------------------
        1  |  0:00.37 |  3:38.13 |        37    |    16399
        2  |  3:38.50 |  3:19.37 |     16400    |    31361
        3  |  6:58.12 |  4:47.38 |     31362    |    52924
        4  | 11:45.50 |  3:06.25 |     52925    |    66899
        5  | 14:52.00 |  3:13.37 |     66900    |    81411
        6  | 18:05.37 |  3:47.25 |     81412    |    98461
        7  | 21:52.62 |  2:41.25 |     98462    |   110561
        8  | 24:34.12 |  3:17.63 |    110562    |   125399
        9  | 27:52.00 |  4:03.00 |    125400    |   143624
       10  | 31:55.00 |  3:41.37 |    143625    |   160236

Range status and errors

Selected range

     Filename B:\MP 3\Дюна (FLAC)\1993 Витёк\Дюна - Витек.wav

     Peak level 66.6 %
     Range quality 99.9 %
     Test CRC 0FFB2A07
     Copy CRC 0FFB2A07
     Copy OK

No errors occurred

AccurateRip summary

Track  1  not present in database
Track  2  not present in database
Track  3  not present in database
Track  4  not present in database
Track  5  not present in database
Track  6  not present in database
Track  7  not present in database
Track  8  not present in database
Track  9  not present in database
Track 10  not present in database

None of the tracks are present in the AccurateRip database

End of status report
Код:

DON'T MODIFY THIS FILE

-----------------------

PERFORMER: auCDtect Task Manager, ver. 1.6.0 RC1 build 1.6.0.1
Copyright (c) 2008-2010 y-soft. All rights reserved
http://y-soft.org

ANALYZER: auCDtect: CD records authenticity detector, version 0.8.2
Copyright (c) 2004 Oleg Berngardt. All rights reserved.
Copyright (c) 2004 Alexander Djourik. All rights reserved.

FILE: Дюна - Витек.flac
  Size: 226303138 Hash: F91A64FA02D0B5D4830CB97F56782EA9 Accuracy: -m0
  Conclusion: MPEG 95%
  Signature: D5547F3119CE8123D14F7644E52251E721C5285B
Страна-производитель диска: Объединенная Европа
Год издания диска: 1995
Издатель (лейбл): RDM Co Ltd
Номер по каталогу: CDRDM 412062 GOLD
Продолжительность: 00:40:18
Треклист:

01 Пива нет!
02 Держись, браток
03 Африкана
04 Ежовая - лажовая
05 Фигли-мигли
06 Борька - бабник
07 Мечта (Море пива)
08 День рождения
09 Город детства
10 Базаров нет!
11 За друзей
12 А нам - всё равно!
Код:

Exact Audio Copy V0.99 prebeta 5 from 4. May 2009

EAC extraction logfile from 21. July 2010, 13:10

Дюна / А нам - всё равно!

Used drive  : PIONEER DVD-RW  DVR-212   Adapter: 8  ID: 0

Read mode               : Secure
Utilize accurate stream : Yes
Defeat audio cache      : Yes
Make use of C2 pointers : No

Read offset correction                      : 48
Overread into Lead-In and Lead-Out          : No
Fill up missing offset samples with silence : Yes
Delete leading and trailing silent blocks   : No
Null samples used in CRC calculations       : Yes
Used interface                              : Installed external ASPI interface

Used output format : Internal WAV Routines
Sample format      : 44.100 Hz; 16 Bit; Stereo

TOC of the extracted CD

     Track |   Start  |  Length  | Start sector | End sector
    ---------------------------------------------------------
        1  |  0:00.00 |  3:23.12 |         0    |    15236
        2  |  3:23.12 |  4:09.13 |     15237    |    33924
        3  |  7:32.25 |  3:12.00 |     33925    |    48324
        4  | 10:44.25 |  3:38.00 |     48325    |    64674
        5  | 14:22.25 |  3:12.25 |     64675    |    79099
        6  | 17:34.50 |  2:56.25 |     79100    |    92324
        7  | 20:31.00 |  3:31.00 |     92325    |   108149
        8  | 24:02.00 |  3:19.00 |    108150    |   123074
        9  | 27:21.00 |  3:16.25 |    123075    |   137799
       10  | 30:37.25 |  3:18.50 |    137800    |   152699
       11  | 33:56.00 |  3:32.00 |    152700    |   168599
       12  | 37:28.00 |  2:50.00 |    168600    |   181349

Range status and errors

Selected range

     Filename B:\MP 3\Дюна (FLAC)\1994 А нам - всё равно!\Дюна - А нам - всё равно!.wav

     Peak level 98.6 %
     Range quality 100.0 %
     Test CRC 8FDC64A0
     Copy CRC 8FDC64A0
     Copy OK

No errors occurred

AccurateRip summary

Track  1  accurately ripped (confidence 1)  [3748EB0A]
Track  2  accurately ripped (confidence 1)  [2671BA7B]
Track  3  accurately ripped (confidence 1)  [CD944D91]
Track  4  accurately ripped (confidence 1)  [8618934F]
Track  5  accurately ripped (confidence 1)  [D77BF056]
Track  6  accurately ripped (confidence 1)  [402874DE]
Track  7  accurately ripped (confidence 1)  [029709FF]
Track  8  accurately ripped (confidence 1)  [40FF8E1F]
Track  9  accurately ripped (confidence 1)  [72429110]
Track 10  accurately ripped (confidence 1)  [BFEB5AF9]
Track 11  accurately ripped (confidence 1)  [969E48A9]
Track 12  accurately ripped (confidence 1)  [800659D1]

All tracks accurately ripped

End of status report
Код:

DON'T MODIFY THIS FILE

-----------------------

PERFORMER: auCDtect Task Manager, ver. 1.6.0 RC1 build 1.6.0.1
Copyright (c) 2008-2010 y-soft. All rights reserved
http://y-soft.org

ANALYZER: auCDtect: CD records authenticity detector, version 0.8.2
Copyright (c) 2004 Oleg Berngardt. All rights reserved.
Copyright (c) 2004 Alexander Djourik. All rights reserved.

FILE: Дюна - А нам - всё равно!.flac
  Size: 254348851 Hash: 03E46E33E1CD0624AFD0C2231569C81F Accuracy: -m0
  Conclusion: MPEG 95%
  Signature: 62B553F10CA1DFA78969B1E197639E3689606A60
Страна-производитель диска: Объединенная Европа
Год издания диска: 1995
Издатель (лейбл): RDM Co Ltd
Номер по каталогу: CDRDM 5 05 086
Продолжительность: 00:39:53
Треклист:

01. Песня разбойников
02. Чунга - чанга
03. Колыбельная медведицы
04. Песенка крокодила Гены
05. Антошка
06. Песня атаманши
07. Голубой вагон
08. В траве сидел кузнечик
09. Песня львёнка и черепахи
10. Песенка Чебурашки
11. Песенка Водяного
12. Песенка о лете
13. Улыбка
14. Песенка Винни-Пуха
15. Вдруг, как в сказке
Код:

Exact Audio Copy V0.99 prebeta 5 from 4. May 2009

EAC extraction logfile from 21. July 2010, 5:33

Дюна и Наталья Сенчукова / Вспомни детство золотое

Used drive  : PIONEER DVD-RW  DVR-212   Adapter: 8  ID: 0

Read mode               : Secure
Utilize accurate stream : Yes
Defeat audio cache      : Yes
Make use of C2 pointers : No

Read offset correction                      : 48
Overread into Lead-In and Lead-Out          : No
Fill up missing offset samples with silence : Yes
Delete leading and trailing silent blocks   : No
Null samples used in CRC calculations       : Yes
Used interface                              : Installed external ASPI interface

Used output format : Internal WAV Routines
Sample format      : 44.100 Hz; 16 Bit; Stereo

TOC of the extracted CD

     Track |   Start  |  Length  | Start sector | End sector
    ---------------------------------------------------------
        1  |  0:00.25 |  2:17.62 |        25    |    10361
        2  |  2:18.12 |  2:21.00 |     10362    |    20936
        3  |  4:39.12 |  2:37.00 |     20937    |    32711
        4  |  7:16.12 |  3:00.38 |     32712    |    46249
        5  | 10:16.50 |  2:10.37 |     46250    |    56036
        6  | 12:27.12 |  2:45.63 |     56037    |    68474
        7  | 15:13.00 |  3:02.50 |     68475    |    82174
        8  | 18:15.50 |  2:12.37 |     82175    |    92111
        9  | 20:28.12 |  3:13.63 |     92112    |   106649
       10  | 23:42.00 |  2:58.50 |    106650    |   120049
       11  | 26:40.50 |  3:04.00 |    120050    |   133849
       12  | 29:44.50 |  2:27.62 |    133850    |   144936
       13  | 32:12.37 |  2:38.50 |    144937    |   156836
       14  | 34:51.12 |  2:27.50 |    156837    |   167911
       15  | 37:18.62 |  2:34.13 |    167912    |   179474

Range status and errors

Selected range

     Filename B:\MP 3\Дюна (FLAC)\1995 Дюна и Наталья Сенчукова - Вспомни детство золотое\Дюна и Наталья Сенчукова - Вспомни детство золотое.wav

     Peak level 90.5 %
     Range quality 100.0 %
     Test CRC FBEAB0E4
     Copy CRC FBEAB0E4
     Copy OK

No errors occurred

AccurateRip summary

Track  1  not present in database
Track  2  not present in database
Track  3  not present in database
Track  4  not present in database
Track  5  not present in database
Track  6  not present in database
Track  7  not present in database
Track  8  not present in database
Track  9  not present in database
Track 10  not present in database
Track 11  not present in database
Track 12  not present in database
Track 13  not present in database
Track 14  not present in database
Track 15  not present in database

None of the tracks are present in the AccurateRip database

End of status report
Код:

DON'T MODIFY THIS FILE

-----------------------

PERFORMER: auCDtect Task Manager, ver. 1.6.0 RC1 build 1.6.0.1
Copyright (c) 2008-2010 y-soft. All rights reserved
http://y-soft.org

ANALYZER: auCDtect: CD records authenticity detector, version 0.8.2
Copyright (c) 2004 Oleg Berngardt. All rights reserved.
Copyright (c) 2004 Alexander Djourik. All rights reserved.

FILE: Дюна и Наталья Сенчукова - Вспомни детство золотое.flac
  Size: 252671529 Hash: CD1FEAE61000282877D858CACBF932B2 Accuracy: -m0
  Conclusion: CDDA 99%
  Signature: A4AB29E7D553BA6381411A797F4588E3B7B89448
Страна-производитель диска: Объединенная Европа
Год издания диска: 1995
Издатель (лейбл): RDM Co Ltd
Номер по каталогу: CDRDM 512110
Продолжительность: 00:09:13
Треклист:

01 В городе большом
02 Коммунальная квартира
03 Фонарики
Код:

Exact Audio Copy V0.99 prebeta 5 from 4. May 2009

Отчёт EAC об извлечении, выполненном 11. апреля 2010, 2:49

Дюна / В городе большом (Single)

Дисковод: PIONEER DVD-RW  DVR-212   Adapter: 8  ID: 0

Режим чтения                 : Достоверность
Использование точного потока : Да
Отключение кэша аудио        : Да
Использование указателей C2  : Нет

Коррекция смещения при чтении                     : 48
Способность читать области Lead-in и Lead-out     : Нет
Заполнение пропущенных сэмплов тишиной            : Да
Удаление блоков с тишиной в начале и конце        : Нет
При вычислениях CRC использовались нулевые сэмплы : Да
Интерфейс                                         : Установленный внешний ASPI-интерфейс

Выходной формат : Внутренние WAV-операции
Формат сэмплов  : 44.100 Гц; 16 бит; стерео

TOC извлечённого CD

     Трек |   Старт  | Длительность | Начальный сектор | Конечный сектор
    ---------------------------------------------------------------------
       1  |  0:00.62 |    2:54.38   |          62      |      13149
       2  |  2:55.25 |    3:01.62   |       13150      |      26786
       3  |  5:57.12 |    3:15.63   |       26787      |      41474

Характеристики диапазона извлечения и сообщения об ошибках

Выбранный диапазон

     Имя файла B:\MP 3\Дюна (FLAC)\1995 В городе большом (Single)\Дюна - В городе большом (Single).wav

     Пиковый уровень 96.1 %
     Качество диапазона 100.0 %
     CRC теста ECCEA792
     CRC копии ECCEA792
     Копирование... OK

Ошибок не произошло

AccurateRip: сводка

Трек  1  нет в базе данных
Трек  2  нет в базе данных
Трек  3  нет в базе данных

Ни одного трека нет в базе AccurateRip

Конец отчёта
Код:

DON'T MODIFY THIS FILE

-----------------------

PERFORMER: auCDtect Task Manager, ver. 1.6.0 RC1 build 1.6.0.1
Copyright (c) 2008-2010 y-soft. All rights reserved
http://y-soft.org

ANALYZER: auCDtect: CD records authenticity detector, version 0.8.2
Copyright (c) 2004 Oleg Berngardt. All rights reserved.
Copyright (c) 2004 Alexander Djourik. All rights reserved.

FILE: Дюна - В городе большом (Single).flac
  Size: 66598454 Hash: BD5C405F22E2AF80C5DB7365873F6834 Accuracy: -m0
  Conclusion: CDDA 100%
  Signature: 7DB37B84AD1E32453EA8B69E1AB5F0C83E146DE3
Страна-производитель диска: Объединенная Европа
Год издания диска: 1996
Издатель (лейбл): RDM Co Ltd
Номер по каталогу: CDRDM 512110 GOLD
Продолжительность: 00:36:54
Треклист:

01. Коммунальная квартира
02. Ворона
03. Про Васю
04. Подмосковная
05. Друзья мои, приятели
06. В городе большом
07. Розовые ушки
08. Фонарики
09. А шмели...
10. Лёнчик
11. Колыбельная
Код:

Exact Audio Copy V0.99 prebeta 5 from 4. May 2009

Отчёт EAC об извлечении, выполненном 22. марта 2010, 20:58

Дюна / В городе большом

Дисковод: PIONEER DVD-RW  DVR-212   Adapter: 7  ID: 0

Режим чтения                 : Достоверность
Использование точного потока : Да
Отключение кэша аудио        : Да
Использование указателей C2  : Нет

Коррекция смещения при чтении                     : 48
Способность читать области Lead-in и Lead-out     : Нет
Заполнение пропущенных сэмплов тишиной            : Да
Удаление блоков с тишиной в начале и конце        : Нет
При вычислениях CRC использовались нулевые сэмплы : Да
Интерфейс                                         : Установленный внешний ASPI-интерфейс

Выходной формат : Внутренние WAV-операции
Формат сэмплов  : 44.100 Гц; 16 бит; стерео

TOC извлечённого CD

     Трек |   Старт  | Длительность | Начальный сектор | Конечный сектор
    ---------------------------------------------------------------------
       1  |  0:00.50 |    3:02.12   |          50      |      13711
       2  |  3:02.62 |    3:43.00   |       13712      |      30436
       3  |  6:45.62 |    3:29.13   |       30437      |      46124
       4  | 10:15.00 |    3:26.50   |       46125      |      61624
       5  | 13:41.50 |    3:18.50   |       61625      |      76524
       6  | 17:00.25 |    2:56.00   |       76525      |      89724
       7  | 19:56.25 |    3:31.00   |       89725      |     105549
       8  | 23:27.25 |    3:17.25   |      105550      |     120349
       9  | 26:44.50 |    3:24.00   |      120350      |     135649
      10  | 30:08.50 |    3:25.62   |      135650      |     151086
      11  | 33:34.37 |    3:19.38   |      151087      |     166049

Характеристики диапазона извлечения и сообщения об ошибках

Выбранный диапазон

     Имя файла B:\MP 3\Дюна (FLAC)\1996 В городе большом\Дюна - В городе большом.wav

     Пиковый уровень 96.4 %
     Качество диапазона 100.0 %
     CRC теста C09DFF87
     CRC копии C09DFF87
     Копирование... OK

Ошибок не произошло

AccurateRip: сводка

Трек  1  нет в базе данных
Трек  2  нет в базе данных
Трек  3  нет в базе данных
Трек  4  нет в базе данных
Трек  5  нет в базе данных
Трек  6  нет в базе данных
Трек  7  нет в базе данных
Трек  8  нет в базе данных
Трек  9  нет в базе данных
Трек 10  нет в базе данных
Трек 11  нет в базе данных

Ни одного трека нет в базе AccurateRip

Конец отчёта
Код:

DON'T MODIFY THIS FILE

-----------------------

PERFORMER: auCDtect Task Manager, ver. 1.6.0 RC1 build 1.6.0.1
Copyright (c) 2008-2010 y-soft. All rights reserved
http://y-soft.org

ANALYZER: auCDtect: CD records authenticity detector, version 0.8.2
Copyright (c) 2004 Oleg Berngardt. All rights reserved.
Copyright (c) 2004 Alexander Djourik. All rights reserved.

FILE: Дюна - В городе большом.flac
  Size: 258952741 Hash: D8FDFC8D9A47D9155D938395EF9E8BDC Accuracy: -m0
  Conclusion: CDDA 100%
  Signature: F92F361BF32A247EAE5955F8891D2642189F5CCB
Страна-производитель диска: Объединенная Европа
Год издания диска: 1996
Издатель (лейбл): RDM Co Ltd
Номер по каталогу: CDRDM 510102
Продолжительность: 00:55:26
Треклист:

01 Борька - бабник
02 Город Иванов
03 Гороскоп
04 Малыш
05 Восток - Алтай (Пижон)
06 Матрёна
07 Страна Лимония
08 Толстый шейк
09 Фирма
10 Казус
11 Держись, браток
12 День рождения
13 Лим-пом-по
14 За друзей
15 Вдруг, как в сказке
Код:

Exact Audio Copy V0.99 prebeta 5 from 4. May 2009

EAC extraction logfile from 21. July 2010, 11:50

Дюна / Ну кто не бабник? Лучшие песни

Used drive  : PIONEER DVD-RW  DVR-212   Adapter: 8  ID: 0

Read mode               : Secure
Utilize accurate stream : Yes
Defeat audio cache      : Yes
Make use of C2 pointers : No

Read offset correction                      : 48
Overread into Lead-In and Lead-Out          : No
Fill up missing offset samples with silence : Yes
Delete leading and trailing silent blocks   : No
Null samples used in CRC calculations       : Yes
Used interface                              : Installed external ASPI interface

Used output format : Internal WAV Routines
Sample format      : 44.100 Hz; 16 Bit; Stereo

TOC of the extracted CD

     Track |   Start  |  Length  | Start sector | End sector
    ---------------------------------------------------------
        1  |  0:00.00 |  2:55.22 |         0    |    13146
        2  |  2:55.22 |  4:45.40 |     13147    |    34561
        3  |  7:40.62 |  3:42.72 |     34562    |    51283
        4  | 11:23.59 |  3:58.13 |     51284    |    69146
        5  | 15:21.72 |  3:41.25 |     69147    |    85746
        6  | 19:03.22 |  3:14.30 |     85747    |   100326
        7  | 22:17.52 |  3:35.23 |    100327    |   116474
        8  | 25:53.00 |  3:56.65 |    116475    |   134239
        9  | 29:49.65 |  4:06.72 |    134240    |   152761
       10  | 33:56.62 |  4:37.50 |    152762    |   173586
       11  | 38:34.37 |  4:09.42 |    173587    |   192303
       12  | 42:44.04 |  3:20.06 |    192304    |   207309
       13  | 46:04.10 |  3:17.35 |    207310    |   222119
       14  | 49:21.45 |  3:30.69 |    222120    |   237938
       15  | 52:52.39 |  2:33.43 |    237939    |   249456

Range status and errors

Selected range

     Filename B:\MP 3\Дюна (FLAC)\1996 Ну кто не бабник. Лучшие песни\Дюна - Ну кто не бабник  Лучшие песни.wav

     Peak level 100.0 %
     Range quality 99.9 %
     Test CRC 3DEFACE0
     Copy CRC 3DEFACE0
     Copy OK

No errors occurred

AccurateRip summary

Track  1  not present in database
Track  2  not present in database
Track  3  not present in database
Track  4  not present in database
Track  5  not present in database
Track  6  not present in database
Track  7  not present in database
Track  8  not present in database
Track  9  not present in database
Track 10  not present in database
Track 11  not present in database
Track 12  not present in database
Track 13  not present in database
Track 14  not present in database
Track 15  not present in database

None of the tracks are present in the AccurateRip database

End of status report
Код:

DON'T MODIFY THIS FILE

-----------------------

PERFORMER: auCDtect Task Manager, ver. 1.6.0 RC1 build 1.6.0.1
Copyright (c) 2008-2010 y-soft. All rights reserved
http://y-soft.org

ANALYZER: auCDtect: CD records authenticity detector, version 0.8.2
Copyright (c) 2004 Oleg Berngardt. All rights reserved.
Copyright (c) 2004 Alexander Djourik. All rights reserved.

FILE: Дюна - Ну кто не бабник  Лучшие песни.flac
  Size: 368940036 Hash: C3518A7C5599E63DF7F52F5EAA39B3B6 Accuracy: -m0
  Conclusion: CDDA 100%
  Signature: 9509AA1FD806475592EDCC359EA42568DE271A6D
Страна-производитель диска: Sweden
Год издания диска: 1996
Издатель (лейбл): СОЮЗ
Номер по каталогу: SZCD 0649-96
Продолжительность: 00:37:15
Треклист:

01. Картавый марш
02. Шейк Эммануил
03. Костюмчик
04. Коровы по небу летят
05. Друг мой
06. Тюряга
07. Шишки-орешки
08. За просто так
09. Когда не лень
10. Алка-фиалка
11. В нашем подъезде
Код:

Exact Audio Copy V0.99 prebeta 5 from 4. May 2009

Отчёт EAC об извлечении, выполненном 22. марта 2010, 17:02

Дюна / Пошил костюмчик новенький

Дисковод: PIONEER DVD-RW  DVR-212   Adapter: 7  ID: 0

Режим чтения                 : Достоверность
Использование точного потока : Да
Отключение кэша аудио        : Да
Использование указателей C2  : Нет

Коррекция смещения при чтении                     : 48
Способность читать области Lead-in и Lead-out     : Нет
Заполнение пропущенных сэмплов тишиной            : Да
Удаление блоков с тишиной в начале и конце        : Нет
При вычислениях CRC использовались нулевые сэмплы : Да
Интерфейс                                         : Установленный внешний ASPI-интерфейс

Выходной формат : Внутренние WAV-операции
Формат сэмплов  : 44.100 Гц; 16 бит; стерео

TOC извлечённого CD

     Трек |   Старт  | Длительность | Начальный сектор | Конечный сектор
    ---------------------------------------------------------------------
       1  |  0:00.10 |    2:56.22   |          10      |      13231
       2  |  2:56.32 |    3:56.03   |       13232      |      30934
       3  |  6:52.35 |    3:15.00   |       30935      |      45559
       4  | 10:07.35 |    3:15.12   |       45560      |      60196
       5  | 13:22.47 |    3:26.38   |       60197      |      75684
       6  | 16:49.10 |    3:20.00   |       75685      |      90684
       7  | 20:09.10 |    3:15.42   |       90685      |     105351
       8  | 23:24.52 |    3:01.23   |      105352      |     118949
       9  | 26:26.00 |    3:32.37   |      118950      |     134886
      10  | 29:58.37 |    3:59.60   |      134887      |     152871
      11  | 33:58.22 |    3:16.70   |      152872      |     167641

Характеристики диапазона извлечения и сообщения об ошибках

Выбранный диапазон

     Имя файла B:\MP 3\Дюна (FLAC)\1996 Пошил костюмчик новенький\Дюна - Пошил костюмчик новенький.wav

     Пиковый уровень 97.7 %
     Качество диапазона 100.0 %
     CRC теста 426427FD
     CRC копии 426427FD
     Копирование... OK

Ошибок не произошло

AccurateRip: сводка

Трек  1  нет в базе данных
Трек  2  нет в базе данных
Трек  3  нет в базе данных
Трек  4  нет в базе данных
Трек  5  нет в базе данных
Трек  6  нет в базе данных
Трек  7  нет в базе данных
Трек  8  нет в базе данных
Трек  9  нет в базе данных
Трек 10  нет в базе данных
Трек 11  нет в базе данных

Ни одного трека нет в базе AccurateRip

Конец отчёта
Код:

DON'T MODIFY THIS FILE

-----------------------

PERFORMER: auCDtect Task Manager, ver. 1.6.0 RC1 build 1.6.0.1
Copyright (c) 2008-2010 y-soft. All rights reserved
http://y-soft.org

ANALYZER: auCDtect: CD records authenticity detector, version 0.8.2
Copyright (c) 2004 Oleg Berngardt. All rights reserved.
Copyright (c) 2004 Alexander Djourik. All rights reserved.

FILE: Дюна - Пошил костюмчик новенький.flac
  Size: 271254736 Hash: 3106F4C9DF9555BA9092C3BD89B9DE67 Accuracy: -m0
  Conclusion: CDDA 100%
  Signature: BC0950D99943914ADF4077D5206BC7D638D54BED
Страна-производитель диска: Sweden
Год издания диска: 1997
Издатель (лейбл): СОЮЗ
Номер по каталогу: SZCD 0729-97
Продолжительность: 00:36:24
Треклист:

01 Встречайте меня
02 Поговорим о любви, Мадемуазель
03 Герл-френд
04 Не заставляй меня ждать
05 Не опускайте глазки
06 Белые гуси
07 Секс-тема
08 Там, где светит луна
09 Колыбельная слона
10 Весенний дождь
Код:

Exact Audio Copy V0.99 prebeta 5 from 4. May 2009

Отчёт EAC об извлечении, выполненном 1. июня 2010, 4:59

Витёк Рыбин / Поговорим о любви, Мадемуазель

Дисковод: PIONEER DVD-RW  DVR-212   Adapter: 8  ID: 0

Режим чтения                 : Достоверность
Использование точного потока : Да
Отключение кэша аудио        : Да
Использование указателей C2  : Нет

Коррекция смещения при чтении                     : 48
Способность читать области Lead-in и Lead-out     : Нет
Заполнение пропущенных сэмплов тишиной            : Да
Удаление блоков с тишиной в начале и конце        : Нет
При вычислениях CRC использовались нулевые сэмплы : Да
Интерфейс                                         : Установленный внешний ASPI-интерфейс

Выходной формат : Внутренние WAV-операции
Формат сэмплов  : 44.100 Гц; 16 бит; стерео

TOC извлечённого CD

     Трек |   Старт  | Длительность | Начальный сектор | Конечный сектор
    ---------------------------------------------------------------------
       1  |  0:00.10 |    4:04.10   |          10      |      18319
       2  |  4:04.20 |    3:21.50   |       18320      |      33444
       3  |  7:25.70 |    3:19.62   |       33445      |      48431
       4  | 10:45.57 |    3:18.00   |       48432      |      63281
       5  | 14:03.57 |    3:26.23   |       63282      |      78754
       6  | 17:30.05 |    3:35.02   |       78755      |      94881
       7  | 21:05.07 |    3:25.43   |       94882      |     110299
       8  | 24:30.50 |    3:27.00   |      110300      |     125824
       9  | 27:57.50 |    4:42.50   |      125825      |     147024
      10  | 32:40.25 |    3:43.42   |      147025      |     163791

Характеристики диапазона извлечения и сообщения об ошибках

Выбранный диапазон

     Имя файла B:\MP 3\Дюна (FLAC)\1997 Витёк Рыбин - Поговорим о любви, Мадемуазель\Витёк Рыбин - Поговорим о любви, Мадемуазель.wav

     Пиковый уровень 100.0 %
     Качество диапазона 100.0 %
     CRC теста 34116D79
     CRC копии 34116D79
     Копирование... OK

Ошибок не произошло

AccurateRip: сводка

Трек  1  нет в базе данных
Трек  2  нет в базе данных
Трек  3  нет в базе данных
Трек  4  нет в базе данных
Трек  5  нет в базе данных
Трек  6  нет в базе данных
Трек  7  нет в базе данных
Трек  8  нет в базе данных
Трек  9  нет в базе данных
Трек 10  нет в базе данных

Ни одного трека нет в базе AccurateRip

Конец отчёта
Код:

DON'T MODIFY THIS FILE

-----------------------

PERFORMER: auCDtect Task Manager, ver. 1.6.0 RC1 build 1.6.0.1
Copyright (c) 2008-2010 y-soft. All rights reserved
http://y-soft.org

ANALYZER: auCDtect: CD records authenticity detector, version 0.8.2
Copyright (c) 2004 Oleg Berngardt. All rights reserved.
Copyright (c) 2004 Alexander Djourik. All rights reserved.

FILE: Витёк Рыбин - Поговорим о любви, Мадемуазель.flac
  Size: 251463428 Hash: 2D1DF6E4DAF4FFBB4CBD9810EC38BDF0 Accuracy: -m0
  Conclusion: CDDA 100%
  Signature: 96F1235E00BEAD78F80292B8D1C340C68108C487
Страна-производитель диска: Sweden
Год издания диска: 1998
Издатель (лейбл): СОЮЗ
Номер по каталогу: SZCD 0887-98
Продолжительность: 00:42:01
Треклист:

01. Воздушный змей
02. Русский ресторан
03. Считалка
04. Бандито
05. Золотая середина
06. Служебно-розыскная
07. Перья от павлина
08. Подойди-поспеши
09. Два дня
10. ЧИ-ЧИ-ГА
11. Позови меня
12. Страна Лимония (remix)
Код:

Exact Audio Copy V0.99 prebeta 5 from 4. May 2009

Отчёт EAC об извлечении, выполненном 20. марта 2010, 21:31

Дюна / Танцор диско

Дисковод: PIONEER DVD-RW  DVR-212   Adapter: 7  ID: 0

Режим чтения                 : Достоверность
Использование точного потока : Да
Отключение кэша аудио        : Да
Использование указателей C2  : Нет

Коррекция смещения при чтении                     : 48
Способность читать области Lead-in и Lead-out     : Нет
Заполнение пропущенных сэмплов тишиной            : Да
Удаление блоков с тишиной в начале и конце        : Нет
При вычислениях CRC использовались нулевые сэмплы : Да
Интерфейс                                         : Установленный внешний ASPI-интерфейс

Выходной формат : Внутренние WAV-операции
Формат сэмплов  : 44.100 Гц; 16 бит; стерео

TOC извлечённого CD

     Трек |   Старт  | Длительность | Начальный сектор | Конечный сектор
    ---------------------------------------------------------------------
       1  |  0:00.10 |    3:03.37   |          10      |      13771
       2  |  3:03.47 |    3:36.35   |       13772      |      30006
       3  |  6:40.07 |    3:10.18   |       30007      |      44274
       4  |  9:50.25 |    3:36.47   |       44275      |      60521
       5  | 13:26.72 |    3:20.35   |       60522      |      75556
       6  | 16:47.32 |    3:37.13   |       75557      |      91844
       7  | 20:24.45 |    3:15.47   |       91845      |     106516
       8  | 23:40.17 |    3:26.45   |      106517      |     122011
       9  | 27:06.62 |    3:16.28   |      122012      |     136739
      10  | 30:23.15 |    3:12.10   |      136740      |     151149
      11  | 33:35.25 |    3:16.42   |      151150      |     165891
      12  | 36:51.67 |    5:08.58   |      165892      |     189049

Характеристики диапазона извлечения и сообщения об ошибках

Выбранный диапазон

     Имя файла B:\MP 3\Дюна (FLAC)\1998 Танцор диско\Дюна - Танцор диско.wav

     Пиковый уровень 97.7 %
     Качество диапазона 100.0 %
     CRC теста 4DCE4A92
     CRC копии 4DCE4A92
     Копирование... OK

Ошибок не произошло

AccurateRip: сводка

Трек  1  нет в базе данных
Трек  2  нет в базе данных
Трек  3  нет в базе данных
Трек  4  нет в базе данных
Трек  5  нет в базе данных
Трек  6  нет в базе данных
Трек  7  нет в базе данных
Трек  8  нет в базе данных
Трек  9  нет в базе данных
Трек 10  нет в базе данных
Трек 11  нет в базе данных
Трек 12  нет в базе данных

Ни одного трека нет в базе AccurateRip

Конец отчёта
Код:

DON'T MODIFY THIS FILE

-----------------------

PERFORMER: auCDtect Task Manager, ver. 1.6.0 RC1 build 1.6.0.1
Copyright (c) 2008-2010 y-soft. All rights reserved
http://y-soft.org

ANALYZER: auCDtect: CD records authenticity detector, version 0.8.2
Copyright (c) 2004 Oleg Berngardt. All rights reserved.
Copyright (c) 2004 Alexander Djourik. All rights reserved.

FILE: Дюна - Танцор диско.flac
  Size: 313560608 Hash: 261157555C5ECFB228721013605577E1 Accuracy: -m0
  Conclusion: CDDA 100%
  Signature: B9913CD02C8723E1914572DCFA99DC63E1EFF8E7
Страна-производитель диска: Россия
Год издания диска: 1999
Издатель (лейбл): ОРТ Рекордс
Номер по каталогу: ОРТ CD - 0058-99
Продолжительность: 00:36:14
Треклист:

01 Караганда
02 Чай, банан и сайра
03 Ны-ны-ны
04 Бутылочка
05 А у них в Америке
06 Мы достойное звено...
07 Браток
08 Поезд пригородной
09 Рога
10 Лето
11 Бутылочка (римейк)
Код:

Exact Audio Copy V0.99 prebeta 5 from 4. May 2009

Отчёт EAC об извлечении, выполненном 1. июня 2010, 2:41

Дюна / Караганда

Дисковод: PIONEER DVD-RW  DVR-212   Adapter: 8  ID: 0

Режим чтения                 : Достоверность
Использование точного потока : Да
Отключение кэша аудио        : Да
Использование указателей C2  : Нет

Коррекция смещения при чтении                     : 48
Способность читать области Lead-in и Lead-out     : Нет
Заполнение пропущенных сэмплов тишиной            : Да
Удаление блоков с тишиной в начале и конце        : Нет
При вычислениях CRC использовались нулевые сэмплы : Да
Интерфейс                                         : Установленный внешний ASPI-интерфейс

Выходной формат : Внутренние WAV-операции
Формат сэмплов  : 44.100 Гц; 16 бит; стерео

TOC извлечённого CD

     Трек |   Старт  | Длительность | Начальный сектор | Конечный сектор
    ---------------------------------------------------------------------
       1  |  0:00.30 |    3:06.17   |          30      |      13996
       2  |  3:06.47 |    3:08.28   |       13997      |      28124
       3  |  6:15.00 |    3:23.02   |       28125      |      43351
       4  |  9:38.02 |    3:03.03   |       43352      |      57079
       5  | 12:41.05 |    2:44.70   |       57080      |      69449
       6  | 15:26.00 |    3:20.45   |       69450      |      84494
       7  | 18:46.45 |    3:55.57   |       84495      |     102176
       8  | 22:42.27 |    3:40.20   |      102177      |     118696
       9  | 26:22.47 |    3:12.23   |      118697      |     133119
      10  | 29:34.70 |    3:39.05   |      133120      |     149549
      11  | 33:14.00 |    3:00.37   |      149550      |     163086

Характеристики диапазона извлечения и сообщения об ошибках

Выбранный диапазон

     Имя файла B:\MP 3\Дюна (FLAC)\1999 Караганда\Дюна - Караганда.wav

     Пиковый уровень 97.4 %
     Качество диапазона 99.9 %
     CRC теста 91B44984
     CRC копии 91B44984
     Копирование... OK

Ошибок не произошло

AccurateRip: сводка

Трек  1  нет в базе данных
Трек  2  нет в базе данных
Трек  3  нет в базе данных
Трек  4  нет в базе данных
Трек  5  нет в базе данных
Трек  6  нет в базе данных
Трек  7  нет в базе данных
Трек  8  нет в базе данных
Трек  9  нет в базе данных
Трек 10  нет в базе данных
Трек 11  нет в базе данных

Ни одного трека нет в базе AccurateRip

Конец отчёта
Код:

DON'T MODIFY THIS FILE

-----------------------

PERFORMER: auCDtect Task Manager, ver. 1.6.0 RC1 build 1.6.0.1
Copyright (c) 2008-2010 y-soft. All rights reserved
http://y-soft.org

ANALYZER: auCDtect: CD records authenticity detector, version 0.8.2
Copyright (c) 2004 Oleg Berngardt. All rights reserved.
Copyright (c) 2004 Alexander Djourik. All rights reserved.

FILE: Дюна - Караганда.flac
  Size: 254017862 Hash: DB679B3D678784569A8EEFB507485000 Accuracy: -m0
  Conclusion: CDDA 100%
  Signature: 09134798258B3BC050CD652F6B9E9F5E46DADC1C
Страна-производитель диска: Россия
Год издания диска: 1999
Издатель (лейбл): СОЮЗ
Номер по каталогу: SZCD 1139-98
Продолжительность: 00:36:28
Треклист:

01 Синяя река
02 Южный пляж
03 Позволь мне выпить за тебя
04 Шофера
05 Это приказ
06 Тополя
07 Жиганская рапсодия
08 Сердце
09 Круг друзей
10 Шашки наголо
11 А я иду, курю

Внимание! В другом качестве диск не издавался. Виктор Рыбин разыскивает утерянные оригинальные записи.
Код:

Exact Audio Copy V0.99 prebeta 5 from 4. May 2009

Отчёт EAC об извлечении, выполненном 1. июня 2010, 2:22

Виктор Рыбин / Альбом для жены

Дисковод: PIONEER DVD-RW  DVR-212   Adapter: 8  ID: 0

Режим чтения                 : Достоверность
Использование точного потока : Да
Отключение кэша аудио        : Да
Использование указателей C2  : Нет

Коррекция смещения при чтении                     : 48
Способность читать области Lead-in и Lead-out     : Нет
Заполнение пропущенных сэмплов тишиной            : Да
Удаление блоков с тишиной в начале и конце        : Нет
При вычислениях CRC использовались нулевые сэмплы : Да
Интерфейс                                         : Установленный внешний ASPI-интерфейс

Выходной формат : Внутренние WAV-операции
Формат сэмплов  : 44.100 Гц; 16 бит; стерео

TOC извлечённого CD

     Трек |   Старт  | Длительность | Начальный сектор | Конечный сектор
    ---------------------------------------------------------------------
       1  |  0:00.10 |    3:43.43   |          10      |      16777
       2  |  3:43.53 |    3:47.06   |       16778      |      33808
       3  |  7:30.59 |    3:12.66   |       33809      |      48274
       4  | 10:43.50 |    3:20.37   |       48275      |      63311
       5  | 14:04.12 |    2:47.34   |       63312      |      75870
       6  | 16:51.46 |    3:39.35   |       75871      |      92330
       7  | 20:31.06 |    3:08.04   |       92331      |     106434
       8  | 23:39.10 |    3:06.38   |      106435      |     120422
       9  | 26:45.48 |    3:18.26   |      120423      |     135298
      10  | 30:03.74 |    3:01.66   |      135299      |     148939
      11  | 33:05.65 |    3:22.36   |      148940      |     164125

Характеристики диапазона извлечения и сообщения об ошибках

Выбранный диапазон

     Имя файла B:\MP 3\Дюна (FLAC)\1999 Виктор Рыбин - Альбом для жены\Виктор Рыбин - Альбом для жены.wav

     Пиковый уровень 99.9 %
     Качество диапазона 100.0 %
     CRC теста 09C1BCCD
     CRC копии 09C1BCCD
     Копирование... OK

Ошибок не произошло

AccurateRip: сводка

Трек  1  нет в базе данных
Трек  2  нет в базе данных
Трек  3  нет в базе данных
Трек  4  нет в базе данных
Трек  5  нет в базе данных
Трек  6  нет в базе данных
Трек  7  нет в базе данных
Трек  8  нет в базе данных
Трек  9  нет в базе данных
Трек 10  нет в базе данных
Трек 11  нет в базе данных

Ни одного трека нет в базе AccurateRip

Конец отчёта
Код:

DON'T MODIFY THIS FILE

-----------------------

PERFORMER: auCDtect Task Manager, ver. 1.6.0 RC1 build 1.6.0.1
Copyright (c) 2008-2010 y-soft. All rights reserved
http://y-soft.org

ANALYZER: auCDtect: CD records authenticity detector, version 0.8.2
Copyright (c) 2004 Oleg Berngardt. All rights reserved.
Copyright (c) 2004 Alexander Djourik. All rights reserved.

FILE: Виктор Рыбин - Альбом для жены.flac
  Size: 250696533 Hash: 70CD69BF435ACD19D9B12754210B6A85 Accuracy: -m0
  Conclusion: CDDA 62%
  Signature: A6F8B893A517E9DDEF202A77032898C6615C498B
Страна-производитель диска: Россия
Год издания диска: 2000
Издатель (лейбл): Мистерия
Номер по каталогу: JRC 00281-2
Продолжительность: 01:05:12
Треклист:

01 Волшебный ливень
02 Корефана
03 Воздушный змей
04 Страна Лимония
05 Фонарики
06 Про Васю
07 Привет с Большого Бодуна
08 Костюмчик
09 Октябрятская - партизанская
10 Ежовая - лажовая
11 Белые гуси
12 Караганда
13 Чи-Чи-Га
14 Лим-пом-по
15 Гороскоп
16 Обжора (Шишки-орешки)
17 Праздничная (Анашик)
18 Борька - бабник
19 Мечта (Море пива)
20 Коммунальная квартира

Внимание! В другом качестве диск не издавался.
Код:

Exact Audio Copy V0.99 prebeta 5 from 4. May 2009

EAC extraction logfile from 21. July 2010, 4:38

Дюна / Тринадцатый

Used drive  : PIONEER DVD-RW  DVR-212   Adapter: 8  ID: 0

Read mode               : Secure
Utilize accurate stream : Yes
Defeat audio cache      : Yes
Make use of C2 pointers : No

Read offset correction                      : 48
Overread into Lead-In and Lead-Out          : No
Fill up missing offset samples with silence : Yes
Delete leading and trailing silent blocks   : No
Null samples used in CRC calculations       : Yes
Used interface                              : Installed external ASPI interface

Used output format : Internal WAV Routines
Sample format      : 44.100 Hz; 16 Bit; Stereo

TOC of the extracted CD

     Track |   Start  |  Length  | Start sector | End sector
    ---------------------------------------------------------
        1  |  0:00.00 |  3:26.02 |         0    |    15451
        2  |  3:26.02 |  3:31.09 |     15452    |    31285
        3  |  6:57.11 |  3:02.39 |     31286    |    44974
        4  |  9:59.50 |  3:35.52 |     44975    |    61151
        5  | 13:35.27 |  3:18.35 |     61152    |    76036
        6  | 16:53.62 |  3:28.10 |     76037    |    91646
        7  | 20:21.72 |  2:24.05 |     91647    |   102451
        8  | 22:46.02 |  3:14.38 |    102452    |   117039
        9  | 26:00.40 |  3:12.03 |    117040    |   131442
       10  | 29:12.43 |  3:43.53 |    131443    |   148220
       11  | 32:56.21 |  3:34.24 |    148221    |   164294
       12  | 36:30.45 |  3:08.08 |    164295    |   178402
       13  | 39:38.53 |  3:12.02 |    178403    |   192804
       14  | 42:50.55 |  3:15.43 |    192805    |   207472
       15  | 46:06.23 |  3:43.64 |    207473    |   224261
       16  | 49:50.12 |  3:18.01 |    224262    |   239112
       17  | 53:08.13 |  2:40.57 |    239113    |   251169
       18  | 55:48.70 |  2:55.10 |    251170    |   264304
       19  | 58:44.05 |  3:29.04 |    264305    |   279983
       20  | 62:13.09 |  2:58.52 |    279984    |   293385

Range status and errors

Selected range

     Filename B:\MP 3\Дюна (FLAC)\2000 Тринадцатый\Дюна - Тринадцатый.wav

     Peak level 99.7 %
     Range quality 100.0 %
     Test CRC 5E444D67
     Copy CRC 5E444D67
     Copy OK

No errors occurred

AccurateRip summary

Track  1  not present in database
Track  2  not present in database
Track  3  not present in database
Track  4  not present in database
Track  5  not present in database
Track  6  not present in database
Track  7  not present in database
Track  8  not present in database
Track  9  not present in database
Track 10  not present in database
Track 11  not present in database
Track 12  not present in database
Track 13  not present in database
Track 14  not present in database
Track 15  not present in database
Track 16  not present in database
Track 17  not present in database
Track 18  not present in database
Track 19  not present in database
Track 20  not present in database

None of the tracks are present in the AccurateRip database

End of status report
Код:

DON'T MODIFY THIS FILE

-----------------------

PERFORMER: auCDtect Task Manager, ver. 1.6.0 RC1 build 1.6.0.1
Copyright (c) 2008-2010 y-soft. All rights reserved
http://y-soft.org

ANALYZER: auCDtect: CD records authenticity detector, version 0.8.2
Copyright (c) 2004 Oleg Berngardt. All rights reserved.
Copyright (c) 2004 Alexander Djourik. All rights reserved.

FILE: Дюна - Тринадцатый.flac
  Size: 399073633 Hash: 89A4B6C4325E319F89F7A7041704960A Accuracy: -m0
  Conclusion: MPEG 95%
  Signature: C0DC028CA446726B3351CA457C502169F85AB20F
Страна-производитель диска: Россия
Год издания диска: 2001
Издатель (лейбл): NOX Music
Номер по каталогу: Nox.048-2
Продолжительность: 00:52:18
Треклист:

01 Дребедень
02 Волшебный ливень
03 Сила моя сила
04 Поле чудес
05 Нарисованный мир
06 Заплати налоги
07 Балтика
08 Кирпичная дорога
09 Солнечный ветер
10 Аревидерче жареный хек
11 Когда родился Пушкин
12 Самурай
13 Дребедень (remix)
14 Дребедень (club remix)
Код:

Exact Audio Copy V0.99 prebeta 5 from 4. May 2009

Отчёт EAC об извлечении, выполненном 31. мая 2010, 23:45

Дюна / Дребедень

Дисковод: PIONEER DVD-RW  DVR-212   Adapter: 8  ID: 0

Режим чтения                 : Достоверность
Использование точного потока : Да
Отключение кэша аудио        : Да
Использование указателей C2  : Нет

Коррекция смещения при чтении                     : 48
Способность читать области Lead-in и Lead-out     : Нет
Заполнение пропущенных сэмплов тишиной            : Да
Удаление блоков с тишиной в начале и конце        : Нет
При вычислениях CRC использовались нулевые сэмплы : Да
Интерфейс                                         : Установленный внешний ASPI-интерфейс

Выходной формат : Внутренние WAV-операции
Формат сэмплов  : 44.100 Гц; 16 бит; стерео

TOC извлечённого CD

     Трек |   Старт  | Длительность | Начальный сектор | Конечный сектор
    ---------------------------------------------------------------------
       1  |  0:00.00 |    3:43.25   |           0      |      16749
       2  |  3:43.25 |    3:26.10   |       16750      |      32209
       3  |  7:09.35 |    3:27.15   |       32210      |      47749
       4  | 10:36.50 |    4:17.13   |       47750      |      67037
       5  | 14:53.63 |    4:07.53   |       67038      |      85615
       6  | 19:01.41 |    3:37.45   |       85616      |     101935
       7  | 22:39.11 |    2:18.50   |      101936      |     112335
       8  | 24:57.61 |    3:44.17   |      112336      |     129152
       9  | 28:42.03 |    4:18.74   |      129153      |     148576
      10  | 33:01.02 |    3:31.17   |      148577      |     164418
      11  | 36:32.19 |    4:00.73   |      164419      |     182491
      12  | 40:33.17 |    4:15.24   |      182492      |     201640
      13  | 44:48.41 |    3:38.56   |      201641      |     218046
      14  | 48:27.22 |    3:50.24   |      218047      |     235320
      15  | 54:49.46 |    4:31.37   |      246721      |     267082

Характеристики диапазона извлечения и сообщения об ошибках

Выбранный диапазон

     Имя файла B:\MP 3\Дюна (FLAC)\2001 Дребедень\Дюна - Дребедень.wav

     Пиковый уровень 98.0 %
     Качество диапазона 100.0 %
     CRC теста A1ADA4AE
     CRC копии A1ADA4AE
     Копирование... OK

Ошибок не произошло

AccurateRip: сводка

Трек  1  нет в базе данных
Трек  2  нет в базе данных
Трек  3  нет в базе данных
Трек  4  нет в базе данных
Трек  5  нет в базе данных
Трек  6  нет в базе данных
Трек  7  нет в базе данных
Трек  8  нет в базе данных
Трек  9  нет в базе данных
Трек 10  нет в базе данных
Трек 11  нет в базе данных
Трек 12  нет в базе данных
Трек 13  нет в базе данных
Трек 14  нет в базе данных

Ни одного трека нет в базе AccurateRip

Конец отчёта
Код:

DON'T MODIFY THIS FILE

-----------------------

PERFORMER: auCDtect Task Manager, ver. 1.6.0 RC1 build 1.6.0.1
Copyright (c) 2008-2010 y-soft. All rights reserved
http://y-soft.org

ANALYZER: auCDtect: CD records authenticity detector, version 0.8.2
Copyright (c) 2004 Oleg Berngardt. All rights reserved.
Copyright (c) 2004 Alexander Djourik. All rights reserved.

FILE: Дюна - Дребедень.flac
  Size: 420260052 Hash: F9287FB8BB81DD13C6D07449E1583238 Accuracy: -m0
  Conclusion: CDDA 100%
  Signature: 11290EABD68EF4F0937420ABA1BC1FFF85C8C10C
Страна-производитель диска: Россия
Год издания диска: 2003
Издатель (лейбл): ООО «Звук»
Номер по каталогу: D1895
Продолжительность: 00:36:48
Треклист:

01 Песня доброго человека
02 На пятом этаже
03 Упало мыло в борщ
04 Наверно, старость
05 Неслабое звено
06 Каппучино
07 Космонавты всегда мечтатели
08 Новый год в бутылке
09 Дарья Сергеевна
10 ЦПКО
11 Губит людей не пиво
Код:

Exact Audio Copy V0.99 prebeta 5 from 4. May 2009

Отчёт EAC об извлечении, выполненном 1. июня 2010, 0:21

Дюна / Неслабое звено

Дисковод: PIONEER DVD-RW  DVR-212   Adapter: 8  ID: 0

Режим чтения                 : Достоверность
Использование точного потока : Да
Отключение кэша аудио        : Да
Использование указателей C2  : Нет

Коррекция смещения при чтении                     : 48
Способность читать области Lead-in и Lead-out     : Нет
Заполнение пропущенных сэмплов тишиной            : Да
Удаление блоков с тишиной в начале и конце        : Нет
При вычислениях CRC использовались нулевые сэмплы : Да
Интерфейс                                         : Установленный внешний ASPI-интерфейс

Выходной формат : Внутренние WAV-операции
Формат сэмплов  : 44.100 Гц; 16 бит; стерео

TOC извлечённого CD

     Трек |   Старт  | Длительность | Начальный сектор | Конечный сектор
    ---------------------------------------------------------------------
       1  |  0:00.00 |    2:56.22   |           0      |      13221
       2  |  2:56.22 |    3:35.32   |       13222      |      29378
       3  |  6:31.54 |    3:19.21   |       29379      |      44324
       4  |  9:51.00 |    3:40.34   |       44325      |      60858
       5  | 13:31.34 |    3:49.15   |       60859      |      78048
       6  | 17:20.49 |    3:57.51   |       78049      |      95874
       7  | 21:18.25 |    2:46.27   |       95875      |     108351
       8  | 24:04.52 |    2:50.30   |      108352      |     121131
       9  | 26:55.07 |    3:37.27   |      121132      |     137433
      10  | 30:32.34 |    3:00.60   |      137434      |     150993
      11  | 33:33.19 |    3:15.06   |      150994      |     165624

Характеристики диапазона извлечения и сообщения об ошибках

Выбранный диапазон

     Имя файла B:\MP 3\Дюна (FLAC)\2003 Неслабое звено\Дюна - Неслабое звено.wav

     Пиковый уровень 96.6 %
     Качество диапазона 100.0 %
     CRC теста 14EE506F
     CRC копии 14EE506F
     Копирование... OK

Ошибок не произошло

AccurateRip: сводка

Трек  1  нет в базе данных
Трек  2  нет в базе данных
Трек  3  нет в базе данных
Трек  4  нет в базе данных
Трек  5  нет в базе данных
Трек  6  нет в базе данных
Трек  7  нет в базе данных
Трек  8  нет в базе данных
Трек  9  нет в базе данных
Трек 10  нет в базе данных
Трек 11  нет в базе данных

Ни одного трека нет в базе AccurateRip

Конец отчёта
Код:

DON'T MODIFY THIS FILE

-----------------------

PERFORMER: auCDtect Task Manager, ver. 1.6.0 RC1 build 1.6.0.1
Copyright (c) 2008-2010 y-soft. All rights reserved
http://y-soft.org

ANALYZER: auCDtect: CD records authenticity detector, version 0.8.2
Copyright (c) 2004 Oleg Berngardt. All rights reserved.
Copyright (c) 2004 Alexander Djourik. All rights reserved.

FILE: Дюна - Неслабое звено.flac
  Size: 281543287 Hash: 1CD5DA4F4746C99E71159D09A7995DC1 Accuracy: -m0
  Conclusion: CDDA 100%
  Signature: B9A88361FA0FCFB3539833AA8B36729181B7AEA4
Страна-производитель диска: Россия
Год издания диска: 2009
Издатель (лейбл): Мистерия
Номер по каталогу: М2-0020
Продолжительность: 00:50:45
Треклист:

01. Наши лучшие годы
02. Фея синих глаз
03. Макаронэ
04. Томас
05. Рыбалка
06. Что было, то было
07. Собарик
08. Новость на FM
09. Закон природы
10. Лист кленовый
11. Не колбасит
12. ДМБ
13. Моя подруга
14. Учитель танцев
Код:

Exact Audio Copy V0.99 prebeta 5 from 4. May 2009

Отчёт EAC об извлечении, выполненном 17. марта 2010, 22:02

Дюна / Закон природы

Дисковод: PIONEER DVD-RW  DVR-212   Adapter: 7  ID: 0

Режим чтения                 : Достоверность
Использование точного потока : Да
Отключение кэша аудио        : Да
Использование указателей C2  : Нет

Коррекция смещения при чтении                     : 48
Способность читать области Lead-in и Lead-out     : Нет
Заполнение пропущенных сэмплов тишиной            : Да
Удаление блоков с тишиной в начале и конце        : Нет
При вычислениях CRC использовались нулевые сэмплы : Да
Интерфейс                                         : Установленный внешний ASPI-интерфейс

Выходной формат : Внутренние WAV-операции
Формат сэмплов  : 44.100 Гц; 16 бит; стерео

TOC извлечённого CD

     Трек |   Старт  | Длительность | Начальный сектор | Конечный сектор
    ---------------------------------------------------------------------
       1  |  0:00.00 |    3:45.52   |           0      |      16926
       2  |  3:45.52 |    4:07.03   |       16927      |      35454
       3  |  7:52.55 |    3:37.70   |       35455      |      51799
       4  | 11:30.50 |    3:34.08   |       51800      |      67857
       5  | 15:04.58 |    3:12.57   |       67858      |      82314
       6  | 18:17.40 |    3:23.62   |       82315      |      97601
       7  | 21:41.27 |    3:38.14   |       97602      |     113965
       8  | 25:19.41 |    4:06.59   |      113966      |     132474
       9  | 29:26.25 |    3:11.39   |      132475      |     146838
      10  | 32:37.64 |    3:33.09   |      146839      |     162822
      11  | 36:10.73 |    3:23.38   |      162823      |     178085
      12  | 39:34.36 |    3:04.47   |      178086      |     191932
      13  | 42:39.08 |    4:28.25   |      191933      |     212057
      14  | 47:07.33 |    3:37.18   |      212058      |     228350

Характеристики диапазона извлечения и сообщения об ошибках

Выбранный диапазон

     Имя файла B:\MP 3\Дюна (FLAC)\2009 Закон природы\Дюна - Закон природы.wav

     Пиковый уровень 97.7 %
     Качество диапазона 99.9 %
     CRC теста B622CA37
     CRC копии B622CA37
     Копирование... OK

Ошибок не произошло

AccurateRip: сводка

Трек  1  нет в базе данных
Трек  2  нет в базе данных
Трек  3  нет в базе данных
Трек  4  нет в базе данных
Трек  5  нет в базе данных
Трек  6  нет в базе данных
Трек  7  нет в базе данных
Трек  8  нет в базе данных
Трек  9  нет в базе данных
Трек 10  нет в базе данных
Трек 11  нет в базе данных
Трек 12  нет в базе данных
Трек 13  нет в базе данных
Трек 14  нет в базе данных

Ни одного трека нет в базе AccurateRip

Конец отчёта
Код:

DON'T MODIFY THIS FILE

-----------------------

PERFORMER: auCDtect Task Manager, ver. 1.6.0 RC1 build 1.6.0.1
Copyright (c) 2008-2010 y-soft. All rights reserved
http://y-soft.org

ANALYZER: auCDtect: CD records authenticity detector, version 0.8.2
Copyright (c) 2004 Oleg Berngardt. All rights reserved.
Copyright (c) 2004 Alexander Djourik. All rights reserved.

FILE: Дюна - Закон природы.flac
  Size: 373198796 Hash: B8898EE88D0D9DD66B014225A8BBFA9D Accuracy: -m0
  Conclusion: CDDA 100%
  Signature: 8E2585F7AB6460FC941914CAA3F32EBCFF9E26DB
Страна-производитель диска: Россия
Год издания диска: 2009
Издатель (лейбл): Мистерия
Номер по каталогу: М2-0017
Продолжительность: 00:50:28
Треклист:

01 Дело к ночи
02 Заходи на чай
03 Милый мой ботаник
04 Бабушка мне говорила (Колыбельная)
05 Я обожаю твои цветы
06 Пара ты мне
07 Ни слова о любви
08 Дребедень
09 Ты сказала, поверь
10 Старый сарай
11 Рога
12 Оплати - Обладай
13 Поплавок
14 ЦПК и О
Код:

Exact Audio Copy V0.99 prebeta 5 from 4. May 2009

Отчёт EAC об извлечении, выполненном 13. мая 2010, 0:45

Рыб'сеН / Дело к ночи

Дисковод: PIONEER DVD-RW  DVR-212   Adapter: 8  ID: 0

Режим чтения                 : Достоверность
Использование точного потока : Да
Отключение кэша аудио        : Да
Использование указателей C2  : Нет

Коррекция смещения при чтении                     : 48
Способность читать области Lead-in и Lead-out     : Нет
Заполнение пропущенных сэмплов тишиной            : Да
Удаление блоков с тишиной в начале и конце        : Нет
При вычислениях CRC использовались нулевые сэмплы : Да
Интерфейс                                         : Установленный внешний ASPI-интерфейс

Выходной формат : Внутренние WAV-операции
Формат сэмплов  : 44.100 Гц; 16 бит; стерео

TOC извлечённого CD

     Трек |   Старт  | Длительность | Начальный сектор | Конечный сектор
    ---------------------------------------------------------------------
       1  |  0:00.00 |    3:34.15   |           0      |      16064
       2  |  3:34.15 |    3:25.32   |       16065      |      31471
       3  |  6:59.47 |    3:35.32   |       31472      |      47628
       4  | 10:35.04 |    3:50.59   |       47629      |      64937
       5  | 14:25.63 |    3:42.27   |       64938      |      81614
       6  | 18:08.15 |    3:23.55   |       81615      |      96894
       7  | 21:31.70 |    4:16.00   |       96895      |     116094
       8  | 25:47.70 |    3:45.00   |      116095      |     132969
       9  | 29:32.70 |    4:58.00   |      132970      |     155319
      10  | 34:30.70 |    3:34.00   |      155320      |     171369
      11  | 38:04.70 |    3:28.68   |      171370      |     187037
      12  | 41:33.63 |    2:37.10   |      187038      |     198822
      13  | 44:10.73 |    3:13.64   |      198823      |     213361
      14  | 47:24.62 |    3:03.28   |      213362      |     227114

Характеристики диапазона извлечения и сообщения об ошибках

Выбранный диапазон

     Имя файла B:\MP 3\Дюна (FLAC)\2009 Рыб'сеН - Дело к ночи\Рыб'сеН - Дело к ночи.wav

     Пиковый уровень 97.7 %
     Качество диапазона 100.0 %
     CRC теста CAE24969
     CRC копии CAE24969
     Копирование... OK

Ошибок не произошло

AccurateRip: сводка

Трек  1  нет в базе данных
Трек  2  нет в базе данных
Трек  3  нет в базе данных
Трек  4  нет в базе данных
Трек  5  нет в базе данных
Трек  6  нет в базе данных
Трек  7  нет в базе данных
Трек  8  нет в базе данных
Трек  9  нет в базе данных
Трек 10  нет в базе данных
Трек 11  нет в базе данных
Трек 12  нет в базе данных
Трек 13  нет в базе данных
Трек 14  нет в базе данных

Ни одного трека нет в базе AccurateRip

Конец отчёта
Код:

DON'T MODIFY THIS FILE

-----------------------

PERFORMER: auCDtect Task Manager, ver. 1.6.0 RC1 build 1.6.0.1
Copyright (c) 2008-2010 y-soft. All rights reserved
http://y-soft.org

ANALYZER: auCDtect: CD records authenticity detector, version 0.8.2
Copyright (c) 2004 Oleg Berngardt. All rights reserved.
Copyright (c) 2004 Alexander Djourik. All rights reserved.

FILE: Рыб'сеН - Дело к ночи.flac
  Size: 369585915 Hash: 1ACEB62E7B08715DA46D61480CA8DA89 Accuracy: -m0
  Conclusion: CDDA 100%
  Signature: E0CFF33C9DD87D24761B7A262C0805673513C2AE
Страна-производитель диска: Россия
Год издания диска: 2010
Издатель (лейбл): СОЮЗ
Номер по каталогу: SZCD 6764-10
Продолжительность: 00:56:21
Треклист:

01 Страна Лимония
02 Коммунальная квартира
03 Привет с большого бодуна
04 Наш Борька-бабник
05 Ежовая-Лажовая
06 Партизанская
07 Корефана
08 Лимпопо
09 Море пива
10 Воздушный змей
11 Ны-ны-ны
12 Гороскоп
13 Фонарики
14 ЦПКО
15 Поговорим о любви, Мадмуазель
16 Дребедень
17 Заплати налоги
Код:

Exact Audio Copy V0.99 prebeta 5 from 4. May 2009

EAC extraction logfile from 4. November 2010, 19:04

Дюна / The Best. Союз Gold

Used drive  : PIONEER DVD-RW  DVR-212   Adapter: 8  ID: 0

Read mode               : Secure
Utilize accurate stream : Yes
Defeat audio cache      : Yes
Make use of C2 pointers : No

Read offset correction                      : 48
Overread into Lead-In and Lead-Out          : No
Fill up missing offset samples with silence : Yes
Delete leading and trailing silent blocks   : No
Null samples used in CRC calculations       : Yes
Used interface                              : Installed external ASPI interface

Used output format : Internal WAV Routines
Sample format      : 44.100 Hz; 16 Bit; Stereo

TOC of the extracted CD

     Track |   Start  |  Length  | Start sector | End sector
    ---------------------------------------------------------
        1  |  0:00.00 |  3:36.05 |         0    |    16204
        2  |  3:36.05 |  3:02.62 |     16205    |    29916
        3  |  6:38.67 |  2:24.05 |     29917    |    40721
        4  |  9:02.72 |  2:55.10 |     40722    |    53856
        5  | 11:58.07 |  3:38.00 |     53857    |    70206
        6  | 15:36.07 |  3:13.37 |     70207    |    84718
        7  | 18:49.44 |  3:32.10 |     84719    |   100628
        8  | 22:21.54 |  3:18.05 |    100629    |   115483
        9  | 25:39.59 |  3:30.02 |    115484    |   131235
       10  | 29:09.61 |  3:00.72 |    131236    |   144807
       11  | 32:10.58 |  3:23.02 |    144808    |   160034
       12  | 35:33.60 |  3:43.70 |    160035    |   176829
       13  | 39:17.55 |  3:17.58 |    176830    |   191662
       14  | 42:35.38 |  3:03.28 |    191663    |   205415
       15  | 45:38.66 |  3:21.50 |    205416    |   220540
       16  | 49:00.41 |  3:43.25 |    220541    |   237290
       17  | 52:43.66 |  3:37.45 |    237291    |   253610

Range status and errors

Selected range

     Filename J:\MP3\Дюна (FLAC)\2010 The Best. Союз Gold\Дюна - The Best. Союз Gold.wav

     Peak level 98.1 %
     Range quality 100.0 %
     Test CRC 29CA810A
     Copy CRC 29CA810A
     Copy OK

No errors occurred

AccurateRip summary

Track  1  not present in database
Track  2  not present in database
Track  3  not present in database
Track  4  not present in database
Track  5  not present in database
Track  6  not present in database
Track  7  not present in database
Track  8  not present in database
Track  9  not present in database
Track 10  not present in database
Track 11  not present in database
Track 12  not present in database
Track 13  not present in database
Track 14  not present in database
Track 15  not present in database
Track 16  not present in database
Track 17  not present in database

None of the tracks are present in the AccurateRip database

End of status report
Код:

DON'T MODIFY THIS FILE

-----------------------

PERFORMER: auCDtect Task Manager, ver. 1.6.0 RC1 build 1.6.0.1
Copyright (c) 2008-2010 y-soft. All rights reserved
http://y-soft.org

ANALYZER: auCDtect: CD records authenticity detector, version 0.8.2
Copyright (c) 2004 Oleg Berngardt. All rights reserved.
Copyright (c) 2004 Alexander Djourik. All rights reserved.

FILE: Дюна - The Best. Союз Gold.flac
  Size: 416845497 Hash: 5EB4E274931E9301E1D8BB4A3B236B87 Accuracy: -m0
  Conclusion: CDDA 100%
  Signature: 06BE707C01F974619626269619D8D6AC068CF844
Дюна — советская и российская музыкальная группа, образованная в 1987 году.

Ви́ктор Ви́кторович Ры́бин (род. 21 августа 1962, Долгопрудный) — российский музыкант, лидер группы «Дюна».

История

Изначально группа играла рок, но вскоре участники поняли, что это не их направление. Виктор Рыбин предложил сменить стиль группы на поп-фолк. В 1988 году «Дюна» выступает с Московской областной филармонией с поездками по России. В этих поездках родился хит «Страна Лимония», сыгравший немаловажную роль в становлении успеха коллектива.

6 января 1989 популярная программа «Музыкальный лифт» показала инсценированную концертную съёмку со «Страной Лимонией» на всей территории СССР. Почти год «Дюна» не пела ничего, кроме этого шлягера. Лишь в декабре появились песни «Фирма» и «Дай-дай!».

В мае 1990 года «Дюна» выступила на фестивале «Звуковой дорожки» перед полным залом дворца спорта «Олимпийский».

Позже «Страну Лимонию» взяли в программу «Песня года», а государственная фирма «Мелодия» выпустила виниловую пластинку группы, также названную «Страна Лимония» (из 8 песен). В 1991 году добавляются 4 песни (включая новую провокационную «Привет с Большого Бодуна») и переиздают на обычной долгоиграющей грампластинке.

Несколько месяцев спустя выходит альбом «За нами Долгопрудный» с песней «Гороскоп» и лирической «Привет, малыш».

Из «Дюны» ушел Сергей Катин, который женился и уехал во Францию. Рыбин весь следующий год провел в бесконечных концертах и издал свой первый CD «Дюна, Дюночка, ДюнА, Привет с Большого Бодуна», состоящий из старого репертуара.

В 1993 году появился цикл «Витёк» из нескольких произведений — «Женька», «Пулемёт», «Лимпопо». В 1994 появились ещё два диска — «А нам всё равно» с песнями «Борька-бабник» и «Мечта» (другое название «Море пива») и «Детство золотое» с детскими песенками Владимира Шаинского, Юрия Энтина и других.

В 1995 году Сергей Катин вернулся в группу, после чего появилась пластинка «В городе большом», которая содержала хиты «Коммунальная квартира», «Фонарики», «Про Васю».

В 1996 году участвовали в предвыборной агитации в пользу кандидата Ельцина Б. В том же году выпустили альбом «Пошил костюмчик новенький», который студия «Союз» издала в январе 1997 года. 8 марта того же года Рыбин поздравил женщин России своей дебютной сольной работой «Поговорим о любви, мадемуазель».

В 1998 году выходит альбом «Танцор диско» с лирическим хитом «Воздушный змей», ставшим ещё одной из визитных карточек группы.

В 1999 году вышел альбом «Караганда» с хитами «Бутылочка», «Где-где-где, в Караганде» и «Мы — достойное звено». В том же году было положено начало циклу дуэтов Виктора Рыбина и Натальи Сенчуковой. Главный совместный хит — «Милый мой ботаник» (2004).

После 2004 года творческая активность «Дюны» снижается. Причина этого в том, что Виктор Рыбин занялся судоходным бизнесом. С 2008 года музыканты продолжили выпуск новых альбомов. Сначала «Закон природы», затем в 2010 году — «Якутские бананы». Музыкальные критики отмечают, что группа так и не вышла из своего творческого кризиса.
Время раздачи: 24/7 - круглосуточно

Дюна - Якутские бананы (2010) [FLAC|Lossless]<Pop-Rock>


Поглощение/вытеснение
Только с согласия релизера

J_Man
[NNM-Club.ru]_Dyuna (FLAC).torrent
 Торрент: Платиновая раздача  Зарегистрирован
 
Скачать


 Зарегистрирован:   12 Июн 2013 16:41:34
 Размер:   6,22 GB  (
 Рейтинг:   4,5 (Голосов: 41)
 Поблагодарили:   167
 Проверка:   Оформление проверено модератором 12 Июн 2013 19:30:38
Как cкачать  ·  Как раздать  ·  Правильно оформить  ·  Поднять ратио!  

_________________
Исправили раздачу - напишите , указав ссылку на релиз.
Правила и рекомендации по оформлению релизов категории МУЗЫКА [19.02.2017]
154372
Стаж: 8 лет 5 мес.
Сообщений: 6
Ratio: 2,231
Раздал: 3,599 TB
100%
russia.gif
ништяк :выпивают: :респект: СПАСИБО!!!
vip.Boatswain
Стаж: 8 лет 6 мес.
Сообщений: 15
Ratio: 6,131
50%
russia.gif
Ай... СПАСИБО !!! FLAC весЧь... mp3 и рядом не звучало...
ip777
Стаж: 7 лет 7 мес.
Сообщений: 9
Ratio: 96,485
100%
аще супер ;)
hiMik555
Стаж: 7 лет 6 мес.
Сообщений: 7
Ratio: 15,733
100%
респекты!
Blue cat
 
Стаж: 8 лет 11 мес.
Сообщений: 570
Ratio: 146,993
Поблагодарили: 11633
100%
Откуда: Москва
russia.gif
Хорошая группа была,у них такие простые песни)
Artem4564
Стаж: 8 лет
Сообщений: 5
Ratio: 4,945
Поблагодарили: 10
100%
Спасибо.
Показать сообщения:   
Начать новую тему   Ответить на тему    Торрент-трекер NNM-Club -> Pop -> Отечественная поп-музыка (Lossless) Часовой пояс: GMT + 3
Страница 1 из 1