Классический форум-трекер
canvas not supported
Нас вместе: 4 078 982

Тебя никогда здесь не было / You Were Never Really Here (2017) BDRip [H.264/1080p] [EN / EN, RU Sub]


 
 
RSS
Начать новую тему   Ответить на тему    Торрент-трекер NNM-Club -> Зарубежное кино -> Фильмы в оригинале (HD, UHD, UHD-LQ)
Автор Сообщение
batonchik ®
Куратор Видео
RG Releasers
Котоаплоадер 6000+
 
Стаж: 11 лет 7 мес.
Сообщений: 24996
Ratio: 89K
Раздал: 6,4244 PB
Поблагодарили: 1216604
100%
Откуда: из лесу
ussr.gif
Тебя никогда здесь не было / You Were Never Really Here (2017) BDRip [H.264/1080p]

Производство: Великобритания, Франция, США / Why Not Productions, Film4, ...
Жанр: триллер, драма, детектив

Режиссер: Линн Рэмси
Актеры: Хоакин Феникс, Алессандро Нивола, Джон Доумен, Мэдисон Арнольд, Джудит Анна Робертс, Кристиан Рив, Алекс Манетт, Скотт Прайс, Джонатан Вильде, Джейсон Бабински, Фрэнк Пандо, Ли Данхэм, Данте Перейра-Олсон, Джалина Меркадо, Екатерина Самсонов, Джозеф Энтони Херес, Кейт Кастонгуэй

Описание:
У сурового Джо непростая судьба. Он никого не боится, лишь вспышки воспоминаний заставляют его вздрагивать. Безжалостный герой-одиночка, идущий напролом ради спасения слабых. Для Нины, юной дочери сенатора, Джо — единственная надежда. И даже самые изощрённые и жестокие силы не должны помешать ему вызволить её из ада, в который она попала.


Возраст: 18+ (зрителям, достигшим 18 лет. запрещено для детей)
Рейтинг MPAA: R (лицам до 17 лет обязательно присутствие взрослого)

Релиз от:
NNMClub
Продолжительность: 01:29:28
Качество видео: BDRip (batonchik)
Перевод: Отсутствует
Язык озвучки: Английский
Субтитры: Английский, русский

Видео: AVC, 1920x804 (16:9), 8000 kbps, 24.000 fps
Аудио 1: AC-3, 6.0 ch, 640 kbps | English
Аудио 2: DTS, 6.0 ch, 1509 kbps | English
Общее
Полное имя : \You Were Never Really Here.2017.BDRip.1080p.NNMClub.mkv
Формат : Matroska
Версия формата : Version 4 / Version 2
Размер файла : 6,34 Гбайт
Продолжительность : 1 ч. 29 м.
Общий поток : 10,1 Мбит/сек
Название фильма : You Were Never Really Here.2017.BDRip.1080p.NNMClub
Дата кодирования : UTC 2018-04-10 14:47:53
Программа кодирования : mkvmerge v21.0.0 ('Tardigrades Will Inherit The Earth') 64-bit
Библиотека кодирования : libebml v1.3.5 + libmatroska v1.4.8

Видео
Идентификатор : 1
Формат : AVC
Формат/Информация : Advanced Video Codec
Профиль формата : High@L4.1
Настройки формата : CABAC / 4 Ref Frames
Параметр CABAC формата : Да
Параметр RefFrames формата : 4 кадра
Идентификатор кодека : V_MPEG4/ISO/AVC
Продолжительность : 1 ч. 29 м.
Битрейт : 8000 Кбит/сек
Ширина : 1920 пикселей
Высота : 804 пикселя
Соотношение сторон : 2,40:1
Режим частоты кадров : Постоянный
Частота кадров : 24,000 кадра/сек
Цветовое пространство : YUV
Субдискретизация насыщенности : 4:2:0
Битовая глубина : 8 бит
Тип развёртки : Прогрессивная
Бит/(Пиксели*Кадры) : 0.216
Размер потока : 4,99 Гбайт (79%)
Заголовок : You Were Never Really Here.2017.BDRip.1080p.NNMClub
Библиотека кодирования : x264 core 155 r2901 7d0ff22
Настройки программы : cabac=1 / ref=4 / deblock=1:-3:-3 / analyse=0x3:0x113 / me=umh / subme=8 / psy=1 / psy_rd=1.00:0.00 / mixed_ref=1 / me_range=16 / chroma_me=1 / trellis=2 / 8x8dct=1 / cqm=0 / deadzone=21,11 / fast_pskip=0 / chroma_qp_offset=-2 / threads=12 / lookahead_threads=3 / sliced_threads=0 / nr=0 / decimate=1 / interlaced=0 / bluray_compat=0 / constrained_intra=0 / bframes=4 / b_pyramid=2 / b_adapt=2 / b_bias=0 / direct=1 / weightb=1 / open_gop=0 / weightp=2 / keyint=250 / keyint_min=23 / scenecut=40 / intra_refresh=0 / rc_lookahead=40 / rc=2pass / mbtree=1 / bitrate=8000 / ratetol=1.0 / qcomp=0.60 / qpmin=0 / qpmax=69 / qpstep=4 / cplxblur=20.0 / qblur=0.5 / vbv_maxrate=50000 / vbv_bufsize=62500 / nal_hrd=none / filler=0 / ip_ratio=1.40 / aq=1:0.70
Язык : English
Default : Да
Forced : Нет
Цветовой диапазон : Limited
Основные цвета : BT.709
Характеристики трансфера : BT.709
Коэффициенты матрицы : BT.709

Аудио #1
Идентификатор : 2
Формат : AC-3
Формат/Информация : Audio Coding 3
Идентификатор кодека : A_AC3
Продолжительность : 1 ч. 29 м.
Вид битрейта : Постоянный
Битрейт : 640 Кбит/сек
Каналы : 6 каналов
Расположение каналов : Front: L C R, Side: L R, LFE
Частота : 48,0 КГц
Частота кадров : 31,250 кадров/сек (1536 SPF)
Битовая глубина : 16 бит
Метод сжатия : С потерями
Размер потока : 410 Мбайт (6%)
Язык : English
ServiceKind/String : Complete Main
Default : Да
Forced : Нет

Аудио #2
Идентификатор : 3
Формат : DTS
Формат/Информация : Digital Theater Systems
Идентификатор кодека : A_DTS
Продолжительность : 1 ч. 29 м.
Вид битрейта : Постоянный
Битрейт : 1509 Кбит/сек
Каналы : 6 каналов
Расположение каналов : Front: L C R, Side: L R, LFE
Частота : 48,0 КГц
Частота кадров : 93,750 кадра/сек (512 SPF)
Битовая глубина : 24 бит
Метод сжатия : С потерями
Размер потока : 966 Мбайт (15%)
Язык : English
Default : Нет
Forced : Нет

Текст #1
Идентификатор : 4
Формат : UTF-8
Идентификатор кодека : S_TEXT/UTF8
Идентификатор кодека/Информация : UTF-8 Plain Text
Продолжительность : 1 ч. 20 м.
Битрейт : 22 бит/сек
ElementCount : 502
Размер потока : 13,5 Кбайт (0%)
Язык : English
Default : Нет
Forced : Нет

Текст #2
Идентификатор : 5
Формат : UTF-8
Идентификатор кодека : S_TEXT/UTF8
Идентификатор кодека/Информация : UTF-8 Plain Text
Продолжительность : 1 ч. 29 м.
Битрейт : 23 бит/сек
ElementCount : 363
Размер потока : 15,5 Кбайт (0%)
Заголовок : Студия Focs (ненорматив)
Язык : Russian
Default : Да
Forced : Нет

Меню
00:00:00.000 : en:00:00:00.000
00:11:50.292 : en:00:11:50.292
00:22:44.375 : en:00:22:44.375
00:31:55.833 : en:00:31:55.833
00:42:47.375 : en:00:42:47.375
00:53:22.583 : en:00:53:22.583
01:01:47.250 : en:01:01:47.250
01:09:53.625 : en:01:09:53.625
[/code]
Скриншоты:


Все одноименные релизы в Клубе
Время раздачи: 24/7
You Were Never Really Here.2017.BDRip.1080p.NNMClub.mkv.torrent
 Торрент: Платиновая раздача  Зарегистрирован
 
Скачать


Примагнититься
 Зарегистрирован:   10 Апр 2018 18:03:36
 Размер:   6,34 GB  (
 Рейтинг:   4,8 (Голосов: 28)
 Поблагодарили:   118
 Проверка:   Оформление проверено модератором 10 Апр 2018 18:05:01
ПОЖЕРТВОВАТЬ МНЕ НА ЛЕЧЕНИЕ
(поддержка меня и моих релизов)
*******************************
**МОЖНО ЗДЕСЬ!**
*******************************
Как cкачать  ·  Как раздать  ·  Правильно оформить  ·  Поднять ратио!  
batonchik ®
Куратор Видео
RG Releasers
Котоаплоадер 6000+
 
Стаж: 11 лет 7 мес.
Сообщений: 24996
Ratio: 89K
Раздал: 6,4244 PB
Поблагодарили: 1216604
100%
Откуда: из лесу
ussr.gif
batonchik писал(а): Перейти к сообщению
Субтитры: Английский, русский

Русские и английские сабы взяты мной с WEB-DL и подогнаны под рип.
Внимание! Русские сабы с матерком!
Переведено студией Focs. Над переводом работал Виталий Марченко.
maxim0127
Стаж: 7 лет
Сообщений: 59
Ratio: 48,032
Поблагодарили: 4408
100%
pirates.png
Семпла по ссылке нет, переходит на главную файлообменника
 !  Примечание от batonchik:
Сэмпл вообще то для раздела новинок видео, перевода тут нет, так что и сэмпл ни к чему. Оригинал, он и в Африке - оригинал!))
Fazerock
Стаж: 6 лет 10 мес.
Сообщений: 94
Ratio: 5,074
Раздал: 2,493 TB
53.01%
sweden.gif
Ходил сегодня в кино, не очень вкатил, попахивает Джармушом или обычным кинцом для ветви.
Anurabus
Стаж: 1 год 9 мес.
Сообщений: 2
Ratio: 5,335
4.46%
Fazerock писал(а): Перейти к сообщению
Ходил сегодня в кино, не очень вкатил, попахивает Джармушом или обычным кинцом для ветви.


Это было очевидно, если смотреть ее предыдущий фильм.
Показать сообщения:   
Начать новую тему   Ответить на тему    Торрент-трекер NNM-Club -> Зарубежное кино -> Фильмы в оригинале (HD, UHD, UHD-LQ) Часовой пояс: GMT + 3
Страница 1 из 1