Классический форум-трекер
canvas not supported
Нас вместе: 4 077 518

BBC. Происхождение человека / Origins of Us (2011) HDTVRip [H.264/720p] [3 серии из 3]


Страницы:   Пред.  1, 2 
 
RSS
Начать новую тему   Ответить на тему    Торрент-трекер NNM-Club -> Зарубежные TV-бренды -> BBC
Автор Сообщение
Отец Лоренцо ®
Uploader 1000+, Сталкер
Стаж: 6 лет 9 мес.
Сообщений: 4041
Ratio: 7393,141
Раздал: 1,0172 PB
Поблагодарили: 120377
100%
Откуда: Харьков, Украина
BBC. Происхождение человека / Origins of Us (2011) HDTVRip [H.264/720p] [3 серии из 3]
Режиссер / Телекомпания: BBC
Год выпуска: 2011
Жанр: документальный

Описание:
Увлекательное повествование от доктора Элис Робертс, которая расскажет вам удивительную историю человеческого тела, сформированного эволюцией. То, как вы выглядите, думаете и ведете себя есть продукт борьбы за выживание длиной в 6 миллионов лет. Человечество познало тайны атома и побывало на луне. Но как нам удалось стать столь успешными? В этом фильме вы узнаете о тех анатомических изменениях, которые помогли нам и нашим предкам. Всё, начиная от того, как мы ходим и заканчивая формой челюсти (и даже форма большого пальца) тесно связывает нас с борьбой и победами наших прародителей. Однако за многие из этих изменений приходится расплачиваться, и поэтому определенные болезни есть прямое следствие нашего эволюционного развития. Рассказав как про нынешнее строение тела, так и про его строение 6 миллионов лет назад, "Происхождение человека" изменит ваше мнение относительно себя.


Продолжительность: 00:59:00 + 00:58:59 + 00:58:16

Перевод: Профессиональный одноголосый

Видеокодек: MPEG-4 AVC/H.264
Битрейт видео: ~ 3 480 ... 4 108 Кбит/с
Размер кадра: 1280x720
Качество видео: HDTVRip [720p]
Аудио:
1. [русский] MP3, 2 ch, 192 kbps
2. [английский] AC3, 2 ch, 192 kbps
Субтитры: русские, английские
General
Unique ID : 248543464750923845920572162707370588074 (0xBAFBBAE971610762B0F9E031FF0CB7AA)
Complete name : A:\MUSOR\Origins.of.us(3.serii.iz.3).2011.x264.HDTVRip.720p\Origins.of.us.(1.iz.3).Kosti.2011.x264.HDTVRip.720p.mkv
Format : Matroska
Format version : Version 1
File size : 1.75 GiB
Duration : 59mn 0s
Overall bit rate : 4 246 Kbps
Encoded date : UTC 2012-08-03 20:28:10
Writing application : mkvmerge v2.1.0 ('Another Place To Fall') built on Aug 19 2007 13:40:07
Writing library : libebml v0.7.7 + libmatroska v0.8.1

Video
ID : 1
Format : AVC
Format/Info : Advanced Video Codec
Format profile : High@L4.1
Format settings, CABAC : Yes
Format settings, ReFrames : 6 frames
Codec ID : V_MPEG4/ISO/AVC
Duration : 59mn 0s
Bit rate : 3 778 Kbps
Width : 1 280 pixels
Height : 720 pixels
Display aspect ratio : 16:9
Frame rate : 25.000 fps
Color space : YUV
Chroma subsampling : 4:2:0
Bit depth : 8 bits
Scan type : Progressive
Bits/(Pixel*Frame) : 0.164
Stream size : 1.56 GiB (89%)
Writing library : x264 core 118 r2085 8a62835
Encoding settings : cabac=1 / ref=6 / deblock=1:0:0 / analyse=0x3:0x113 / me=umh / subme=9 / psy=1 / psy_rd=1.00:0.00 / mixed_ref=1 / me_range=24 / chroma_me=0 / trellis=1 / 8x8dct=1 / cqm=0 / deadzone=21,11 / fast_pskip=0 / chroma_qp_offset=-2 / threads=3 / sliced_threads=0 / nr=0 / decimate=1 / interlaced=0 / bluray_compat=0 / constrained_intra=0 / bframes=3 / b_pyramid=2 / b_adapt=1 / b_bias=0 / direct=1 / weightb=1 / open_gop=0 / weightp=2 / keyint=125 / keyint_min=25 / scenecut=40 / intra_refresh=0 / rc_lookahead=40 / rc=crf / mbtree=1 / crf=20.0 / qcomp=0.60 / qpmin=0 / qpmax=69 / qpstep=4 / ip_ratio=1.40 / aq=1:1.00
Default : Yes
Forced : No

Audio #1
ID : 2
Format : MPEG Audio
Format version : Version 1
Format profile : Layer 3
Mode : Joint stereo
Codec ID : A_MPEG/L3
Codec ID/Hint : MP3
Duration : 59mn 0s
Bit rate mode : Constant
Bit rate : 192 Kbps
Channel(s) : 2 channels
Sampling rate : 48.0 KHz
Compression mode : Lossy
Stream size : 81.0 MiB (5%)
Title : VO Mona Lisa
Language : Russian
Default : Yes
Forced : No

Audio #2
ID : 3
Format : AC-3
Format/Info : Audio Coding 3
Mode extension : CM (complete main)
Format settings, Endianness : Big
Codec ID : A_AC3
Duration : 59mn 0s
Bit rate mode : Constant
Bit rate : 192 Kbps
Channel(s) : 2 channels
Channel positions : Front: L R
Sampling rate : 48.0 KHz
Bit depth : 16 bits
Compression mode : Lossy
Delay relative to video : 4ms
Stream size : 81.0 MiB (5%)
Language : English
Default : No
Forced : No

Text #1
ID : 4
Format : UTF-8
Codec ID : S_TEXT/UTF8
Codec ID/Info : UTF-8 Plain Text
Language : Russian
Default : No
Forced : No

Text #2
ID : 5
Format : UTF-8
Codec ID : S_TEXT/UTF8
Codec ID/Info : UTF-8 Plain Text
Language : English
Default : No
Forced : No
General
Unique ID : 241364214828785083953192799377319257820 (0xB5950E8FF6F702F0AAF6ABB7002BE6DC)
Complete name : A:\MUSOR\Origins.of.us(3.serii.iz.3).2011.x264.HDTVRip.720p\Origins.of.us.(2.iz.3).Pischevarenie.2011.x264.HDTVRip.720p.mkv
Format : Matroska
Format version : Version 1
File size : 1.89 GiB
Duration : 58mn 59s
Overall bit rate : 4 583 Kbps
Encoded date : UTC 2012-08-03 20:30:35
Writing application : mkvmerge v2.1.0 ('Another Place To Fall') built on Aug 19 2007 13:40:07
Writing library : libebml v0.7.7 + libmatroska v0.8.1

Video
ID : 1
Format : AVC
Format/Info : Advanced Video Codec
Format profile : High@L4.1
Format settings, CABAC : Yes
Format settings, ReFrames : 6 frames
Codec ID : V_MPEG4/ISO/AVC
Duration : 58mn 59s
Bit rate : 4 108 Kbps
Width : 1 280 pixels
Height : 720 pixels
Display aspect ratio : 16:9
Frame rate : 25.000 fps
Color space : YUV
Chroma subsampling : 4:2:0
Bit depth : 8 bits
Scan type : Progressive
Bits/(Pixel*Frame) : 0.178
Stream size : 1.69 GiB (90%)
Writing library : x264 core 118 r2085 8a62835
Encoding settings : cabac=1 / ref=6 / deblock=1:0:0 / analyse=0x3:0x113 / me=umh / subme=9 / psy=1 / psy_rd=1.00:0.00 / mixed_ref=1 / me_range=24 / chroma_me=0 / trellis=1 / 8x8dct=1 / cqm=0 / deadzone=21,11 / fast_pskip=0 / chroma_qp_offset=-2 / threads=3 / sliced_threads=0 / nr=0 / decimate=1 / interlaced=0 / bluray_compat=0 / constrained_intra=0 / bframes=3 / b_pyramid=2 / b_adapt=1 / b_bias=0 / direct=1 / weightb=1 / open_gop=0 / weightp=2 / keyint=125 / keyint_min=25 / scenecut=40 / intra_refresh=0 / rc_lookahead=40 / rc=crf / mbtree=1 / crf=20.0 / qcomp=0.60 / qpmin=0 / qpmax=69 / qpstep=4 / ip_ratio=1.40 / aq=1:1.00
Default : Yes
Forced : No

Audio #1
ID : 2
Format : MPEG Audio
Format version : Version 1
Format profile : Layer 3
Mode : Joint stereo
Codec ID : A_MPEG/L3
Codec ID/Hint : MP3
Duration : 58mn 59s
Bit rate mode : Constant
Bit rate : 192 Kbps
Channel(s) : 2 channels
Sampling rate : 48.0 KHz
Compression mode : Lossy
Stream size : 81.0 MiB (4%)
Title : VO Mona Lisa
Language : Russian
Default : Yes
Forced : No

Audio #2
ID : 3
Format : AC-3
Format/Info : Audio Coding 3
Mode extension : CM (complete main)
Format settings, Endianness : Big
Codec ID : A_AC3
Duration : 58mn 59s
Bit rate mode : Constant
Bit rate : 192 Kbps
Channel(s) : 2 channels
Channel positions : Front: L R
Sampling rate : 48.0 KHz
Bit depth : 16 bits
Compression mode : Lossy
Delay relative to video : 12ms
Stream size : 81.0 MiB (4%)
Language : English
Default : No
Forced : No

Text #1
ID : 4
Format : UTF-8
Codec ID : S_TEXT/UTF8
Codec ID/Info : UTF-8 Plain Text
Language : Russian
Default : No
Forced : No

Text #2
ID : 5
Format : UTF-8
Codec ID : S_TEXT/UTF8
Codec ID/Info : UTF-8 Plain Text
Language : English
Default : No
Forced : No
General
Unique ID : 233583581641718522156479548447260508915 (0xAFBA8FBA89D6E07EA77146AB4CBD82F3)
Complete name : A:\MUSOR\Origins.of.us(3.serii.iz.3).2011.x264.HDTVRip.720p\Origins.of.us.(3.iz.3).Mozg.2011.x264.HDTVRip.720p.mkv
Format : Matroska
Format version : Version 1
File size : 1.60 GiB
Duration : 58mn 16s
Overall bit rate : 3 943 Kbps
Encoded date : UTC 2012-08-03 20:32:57
Writing application : mkvmerge v2.1.0 ('Another Place To Fall') built on Aug 19 2007 13:40:07
Writing library : libebml v0.7.7 + libmatroska v0.8.1

Video
ID : 1
Format : AVC
Format/Info : Advanced Video Codec
Format profile : High@L4.1
Format settings, CABAC : Yes
Format settings, ReFrames : 6 frames
Codec ID : V_MPEG4/ISO/AVC
Duration : 58mn 16s
Bit rate : 3 480 Kbps
Width : 1 280 pixels
Height : 720 pixels
Display aspect ratio : 16:9
Frame rate : 25.000 fps
Color space : YUV
Chroma subsampling : 4:2:0
Bit depth : 8 bits
Scan type : Progressive
Bits/(Pixel*Frame) : 0.151
Stream size : 1.42 GiB (88%)
Writing library : x264 core 118 r2085 8a62835
Encoding settings : cabac=1 / ref=6 / deblock=1:0:0 / analyse=0x3:0x113 / me=umh / subme=9 / psy=1 / psy_rd=1.00:0.00 / mixed_ref=1 / me_range=24 / chroma_me=0 / trellis=1 / 8x8dct=1 / cqm=0 / deadzone=21,11 / fast_pskip=0 / chroma_qp_offset=-2 / threads=3 / sliced_threads=0 / nr=0 / decimate=1 / interlaced=0 / bluray_compat=0 / constrained_intra=0 / bframes=3 / b_pyramid=2 / b_adapt=1 / b_bias=0 / direct=1 / weightb=1 / open_gop=0 / weightp=2 / keyint=125 / keyint_min=25 / scenecut=40 / intra_refresh=0 / rc_lookahead=40 / rc=crf / mbtree=1 / crf=20.0 / qcomp=0.60 / qpmin=0 / qpmax=69 / qpstep=4 / ip_ratio=1.40 / aq=1:1.00
Default : Yes
Forced : No

Audio #1
ID : 2
Format : MPEG Audio
Format version : Version 1
Format profile : Layer 3
Mode : Joint stereo
Codec ID : A_MPEG/L3
Codec ID/Hint : MP3
Duration : 58mn 16s
Bit rate mode : Constant
Bit rate : 192 Kbps
Channel(s) : 2 channels
Sampling rate : 48.0 KHz
Compression mode : Lossy
Stream size : 80.0 MiB (5%)
Title : VO Mona Lisa
Language : Russian
Default : Yes
Forced : No

Audio #2
ID : 3
Format : AC-3
Format/Info : Audio Coding 3
Mode extension : CM (complete main)
Format settings, Endianness : Big
Codec ID : A_AC3
Duration : 58mn 16s
Bit rate mode : Constant
Bit rate : 192 Kbps
Channel(s) : 2 channels
Channel positions : Front: L R
Sampling rate : 48.0 KHz
Bit depth : 16 bits
Compression mode : Lossy
Delay relative to video : 28ms
Stream size : 80.0 MiB (5%)
Language : English
Default : No
Forced : No

Text #1
ID : 4
Format : UTF-8
Codec ID : S_TEXT/UTF8
Codec ID/Info : UTF-8 Plain Text
Language : Russian
Default : No
Forced : No

Text #2
ID : 5
Format : UTF-8
Codec ID : S_TEXT/UTF8
Codec ID/Info : UTF-8 Plain Text
Language : English
Default : No
Forced : No
Описание серий:
Продолжительность: 00:49:14

Видеокодек: MPEG-4 AVC/H.264
Битрейт видео: ~ 3 778 Кбит/с
Размер кадра: 1280x720
Качество видео: HDTVRip [720p]
Аудио:
1. [русский] MP3, 2 ch, 192 kbps
2. [английский] AC3, 2 ch, 192.00 kbps
Субтитры: русские, английские

Скриншоты:

Продолжительность: 00:58:59

Видеокодек: MPEG-4 AVC/H.264
Битрейт видео: ~ 4 108 Кбит/с
Размер кадра: 1280x720
Качество видео: HDTVRip [720p]
Аудио:
1. [русский] MP3, 2 ch, 192 kbps
2. [английский] AC3, 2 ch, 192 kbps
Субтитры: русские, английские

Скриншоты:
Продолжительность: 00:58:16

Видеокодек: MPEG-4 AVC/H.264
Битрейт видео: ~ 3 480 Кбит/с
Размер кадра: 1280x720
Качество видео: HDTVRip [720p]
Аудио:
1. [русский] MP3, 2 ch, 192 kbps
2. [английский] AC3, 2 ch, 192 kbps
Субтитры: русские, английские

Скриншоты:

Скриншоты:


Пожалуйста, не уходите с раздачи - помогите докачать другим. Если понравился релиз - жмите кнопку "Спасибо"! :приветствую:


Время раздачи: 24 / 7

"BBC. Происхождение человека / Origins of us" на NoNaMe Club
[NNM-Club.ru]_BBC.Origins.of.us(3.serii.iz.3).2011.x264.HDTVRip.720p.torrent
 Торрент: Платиновая раздача  Зарегистрирован
 
Скачать


Примагнититься
 Зарегистрирован:   06 Апр 2013 22:54:00
 Размер:   5,24 GB  (
 Рейтинг:   4,8 (Голосов: 61)
 Поблагодарили:   287
 Проверка:   Оформление проверено модератором 06 Апр 2013 22:54:45
Как cкачать  ·  Как раздать  ·  Правильно оформить  ·  Поднять ратио!  
Ivaemon
Только чтение
Стаж: 9 лет 6 мес.
Сообщений: 83
Ratio: 17,296
100%
ukraine.gif
Друзья, не спорьте с крециками. Им согласиться с теорией эволюции - значит лишиться удобных догм и личного спокойствия. Они никогда даже не признают того, что дважды два - четыре, если это противоречит мифам древних диких скотоводов, и найдут способы это оспорить.
gogaII
Стаж: 7 лет 7 мес.
Сообщений: 358
Ratio: 1,901
4.94%
australia.gif
Ivaemon писал(а): Перейти к сообщению
Друзья, не спорьте с крециками. Им согласиться с теорией эволюции - значит лишиться удобных догм и личного спокойствия. Они никогда даже не признают того, что дважды два - четыре, если это противоречит мифам древних диких скотоводов, и найдут способы это оспорить.

Друзья, не спорьте с адептами "эволюции". Вы можете на пальцах объяснять элементарные вещи, давать ссылки с не менее простыми рассуждениями ( или сложными) . Вы думаете, вы что-то добьетесь? О нет, это бесполезно. Отряхнувшись от всех ваших аргументов и доказательств, вас назовут дураком, который ничего не понимает в науке!( тут они обычно поднимают палец вверх и смотрят на тебя снисходительно). Хотя, в принципе, если у этих людей обезьяны в родственниках, то, увы, ожидать другого не приходится.
IsotopE-555
Стаж: 6 лет 6 мес.
Сообщений: 210
Ratio: 8,159
100%
russia.gif
Спасибо!
Показать сообщения:   
Начать новую тему   Ответить на тему    Торрент-трекер NNM-Club -> Зарубежные TV-бренды -> BBC Часовой пояс: GMT + 3
Страницы:   Пред.  1, 2
Страница 2 из 2