Классический форум-трекер
canvas not supported
Нас вместе: 4 079 142

Kurogane Communication / Iron Communication / Железная связь [1998, TV, 24] DVDRip 480p raw


 
 
RSS
Начать новую тему   Ответить на тему    Торрент-трекер NNM-Club -> Аниме с субтитрами -> Аниме (SD)
Автор Сообщение
loki ®
Стаж: 8 лет 9 мес.
Сообщений: 4714
Ratio: 66
Поблагодарили: 36829
100%
Откуда: Днепр
roody.gif
鉄[くろがね]コミュニケイション
Kurogane Communication
Iron Communication
Железная связь

Жанр: приключения, фантастика, меха
Тип: TV-сериал
Продолжительность: 24 эп., 15 мин.
Дата премьеры / период выхода: c 05.10.1998 по 29.03.1999
Производство/студия: Studio A.P.P.P.
Автор оригинала: Такума Томомаса
Режиссер: Кикути Ясухито
Качество видео: DVDRip
Релиз/Энкод: Anime-4ever
Контейнер: MKV
Видео: DX50/DivX 5
Битрейт видео: 1300 Kbps; 23,976 fps
Размер кадра: 640x480
Аудио:
JAP; VORBIS; 48.0 KHz; 2ch; 161 Kbps
Субтитры:
RUS; dimon & ramzes SRT (int)
ENG; a4e SRT (int)
Описание:
Земля заброшенна и безлюдна. Человечество уничтожено. Теперь этот мир населяют только роботы. Однако, один выживший все же есть. Девочка по имени Харука последний человек на Земле. С помощью пятерых друзей-роботов Харука узнает, что произошло на Земле и почему она выжила
01. Haruka
02. Lost Memories
03. Oasis
04. Machine (Non-Intelligent Fighting Machine)
05. Angela (Part 1)
06. Angela (Part 2)
07. Camping Trip
08. The Incident
09. Shelter
10. The Truth
11. Flyer
12. Taking Off
13. New Land
14. Kanato
15. Ruin
16. Hate
17. Mother
18. Hostage
19. Reunion
20. Survivors
21. Honi
22. Betrayal
23. Takeoff
24. Rebirth
Код:
Общее
Уникальный идентификатор                 : 176760738049515474380835233456204462983 (0x84FAE13D345379F3A39A9721AD46BB87)
Полное имя                               : [a4e]Kurogane_Communication_01.mkv
Формат                                   : Matroska
Версия формата                           : Version 4 / Version 2
Размер файла                             : 153 Мбайт
Продолжительность                        : 14 м.
Режим общего битрейта                    : Переменный
Общий поток                              : 1475 Кбит/сек
Дата кодирования                         : UTC 2013-11-17 14:46:33
Программа кодирования                    : mkvmerge v6.2.0 ('Promised Land') built on Apr 28 2013 12:22:01
Библиотека кодирования                   : libebml v1.3.0 + libmatroska v1.4.0

Видео
Идентификатор                            : 1
Формат                                   : MPEG-4 Visual
Параметр BVOP формата                    : Да
Параметр QPel формата                    : Нет
Параметр GMC формата                     : Без точки перехода
Параметр матрицы формата                 : Default (H.263)
Идентификатор кодека                     : V_MS/VFW/FOURCC / DX50
Идентификатор кодека/Подсказка           : DivX 5
Продолжительность                        : 14 м.
Битрейт                                  : 1285 Кбит/сек
Ширина                                   : 640 пикселей
Высота                                   : 480 пикселей
Соотношение сторон                       : 4:3
Режим частоты кадров                     : Постоянный
Частота кадров                           : 23,976 кадра/сек
Цветовое пространство                    : YUV
Субдискретизация насыщенности            : 4:2:0
Битовая глубина                          : 8 бит
Тип развёртки                            : Прогрессивная
Метод сжатия                             : С потерями
Бит/(Пиксели*Кадры)                      : 0.174
Размер потока                            : 134 Мбайт (87%)
Библиотека кодирования                   : DivX 5.0.0 (UTC 2002-03-04)
Default                                  : Да
Forced                                   : Нет

Аудио
Идентификатор                            : 2
Формат                                   : Vorbis
Параметр Floor формата                   : 1
Идентификатор кодека                     : A_VORBIS
Продолжительность                        : 14 м.
Вид битрейта                             : Переменный
Битрейт                                  : 160 Кбит/сек
Каналы                                   : 2 канала
Частота                                  : 48,0 КГц
Метод сжатия                             : С потерями
Размер потока                            : 16,7 Мбайт (11%)
Библиотека кодирования                   : libVorbis 1.0 RC3 (UTC 2001-12-17)
Язык                                     : Japanese
Default                                  : Да
Forced                                   : Нет

Текст #1
Идентификатор                            : 3
Формат                                   : UTF-8
Идентификатор кодека                     : S_TEXT/UTF8
Идентификатор кодека/Информация          : UTF-8 Plain Text
Заголовок                                : dimon&ramzes
Язык                                     : Russian
Default                                  : Да
Forced                                   : Нет

Текст #2
Идентификатор                            : 4
Формат                                   : UTF-8
Идентификатор кодека                     : S_TEXT/UTF8
Идентификатор кодека/Информация          : UTF-8 Plain Text
Язык                                     : English
Default                                  : Нет
Forced                                   : Нет

ANN || AniDB || MAL || World Art



Время раздачи: 24/7
[NNM-Club.me]_[a4e] Kurogane Communication.torrent
 Торрент: Платиновая раздача  Зарегистрирован
 
Скачать


Примагнититься
 Зарегистрирован:   17 Ноя 2013 18:44:13
 Размер:   3,4 GB  (
 Рейтинг:   4,1 (Голосов: 31)
 Поблагодарили:   51
 Проверка:   Оформление проверено модератором 17 Ноя 2013 19:18:24
Как cкачать  ·  Как раздать  ·  Правильно оформить  ·  Поднять ратио!  
Загрузка...
pfds4
Стаж: 6 лет 10 мес.
Сообщений: 21
Ratio: 58,784
100%
Евангелион, ты ли это?? О_о
loki ®
Стаж: 8 лет 9 мес.
Сообщений: 4714
Ratio: 66
Поблагодарили: 36829
100%
Откуда: Днепр
roody.gif
pfds4 писал(а):
Евангелион, ты ли это?? О_о

По сюжету больше похоже на Грехи Кассяна. lol
unti1x
 
Стаж: 9 лет 3 мес.
Сообщений: 12
Ratio: 17,079
8.51%
Хм, во второй серии вшиты субтитры из первой
Показать сообщения:   
Начать новую тему   Ответить на тему    Торрент-трекер NNM-Club -> Аниме с субтитрами -> Аниме (SD) Часовой пояс: GMT + 3
Страница 1 из 1