Классический форум-трекер
canvas not supported
Нас вместе: 4 076 967

Глэм Рок / Glam Rock -T.Rex. S.Quatro.Nazareth.Sweet and more.. (2003) DVDRip


 
 
RSS
Начать новую тему   Ответить на тему    Торрент-трекер NNM-Club -> Театр и Музыкальное видео -> Музыкальные клипы
Автор Сообщение
terras50 ®
RG Releasers
 
Стаж: 7 лет 5 мес.
Сообщений: 5582
Ratio: 78,496
Поблагодарили: 243484
100%
Откуда: Вильнюс. Литва
lithuania.gif
Глэм Рок / Glam Rock -T.Rex. S.Quatro.Nazareth.Sweet and more.. (2003) DVDRip

Русское название: Глэм Рок
Оригинальное название: Glam Rock -T.Rex. S.Quatro.Nazareth.Sweet and more..
Год выпуска: 2003
Жанр: Музыка, Glam rock
Продолжительность: 00:45:49

Видеокодек: DivX 3
Битрейт видео: ~~1501 kbps
Размер кадра: 720х576
Качество видео: DVDRip
Аудиокодек: MP3,2ch
Битрейт аудио: ~256.00 kbps avg


Описание фильма:

На этом диске представлены одни из лучших групп направления глэм рока начало 70 х,
все группы в самом начале своей сценической карьеры все молоды полны амбиций и задора.


Треклист:

01. T.Rex.- Jeepster
02. Shwaddywaddy - You Got What it Takes
03. Nazareth - Love Hurts
04. Dave Edmunds - Here Comes THE Weekend
05. Rod Stewart - Tonight's The Night
06. T.Rex - 20 th Century Boy
07. Suzi Quatro - 48 Crach
08. David Essex - Rock On
09. Sweet - Teenage Rampage
10. Bay City Rollers - Bye Bye Bye
11. Medichie Head - How Does it Feel
12. Lulu - The man Who Sold the World
13. Davd Coath - Cool my
14. Smokie - If You Think YOU Know How To LOve ME
15. Alce Cooper - Public Animal
Общее
Полное имя : D:\Archyv\Concert\Glam Rock.avi
Формат : AVI
Формат/Информация : Audio Video Interleave
Размер файла : 580 Мбайт
Продолжительность : 45 м.
Общий поток : 1770 Кбит/сек
Программа кодирования : Lavf51.12.1

Видео
Идентификатор : 0
Формат : MPEG-4 Visual
Профиль формата : Simple@L1
Параметр BVOP формата : Нет
Параметр QPel формата : Нет
Параметр GMC формата : Без точки перехода
Параметр матрицы формата : Default (H.263)
Идентификатор кодека : DX50
Идентификатор кодека/Подсказка : DivX 5
Продолжительность : 45 м.
Битрейт : 1501 Кбит/сек
Ширина : 720 пикселей
Высота : 576 пикселей
Соотношение сторон : 5:4
Частота кадров : 29,970 кадров/сек
Стандарт вещания : PAL
Цветовое пространство : YUV
Субдискретизация насыщенности : 4:2:0
Битовая глубина : 8 бит
Тип развёртки : Прогрессивная
Метод сжатия : С потерями
Бит/(Пиксели*Кадры) : 0.121
Размер потока : 492 Мбайт (85%)
Библиотека кодирования : Lavc51.40.4

Аудио
Идентификатор : 1
Формат : MPEG Audio
Версия формата : Version 1
Профиль формата : Layer 3
Режим : Joint stereo
Расширение режима : MS Stereo
Идентификатор кодека : 55
Идентификатор кодека/Подсказка : MP3
Продолжительность : 45 м.
Вид битрейта : Постоянный
Битрейт : 256 Кбит/сек
Каналы : 2 канала
Частота : 44,1 КГц
Метод сжатия : С потерями
Размер потока : 83,9 Мбайт (14%)
Выравнивание : Соединение по промежуткам
Продолжительность промежутка : 26 мс. (0,78 видеокадр)
Скриншоты:


Время раздачи: с 6:00 до 22:00 (GMT +2)
[NNM-Club.ru]_Glam Rock.avi.torrent
 Торрент: Платиновая раздача  Зарегистрирован
 
Скачать


Примагнититься
 Зарегистрирован:   12 Ноя 2012 08:39:45
 Размер:   580 MB  (
 Рейтинг:   4,8 (Голосов: 36)
 Поблагодарили:   113
 Проверка:   Оформление проверено модератором 12 Ноя 2012 10:18:32
Как cкачать  ·  Как раздать  ·  Правильно оформить  ·  Поднять ратио!  

_________________
У всех людей своя музыка. Иногда я вижу человека, а от него музыка звучит. Какой человек — такая и музыка.
юрчил
Стаж: 8 лет 4 мес.
Сообщений: 650
Ratio: 0,574
Раздал: 388 GB
100%
Откуда: кемерово
russia.gif
terras50/ Привет!.Смотрю за твоей деятельностью.Смотрел клип кантри группу девченок. .Ждал от тебя уже своего ивот наконец выражаю сново вновь и вновь огромную БЛАГОДАРНОСТЬ за выставленный рип видео концерт.Удачи тебе.

_________________
Спасибо всей команде nnm-club
terras50 ®
RG Releasers
 
Стаж: 7 лет 5 мес.
Сообщений: 5582
Ratio: 78,496
Поблагодарили: 243484
100%
Откуда: Вильнюс. Литва
lithuania.gif
юрчил Спасибо! Но я ваще то разнообразный, так что и такое то же люблю! (Особенно девчонок!)

_________________
У всех людей своя музыка. Иногда я вижу человека, а от него музыка звучит. Какой человек — такая и музыка.
юрчил
Стаж: 8 лет 4 мес.
Сообщений: 650
Ratio: 0,574
Раздал: 388 GB
100%
Откуда: кемерово
russia.gif
А я уже вкурсе я почти такойже ты не поверишь ч то я вплотную занимаюсь шансоном. и так же мне нравится красивая рисованная графика особенно герлз я у тебя кое что приобрел СПАСИБО дорогой.

_________________
Спасибо всей команде nnm-club
Myaga
Стаж: 8 лет
Сообщений: 1149
Ratio: 140,221
Поблагодарили: 38555
100%
terras50 ®, спасибо! Но здесь нет лучших вещей групп, да и запись многих в моно. С какого боку приписали к глэму Nazareth? Вообще лучше сделать сборку видео с ютуба или типа этого. Качество такое же или типа этого. С наилучшими пожеланиями!
Igor_128
Стаж: 4 года 8 мес.
Сообщений: 4
Ratio: 0,732
100%
шансон отстой ! рок в жопе . от попсы блюешь . остается Максим Леонидов ... по пьяни ... какашками не кидаться ....
Показать сообщения:   
Начать новую тему   Ответить на тему    Торрент-трекер NNM-Club -> Театр и Музыкальное видео -> Музыкальные клипы Часовой пояс: GMT + 3
Страница 1 из 1