Классический форум-трекер
canvas not supported
Нас вместе: 4 093 525

Эти невероятные музыканты, или Новые сновидения Шурика (1977) SATRip


Страницы:   Пред.  1, 2 
 
RSS
Начать новую тему   Ответить на тему    Торрент-трекер NNM-Club -> Театр и Музыкальное видео -> Опера, Балет, Мюзиклы
Автор Сообщение
ornellit ®
Стаж: 10 лет 3 мес.
Сообщений: 1754
Ratio: 203,518
Поблагодарили: 97473
100%
ukraine.gif
Эти невероятные музыканты, или Новые сновидения Шурика (1977)SATRip
Год выпуска: 1977
Жанр: Комедия, Мьюзикл

Описание:
Телевизионный фильм-концерт по мотивам популярных комедий Леонида Гайдая «Операция «Ы» и другие приключения Шурика» (1965), «Кавказская пленница, или Новые приключения Шурика» (1966), «Бриллиантовая рука» (196, «12 стульев» (1971), «Иван Васильевич меняет профессию» (1973), «Не может быть!» (1975).

Рeжиссер: Юрий Сааков
Актeры: Наталья Варлей, Георгий Вицин, Арчил Гомиашвили, Олег Даль, Александр Демьяненко, Валерий Золотухин, Савелий Крамаров, Наталья Крачковская, Леонид Куравлёв, Евгений Моргунов, Вячеслав Невинный, Светлана Светличная, Наталья Селезнёва, Алексей Смирнов

Продолжительность: 00:59:56



Видеокодек: MPEG2
Битрейт видео: 4289 kbps
Размер кадра: 720 х 576
Качество видео: SATRip
Аудиокодек: AC-3 2.0
Битрейт аудио: 256 kbps
Треклист:
01. Музыкальная сценка «Танцплощадка» (из «Кавказской пленницы») — все
02. Песенка о медведях (из «Кавказской пленницы») — Варлей
03. Фортепианная пьеса «Погоня» (из «Операции Ы») — Смирнов
04. «Разговор со счастьем» (из «Ивана Васильевича») — Куравлёв
05. Музыкальная картинка «Базар» (из «Операции Ы») — Моргунов
06. Песня, не вошедшая в фильм «12 стульев» — все
07. Музыкальная пьеса «Погоня» (из «Ивана Васильевича») — Даль
08. «С любовью встретиться» (из «Ивана Васильевича») — Селезнёва
09. Музыкальная пьеса «Погоня» (из «Операции Ы») — все
10. Колыбельная (из «Операции Ы») — Крачковская, Селезнёва, Варлей, Светличная
11. Музыкальная пьеса «Перекраска» (из «12 стульев») — Гомиашвили
12. Музыкальная пьеса «Хо-хо» (из «12 стульев») — все
13. Музыкальная картинка «Крушение надежд» (из «12 стульев») — Моргунов, Селезнёва, Варлей, Светличная
14. Музыкальная картинка (из «Не может быть») — Вицин
15. «Там, где любовь» (из «12 стульев») — Золотухин
16. Музыкальная пьеса «Погоня» (из «12 стульев») — Крачковская, Даль
17. Музыкальная пьеса «Погоня» (из «Ивана Васильевича») — Даль
18. «Помоги мне» (из «Бриллиантовой руки») — Светличная
19. Марш (из «Кавказской пленницы») — все
20. «Маруся» (из «Ивана Васильевича») — все
21. Музыкальная пьеса «Погоня» (из «Ивана Васильевича») — Даль
22. Музыкальная пьеса «Погоня» (из «Кавказской пленницы») — Варлей, Вицин, Моргунов
23. «Купидон» (из «Не может быть») — Даль
24. Музыкальная пьеса «Погоня в Васюках» (из «12 стульев») — Крамаров
25. Марш (из «Операции Ы») — все
Код: выделить все
Полное имя                               : Z:\Концерты\Эти невероятные музыканты, или Новые сновидения Шурика.1977.SATRip.[nnm-club.me].mpg
Формат                                   : MPEG-PS
Размер файла                             : 1,94 Гбайт
Продолжительность                        : 59 м.
Режим общего битрейта                    : Переменный
Общий поток                              : 4637 Кбит/сек
Библиотека кодирования                   : (c) 1998-2008 Womble Multimedia, Inc. / MPEG Video Wizard (08/2008) / Dec 31 2008

Видео
Идентификатор                            : 224 (0xE0)
Формат                                   : MPEG Video
Версия формата                           : Version 2
Профиль формата                          : Main@Main
Параметр BVOP формата                    : Да
Параметр матрицы формата                 : Выборочная
Параметр GOP формата                     : M=3, N=12
Продолжительность                        : 59 м.
Вид битрейта                             : Переменный
Битрейт                                  : 4289 Кбит/сек
Максимальный битрейт                     : 9396 Кбит/сек
Ширина                                   : 720 пикселей
Высота                                   : 576 пикселей
Соотношение сторон                       : 4:3
Частота кадров                           : 25,000 кадров/сек
Стандарт вещания                         : PAL
Цветовое пространство                    : YUV
Субдискретизация насыщенности            : 4:2:0
Битовая глубина                          : 8 бит
Тип развёртки                            : Чересстрочная
Порядок развёртки                        : Верхнее поле первое
Метод сжатия                             : С потерями
Бит/(Пиксели*Кадры)                      : 0.414
Размер потока                            : 1,80 Гбайт (92%)
Выравнивание                             : (c) 1998-2008 Womble Multimedia, Inc. / MPEG Video Wizard (08/2008) / Dec 31 2008
Заголовок                                : (c) 1998-2008 Womble Multimedia, Inc. / MPEG Video Wizard (08/2008) / Dec 31 2008
Библиотека кодирования                   : (c) 1998-2008 Womble Multimedia, Inc. / MPEG Video Wizard (08/2008) / Dec 31 2008

Аудио
Идентификатор                            : 189 (0xBD)-128 (0x80)
Формат                                   : AC-3
Формат/Информация                        : Audio Coding 3
Расширение режима                        : CM (complete main)
Параметр Endianness формата              : Big
Режим смешивания                         : DVD-Video
Продолжительность                        : 59 м.
Вид битрейта                             : Постоянный
Битрейт                                  : 256 Кбит/сек
Каналы                                   : 2 канала
Расположение каналов                     : Front: L R
Частота                                  : 48,0 КГц
Битовая глубина                          : 16 бит
Метод сжатия                             : С потерями
Размер потока                            : 110 Мбайт (6%)
Скриншоты:

Реставрация sklad600
[NNM-Club.me]_YEti neveroyatnyie muzyikantyi, ili Novyie snovideniya SHurika.1977.SATRip.[nnm-club.ru].mpg.torrent
 Торрент: Платиновая раздача  Зарегистрирован
 
Скачать


Примагнититься
 Зарегистрирован:   03 Апр 2018 11:08:10
 Размер:   1,94 GB  (
 Рейтинг:   4,9 (Голосов: 174)
 Поблагодарили:   718
 Проверка:   Оформление проверено модератором 03 Апр 2018 11:12:34
Как cкачать  ·  Как раздать  ·  Правильно оформить  ·  Поднять ратио!  
laoshe2
Uploader 100+
Стаж: 8 лет 5 мес.
Сообщений: 627
Ratio: 340,089
100%
russia.gif
Классный подарочек! :приветствую:
Lasershot1
Стаж: 4 года 5 мес.
Сообщений: 4
Ratio: 1379,035
100%
Это просто праздник какой-то !!!
:респект:
SergeiSPb2
Стаж: 6 лет 2 мес.
Сообщений: 238
Ratio: 2,626
100%
Жаль, что таких актеров у нас больше не будет!(
Показать сообщения:   
Начать новую тему   Ответить на тему    Торрент-трекер NNM-Club -> Театр и Музыкальное видео -> Опера, Балет, Мюзиклы Часовой пояс: GMT + 3
Страницы:   Пред.  1, 2
Страница 2 из 2