Классический форум-трекер
canvas not supported
Нас вместе: 4 076 525

Винни-Пух (1969 - 1972) DVDRip [H.264] [Реставрация]


Страницы:   Пред.  1, 2 
 
RSS
Начать новую тему   Ответить на тему    Торрент-трекер NNM-Club -> Мультфильмы -> Отечественные Мультфильмы для детей
Автор Сообщение
Гошка_Я ®
Стаж: 7 лет 10 мес.
Сообщений: 204
Ratio: 83,015
Поблагодарили: 25518
100%
russia.gif
Винни-Пух (1969 - 1972) DVDRip [H.264] [Реставрация]
Русское название: Винни-Пух и все, все, все
Год выпуска: 1969 - 1972
Жанр: Рисованная анимация, Детский
Реставрация: «Крупный план», 2007 год.
Продолжительность: 00:10:09 + 00:19:28 + 00:09:58
Режиссер: Федор Хитрук
Персонажи: Винни-Пух - Е.Леонов; Пятачок - И.Саввина; От автора - В.Осенев; Кролик - А.Щукин; Ослик Иа - Э.Гарин; Сова - З.Марышкина

Описание фильма:
Хотите узнать, где роятся дикие пчелы? Какой прок от горшочка, если в нем закочился мед? И какую вкуснятину можно отведать в гостях у Кролика? Ответы на эти вопросы знают игрушечные зверушки - добродушный медвежонок Винни-Пух и его лучший друг Пятачок - герои сказочной повести английского писателя А.А. Милна (1882-1956), с которыми российские читатели познакомились благодаря изумительному переводу известного детского писателя Бориса Заходера.
Кинематографическое рождение Винни-Пуху и его друзьям дал Федор Хитрук - мэтр отечественного мультипликационного кино, за что и был удостоен Государственной премии СССР в 1976 году.

Состав сборника:
1969, «Винни-Пух» - 10:09

1971, «Винни-Пух идет в гости» - 09:58

1972, «Винни-Пух и день забот» - 19:28


Качество видео: DVDRip
Видеокодек: MPEG-4 AVC/H.264
Битрейт видео: ~2 099 Kbps
Размер кадра: 720x576 @ 768 x 576, 4:3, 25 fps
Аудиокодек: AC3, 48000 Hz, 6 channels
Битрейт аудио: 448 Kbps
Винни-Пух и Пятачок стали персонажами цикла советских анекдотов, обычно относимых к «детским анекдотам». Это является также и свидетельством популярности мультфильмов среди взрослых, так как анекдоты выходят далеко за пределы «детского юмора», а многие и подчёркнуто «недетские».
Заходит как-то Пятачок к Винни-Пуху, а дверь открывает какая-то медведица.
— Здрасьте, а Винни-Пух дома?
— Во-первых, не Винни-Пух, а медведь Вениамин Пульхериевич, а во-вторых, его нету дома!
Пятачок, обидевшись:
— Ага, тогда передайте, что Хряк Полтинник заходил!

Анекдоты продолжают создаваться и в постсоветское время: так, в одном из вариантов приведённого выше текста с Пятачком разговаривает секретарь Пуха — «нового русского» (вообще для образа Пуха в анекдотах характерна целеустремлённая и конструктивная деятельность, обычно он обладает собственностью), а в другом анекдоте Пятачок подаёт донос «Хорошо живёт на свете Винни-Пух» в налоговую инспекцию.

При подборе актёров для озвучивания главных героев возникли сложности. Перепробовали множество актёров, но никто не подходил. Попробовали Евгения Леонова, но его баритон, также не устроил создателя мультфильма. Тогда звукооператор неожиданно предложил немного ускорить голос, быстрой перемоткой плёнки и результат оказался замечательным. Голос попал точно в персонажа. Тот же приём использовали для Пятачка.

Ия Саввина, озвучивавшая в мультфильме Пятачка, взяла его образ с Беллы Ахмадулиной, которая в свою очередь отличается своеобразной манерой разговора. После выхода мультфильма на экраны между актрисой и поэтессой состоялся телефонный разговор, в котором Белла Ахмадулина в ироничной и шутливой форме поблагодарила Ию Саввину за то, что та подложила ей «свинью».
General
Unique ID : 182659842862711477843689833251629671299 (0x896B018FCFB175DD9ED71C9BDB0FA383)
Complete name : D:\_My Releases\Винни-Пух 1969\Vini-Puh_(1969 - 1972)_[H.264]_DVDRip_[NNM-Club]\Vini-Puh_(1969)_[H.264]_DVDRip_[NNM-Club].mkv
Format : Matroska
Format version : Version 2
File size : 185 MiB
Duration : 10mn 9s
Overall bit rate : 2 549 Kbps
Encoded date : UTC 2011-01-21 09:39:32
Writing application : mkvmerge v4.4.0 ('Die Wiederkehr') зібрано Oct 31 2010 21:52:48
Writing library : libebml v1.0.0 + libmatroska v1.0.0

Video
ID : 1
Format : AVC
Format/Info : Advanced Video Codec
Format profile : High@L3.1
Format settings, CABAC : Yes
Format settings, ReFrames : 6 frames
Codec ID : V_MPEG4/ISO/AVC
Duration : 10mn 9s
Bit rate : 2 099 Kbps
Width : 720 pixels
Height : 576 pixels
Display aspect ratio : 4:3
Frame rate : 25.000 fps
Standard : PAL
Color space : YUV
Chroma subsampling : 4:2:0
Bit depth : 8 bits
Scan type : Progressive
Bits/(Pixel*Frame) : 0.202
Stream size : 149 MiB (80%)
Writing library : x264 core 112 r1834bm a51816a
Encoding settings : cabac=1 / ref=6 / deblock=1:1:1 / analyse=0x3:0x113 / me=hex / subme=7 / psy=1 / psy_rd=0.40:0.00 / mixed_ref=1 / me_range=16 / chroma_me=1 / trellis=1 / 8x8dct=1 / cqm=0 / deadzone=21,11 / fast_pskip=1 / chroma_qp_offset=-2 / threads=6 / sliced_threads=0 / nr=0 / decimate=1 / interlaced=0 / constrained_intra=0 / bframes=5 / b_pyramid=2 / b_adapt=1 / b_bias=0 / direct=1 / weightb=1 / open_gop=0 / weightp=2 / keyint=250 / keyint_min=25 / scenecut=40 / intra_refresh=0 / rc_lookahead=40 / rc=2pass / mbtree=1 / bitrate=2099 / ratetol=1.0 / qcomp=0.60 / qpmin=0 / qpmax=51 / qpstep=4 / cplxblur=20.0 / qblur=0.5 / crop_rect=0,0,0,0 / ip_ratio=1.40 / aq=1:0.60
Language : English
Default : Yes
Forced : No

Audio
ID : 2
Format : AC-3
Format/Info : Audio Coding 3
Mode extension : CM (complete main)
Codec ID : A_AC3
Duration : 10mn 9s
Bit rate mode : Constant
Bit rate : 448 Kbps
Channel(s) : 6 channels
Channel positions : Front: L C R, Side: L R, LFE
Sampling rate : 48.0 KHz
Bit depth : 16 bits
Compression mode : Lossy
Stream size : 32.5 MiB (18%)
Default : Yes
Forced : No

General
Unique ID : 171463754448224870460124046810675288891 (0x80FEB7C8BEF49275AC54EA6781421B3B)
Complete name : D:\_My Releases\Винни-Пух 1969\Vini-Puh_(1969 - 1972)_[H.264]_DVDRip_[NNM-Club]\Vini-Puh_idet_v_gosti_(1972)_[H.264]_DVDRip_[NNM-Club].mkv
Format : Matroska
Format version : Version 2
File size : 182 MiB
Duration : 9mn 58s
Overall bit rate : 2 548 Kbps
Encoded date : UTC 2011-01-21 09:35:45
Writing application : mkvmerge v4.4.0 ('Die Wiederkehr') зібрано Oct 31 2010 21:52:48
Writing library : libebml v1.0.0 + libmatroska v1.0.0

Video
ID : 1
Format : AVC
Format/Info : Advanced Video Codec
Format profile : High@L3.1
Format settings, CABAC : Yes
Format settings, ReFrames : 6 frames
Codec ID : V_MPEG4/ISO/AVC
Duration : 9mn 58s
Bit rate : 2 099 Kbps
Width : 720 pixels
Height : 576 pixels
Display aspect ratio : 4:3
Frame rate : 25.000 fps
Standard : PAL
Color space : YUV
Chroma subsampling : 4:2:0
Bit depth : 8 bits
Scan type : Progressive
Bits/(Pixel*Frame) : 0.202
Stream size : 146 MiB (80%)
Writing library : x264 core 112 r1834bm a51816a
Encoding settings : cabac=1 / ref=6 / deblock=1:1:1 / analyse=0x3:0x113 / me=hex / subme=7 / psy=1 / psy_rd=0.40:0.00 / mixed_ref=1 / me_range=16 / chroma_me=1 / trellis=1 / 8x8dct=1 / cqm=0 / deadzone=21,11 / fast_pskip=1 / chroma_qp_offset=-2 / threads=6 / sliced_threads=0 / nr=0 / decimate=1 / interlaced=0 / constrained_intra=0 / bframes=5 / b_pyramid=2 / b_adapt=1 / b_bias=0 / direct=1 / weightb=1 / open_gop=0 / weightp=2 / keyint=250 / keyint_min=25 / scenecut=40 / intra_refresh=0 / rc_lookahead=40 / rc=2pass / mbtree=1 / bitrate=2099 / ratetol=1.0 / qcomp=0.60 / qpmin=0 / qpmax=51 / qpstep=4 / cplxblur=20.0 / qblur=0.5 / crop_rect=0,0,0,0 / ip_ratio=1.40 / aq=1:0.60
Language : English
Default : Yes
Forced : No

Audio
ID : 2
Format : AC-3
Format/Info : Audio Coding 3
Mode extension : CM (complete main)
Codec ID : A_AC3
Duration : 9mn 58s
Bit rate mode : Constant
Bit rate : 448 Kbps
Channel(s) : 6 channels
Channel positions : Front: L C R, Side: L R, LFE
Sampling rate : 48.0 KHz
Bit depth : 16 bits
Compression mode : Lossy
Stream size : 31.9 MiB (18%)
Default : Yes
Forced : No

General
Unique ID : 207526032353579379355054860020096399296 (0x9C200F5BD4753B058A3B412A8BC377C0)
Complete name : D:\_My Releases\Винни-Пух 1969\Vini-Puh_(1969 - 1972)_[H.264]_DVDRip_[NNM-Club]\Vini-Puh_i_den_zabot_(1971)_[H.264]_DVDRip_[NNM-Club].mkv
Format : Matroska
Format version : Version 2
File size : 355 MiB
Duration : 19mn 28s
Overall bit rate : 2 548 Kbps
Encoded date : UTC 2011-01-21 09:31:48
Writing application : mkvmerge v4.4.0 ('Die Wiederkehr') зібрано Oct 31 2010 21:52:48
Writing library : libebml v1.0.0 + libmatroska v1.0.0

Video
ID : 1
Format : AVC
Format/Info : Advanced Video Codec
Format profile : High@L3.1
Format settings, CABAC : Yes
Format settings, ReFrames : 6 frames
Codec ID : V_MPEG4/ISO/AVC
Duration : 19mn 28s
Bit rate : 2 099 Kbps
Width : 720 pixels
Height : 576 pixels
Display aspect ratio : 4:3
Frame rate : 25.000 fps
Standard : PAL
Color space : YUV
Chroma subsampling : 4:2:0
Bit depth : 8 bits
Scan type : Progressive
Bits/(Pixel*Frame) : 0.202
Stream size : 285 MiB (80%)
Writing library : x264 core 112 r1834bm a51816a
Encoding settings : cabac=1 / ref=6 / deblock=1:1:1 / analyse=0x3:0x113 / me=hex / subme=7 / psy=1 / psy_rd=0.40:0.00 / mixed_ref=1 / me_range=16 / chroma_me=1 / trellis=1 / 8x8dct=1 / cqm=0 / deadzone=21,11 / fast_pskip=1 / chroma_qp_offset=-2 / threads=6 / sliced_threads=0 / nr=0 / decimate=1 / interlaced=0 / constrained_intra=0 / bframes=5 / b_pyramid=2 / b_adapt=1 / b_bias=0 / direct=1 / weightb=1 / open_gop=0 / weightp=2 / keyint=250 / keyint_min=25 / scenecut=40 / intra_refresh=0 / rc_lookahead=40 / rc=2pass / mbtree=1 / bitrate=2099 / ratetol=1.0 / qcomp=0.60 / qpmin=0 / qpmax=51 / qpstep=4 / cplxblur=20.0 / qblur=0.5 / crop_rect=0,0,0,0 / ip_ratio=1.40 / aq=1:0.60
Language : English
Default : Yes
Forced : No

Audio
ID : 2
Format : AC-3
Format/Info : Audio Coding 3
Mode extension : CM (complete main)
Codec ID : A_AC3
Duration : 19mn 28s
Bit rate mode : Constant
Bit rate : 448 Kbps
Channel(s) : 6 channels
Channel positions : Front: L C R, Side: L R, LFE
Sampling rate : 48.0 KHz
Bit depth : 16 bits
Compression mode : Lossy
Stream size : 62.4 MiB (18%)
Default : Yes
Forced : No
Скриншоты:


Винни-Пух на NNM-club

Время раздачи: 24 / 7 до 10 скачавших. Раздаю за «СПАСИБО»
Vini-Puh_(1969 - 1972)_[H.264]_DVDRip_[NNM-Club].torrent
 Торрент: Платиновая раздача  Зарегистрирован
 
Скачать


Примагнититься
 Зарегистрирован:   29 Июл 2012 18:00:02
 Размер:   722 MB  (
 Рейтинг:   4,9 (Голосов: 549)
 Поблагодарили:   2107
 Проверка:   Оформление проверено модератором 29 Июл 2012 23:11:57
Как cкачать  ·  Как раздать  ·  Правильно оформить  ·  Поднять ратио!  

_________________
Чем хорош NNM-club?
Тем, что только здесь, шедевры советского и отечественного кинематографа раздаются просто так, за «СПАСИБО».
Мои релизы
VitaminKo666
Стаж: 6 лет 6 мес.
Сообщений: 18
Ratio: 8,366
Поблагодарили: 179
4.75%
logo.gif
Мульт моего детства

_________________
voks32
Стаж: 9 лет 7 мес.
Сообщений: 141
Ratio: 2,971
Раздал: 1,682 TB
53.51%
Откуда: Украина, Кривой Рог
ukraine.gif
Спасибо огромное, уже качаю, чем включать доце онлайн постоянно в контакте, пусть лучше на компе будут они.
kaverzin08
Стаж: 9 лет 1 мес.
Сообщений: 5
Ratio: 20,046
100%
огорчил звук, очень тихо
Nurim
Стаж: 10 лет 3 мес.
Сообщений: 736
Ratio: 2,842
100%
Откуда: Almaty
kazakhstan.gif
Бесценное творение, шедевр.
Vrkomp
Стаж: 7 лет 4 мес.
Сообщений: 1
Ratio: 6,713
16.67%
Спасибо. Жаль в данных мультах диалогов почти не слышно, всё забивает фоновая музыка. Особенно первый мульт. Качество картинки и звука вообще хорошее...
Пошел искать с хорошо различимыми диалогами.
FideL86
 
Стаж: 8 лет
Сообщений: 119
Ratio: 31,943
100%
Откуда: The capital of Russia
russia.gif
Спасибо большое, что выкладываете такие шедевры!!!

_________________
То, что мы сделали, должно было научить нас, что невозможного нет. Ведь то, что казалось невозможным вчера, стало возможным сегодня. И поэтому ничто не покажется нам невозможным завтра!
yuriysam07
Стаж: 6 лет 1 мес.
Сообщений: 3
Ratio: 6,843
53.89%
Откуда: Русь Матушка
russia.gif
Ох! Хорошо! А говорят нельзя вернуться в "Страну Детство"... Вот ОНА СТРАНА ДЕТСТВО. Вот куда уходит Детство, вот в такие Города...
kalt12
Uploader 100+

Online
Стаж: 6 лет 9 мес.
Сообщений: 2685
Ratio: 154,544
Раздал: 170,7 TB
100%
russia.gif
kaverzin08 писал(а): Перейти к сообщению
огорчил звук, очень тихо

Vrkomp писал(а): Перейти к сообщению

...Порадовал звук 5.1. Чудный бас, музыкалка блеск, членораздельные диалоги...
Спасибо. Жаль в данных мультах диалогов почти не слышно, всё забивает фоновая музыка. Особенно первый мульт. Качество картинки и звука вообще хорошее...
Пошел искать с хорошо различимыми диалогами.

...Справедливо! Качество картинки и звука 5.1 отменное. А искать следует или звук 2.0, или правильно настроить плеер, Удачи в поисках!..
Показать сообщения:   
Начать новую тему   Ответить на тему    Торрент-трекер NNM-Club -> Мультфильмы -> Отечественные Мультфильмы для детей Часовой пояс: GMT + 3
Страницы:   Пред.  1, 2
Страница 2 из 2