Классический форум-трекер
canvas not supported
Нас вместе: 4 079 239

Gall Force: Shin Seiki Hen | Gall Force: New Era | Девичья Сила OVA-5 | Девичья Сила: Новая Эра [1991, OVA, 2 эп.] DVDRip 480p raw + eng


 
 
RSS
Начать новую тему   Ответить на тему    Торрент-трекер NNM-Club -> Аниме с субтитрами -> Аниме (SD)
Автор Сообщение
loki ®
Стаж: 8 лет 9 мес.
Сообщений: 4714
Ratio: 66
Поблагодарили: 36852
100%
Откуда: Днепр
roody.gif
GALL FORCE 新世紀編
Gall Force: Shin Seiki Hen
Gall Force: New Era
Девичья Сила: Новая Эра
Девичья Сила OVA-5

Жанр: приключения, фантастика, меха
Тип: OVA
Продолжительность: 2 эп., 45 мин.
Выпуск: c 01.12.1991 по 26.02.1992
Производство: AIC & ARTMIC Studios
Режиссер: Акияма Кацухито
Автор оригинала: Какинума Хидэки
Ссылки: World-Art, Ani-DB, MAL, ANN
Описание:
Спустя 200 лет после событий Земной Главы (OVA-4), планета начинает восстанавливается. Предвидя возвращение главного злодея из прошлого, Кэтти собирает вместе потомков героев Gallforce, чтобы избежать разрушения, грозящих уничтожить Солнечную систему.
© ANN
Энкод: AniMecha
Формат: DVDRip
Видео: XviD, 680x480, 23.976 fps, 889 kbps
Аудио 1: Vorbis, 2 ch, 48 kHz, 102 kbps | Язык: Японский
Аудио 2: Vorbis, 2 ch, 48 kHz,101 kbps | Язык: Английский
Субтитры: русские от Ingvar & LeoDreaM & Sa4ko aka Kiyoso | английские DVD | Хардсаб: отсутствует
Код:
Общее
Уникальный идентификатор                 : 115949351181738302548983054391418532172 (0x573B086220D46993E93D2F4B9033B14C)
Полное имя                               : [AM]_OVA_3_New_Era_01v2.mkv
Формат                                   : Matroska
Версия формата                           : Version 1
Размер файла                             : 347 Мбайт
Продолжительность                        : 44 м.
Режим общего битрейта                    : Переменный
Общий поток                              : 1097 Кбит/сек
Дата кодирования                         : UTC 2005-07-02 21:02:14
Программа кодирования                    : mkvmerge v1.4.2 ('Jimi Thing') built on Apr 16 2005 13:58:15
Библиотека кодирования                   : libebml v0.7.4 + libmatroska v0.7.6

Видео
Идентификатор                            : 1
Формат                                   : MPEG-4 Visual
Профиль формата                          : Advanced Simple@L5
Параметр BVOP формата                    : 2
Параметр QPel формата                    : Нет
Параметр GMC формата                     : Без точки перехода
Параметр матрицы формата                 : Default (H.263)
Режим смешивания                         : Сжатый битовый поток
Идентификатор кодека                     : V_MS/VFW/FOURCC / XVID
Идентификатор кодека/Подсказка           : XviD
Продолжительность                        : 44 м.
Битрейт                                  : 851 Кбит/сек
Ширина                                   : 680 пикселей
Высота                                   : 480 пикселей
Соотношение сторон                       : 1,417
Режим частоты кадров                     : Постоянный
Частота кадров                           : 23,976 кадра/сек
Цветовое пространство                    : YUV
Субдискретизация насыщенности            : 4:2:0
Битовая глубина                          : 8 бит
Тип развёртки                            : Прогрессивная
Метод сжатия                             : С потерями
Бит/(Пиксели*Кадры)                      : 0.109
Размер потока                            : 269 Мбайт (78%)
Библиотека кодирования                   : XviD 1.0.1 (UTC 2004-06-05)
Default                                  : Да
Forced                                   : Нет

Аудио #1
Идентификатор                            : 2
Формат                                   : Vorbis
Параметр Floor формата                   : 1
Идентификатор кодека                     : A_VORBIS
Продолжительность                        : 44 м.
Вид битрейта                             : Переменный
Битрейт                                  : 112 Кбит/сек
Каналы                                   : 2 канала
Частота                                  : 48,0 КГц
Метод сжатия                             : С потерями
Размер потока                            : 35,4 Мбайт (10%)
Библиотека кодирования                   : libVorbis 1.0 (UTC 2002-07-17)
Язык                                     : English
Default                                  : Да
Forced                                   : Нет

Аудио #2
Идентификатор                            : 3
Формат                                   : Vorbis
Параметр Floor формата                   : 1
Идентификатор кодека                     : A_VORBIS
Продолжительность                        : 44 м.
Вид битрейта                             : Переменный
Битрейт                                  : 112 Кбит/сек
Каналы                                   : 2 канала
Частота                                  : 48,0 КГц
Метод сжатия                             : С потерями
Размер потока                            : 35,4 Мбайт (10%)
Библиотека кодирования                   : libVorbis 1.0 (UTC 2002-07-17)
Язык                                     : Japanese
Default                                  : Нет
Forced                                   : Нет

Текст #1
Идентификатор                            : 4
Формат                                   : VobSub
Режим смешивания                         : zlib
Идентификатор кодека                     : S_VOBSUB
Идентификатор кодека/Информация          : The same subtitle format used on DVDs
Язык                                     : English
Default                                  : Да
Forced                                   : Нет

Текст #2
Идентификатор                            : 5
Формат                                   : VobSub
Режим смешивания                         : zlib
Идентификатор кодека                     : S_VOBSUB
Идентификатор кодека/Информация          : The same subtitle format used on DVDs
Язык                                     : English
Default                                  : Нет
Forced                                   : Нет

Меню
00:00:00.000                             : en:Chapter 1
00:08:34.067                             : en:Chapter 2
00:17:32.300                             : en:Chapter 3
00:25:35.467                             : en:Chapter 4
00:34:19.300                             : en:Chapter 5
Скриншоты:


Время раздачи: круглосуточно, до 3 скачавших
[NNM-Club.me]_[AniMecha] Gall Force OVA 5.torrent
 Торрент: Платиновая раздача  Зарегистрирован
 
Скачать


Примагнититься
 Зарегистрирован:   18 Фев 2015 22:39:47
 Размер:   694 MB  (
 Рейтинг:   4,3 (Голосов: 24)
 Поблагодарили:   29
 Проверка:   Оформление проверено модератором 18 Фев 2015 23:33:42
Как cкачать  ·  Как раздать  ·  Правильно оформить  ·  Поднять ратио!  
alexcander
Стаж: 8 лет 9 мес.
Сообщений: 5
Ratio: 11,433
100%
Какая оперативность! 0_о Спасибо!
loki ®
Стаж: 8 лет 9 мес.
Сообщений: 4714
Ratio: 66
Поблагодарили: 36852
100%
Откуда: Днепр
roody.gif
какая оперативность?
ElSwanko
Куратор Аниме
Модератор Музыки
Стаж: 13 лет 1 мес.
Сообщений: 13720
Ratio: 879,874
Поблагодарили: 56193
100%
Откуда: ур-пространство преконтинуума
roody.gif
loki
Айда релизы новые пилить? Нам на онгоинги народ нужен.

_________________
Правила: Аниме, Манга, OST || Музыка
Помощь: Скриншоты || MediaInfo || auCDtect
Показать сообщения:   
Начать новую тему   Ответить на тему    Торрент-трекер NNM-Club -> Аниме с субтитрами -> Аниме (SD) Часовой пояс: GMT + 3
Страница 1 из 1