Классический форум-трекер
canvas not supported
Нас вместе: 4 079 043

Приключения Тинтина: Тайна Единорога / The Adventures of Tintin (2011) BDRip [1080p] [Вертикальная анаморфная стереопара 3D] BDRip


 
 
RSS
Начать новую тему   Ответить на тему    Торрент-трекер NNM-Club -> Мультфильмы -> Зарубежные Мультфильмы (3D)
Автор Сообщение
igor nisan ®
RG Всё лучшее - детям!
 
Стаж: 8 лет
Сообщений: 740
Ratio: 50,892
Поблагодарили: 97977
100%
ukraine.gif
Приключения Тинтина: Тайна Единорога / The Adventures of Tintin (2011) BDRip
Русское название: Приключения Тинтина: Тайна Единорога
Оригинальное название: The Adventures of Tintin
Год выпуска: 2011
Жанр: Мультфильм, Боевик, Детектив, Приключения, Семейный

Описание:
Главный герой — молодой газетный репортёр Тинтин. Благодаря своей профессии он путешествует по всему миру и становится участником увлекательных приключений.

Режиссер: Стивен Спилберг
Персонажи: Джейми Белл, Энди Серкис, Дэниэл Крэйг, Саймон Пегг, Ник Фрост, Дэниэл Мейс, Гад Эльмалех, Тоби Джонс, Джо Старр, Енн Рейтел

Продолжительность: 01:46:51
Перевод: Дублированный
Видеокодек: MPEG-4 AVC/H.264
Битрейт видео: ~10,1 Мбит/сек
Размер кадра: 1920x1080
Качество видео: BDRip
Аудио №1: AC3 5.1, 640 kbps - Русский
Аудио №2: AC3 5.1, 640 kbps - Украинский
Аудио №3: AC3 5.1, 640 kbps - Английский



Сэмпл: Ссылка
Общее
Уникальный идентификатор : 189106394490923360029103362489367789303 (0x8E449118A8B87BA8AE0CE5100031FEF7)
Полное имя : H:\my films\THE_ADVENTURES_OF_TINTIN_3D.mkv
Формат : Matroska
Версия формата : Version 2
Размер файла : 9,13 Гбайт
Продолжительность : 1 ч. 46 м.
Общий поток : 12,2 Мбит/сек
Название фильма : THE_ADVENTURES_OF_TINTIN_3D_crop_over/under
Дата кодирования : UTC 2012-12-07 17:55:02
Программа кодирования : mkvmerge v5.8.0 ('No Sleep / Pillow') built on Sep 2 2012 15:37:04
Библиотека кодирования : libebml v1.2.3 + libmatroska v1.3.0

Видео
Идентификатор : 1
Формат : AVC
Формат/Информация : Advanced Video Codec
Профиль формата : High@L4.1
Параметр CABAC формата : Да
Параметр ReFrames формата : 4 кадра
Режим смешивания : Header stripping
Идентификатор кодека : V_MPEG4/ISO/AVC
Продолжительность : 1 ч. 46 м.
Битрейт : 10,1 Мбит/сек
Ширина : 1920 пикселей
Высота : 1080 пикселей
Соотношение сторон : 16:9
Режим частоты кадров : Постоянный
Частота кадров : 23,976 кадра/сек
Цветовое пространство : YUV
Субдискретизация насыщенности : 4:2:0
Битовая глубина : 8 бит
Тип развёртки : Прогрессивная
Бит/(Пиксели*Кадры) : 0.203
Размер потока : 7,52 Гбайт (82%)
Заголовок : rip by I/N
Библиотека кодирования : x264 core 128 r2216M 198a7ea
Настройки программы : cabac=1 / ref=4 / deblock=1:-3:-3 / analyse=0x3:0x133 / me=tesa / subme=10 / psy=1 / psy_rd=1.00:0.20 / mixed_ref=1 / me_range=16 / chroma_me=1 / trellis=2 / 8x8dct=1 / cqm=1 / deadzone=21,11 / fast_pskip=1 / chroma_qp_offset=-3 / threads=4 / lookahead_threads=1 / sliced_threads=0 / nr=0 / decimate=1 / interlaced=0 / bluray_compat=0 / constrained_intra=0 / bframes=4 / b_pyramid=2 / b_adapt=2 / b_bias=0 / direct=2 / weightb=1 / open_gop=0 / weightp=2 / keyint=230 / keyint_min=23 / scenecut=60 / intra_refresh=0 / rc_lookahead=60 / rc=crf / mbtree=1 / crf=16.0 / qcomp=0.60 / qpmin=10 / qpmax=60 / qpstep=6 / vbv_maxrate=40000 / vbv_bufsize=30000 / crf_max=30.0 / nal_hrd=none / ip_ratio=1.40 / aq=1:0.70
Язык : English
Default : Да
Forced : Нет

Аудио #1
Идентификатор : 2
Формат : AC-3
Формат/Информация : Audio Coding 3
Расширение режима : CM (complete main)
Параметр Endianness формата : Big
Режим смешивания : Header stripping
Идентификатор кодека : A_AC3
Продолжительность : 1 ч. 46 м.
Вид битрейта : Постоянный
Битрейт : 640 Кбит/сек
Каналы : 6 каналов
Расположение каналов : Front: L C R, Side: L R, LFE
Частота : 48,0 КГц
Битовая глубина : 16 бит
Метод сжатия : С потерями
Размер потока : 489 Мбайт (5%)
Язык : Russian
Default : Да
Forced : Нет

Аудио #2
Идентификатор : 3
Формат : AC-3
Формат/Информация : Audio Coding 3
Расширение режима : CM (complete main)
Параметр Endianness формата : Big
Режим смешивания : Header stripping
Идентификатор кодека : A_AC3
Продолжительность : 1 ч. 46 м.
Вид битрейта : Постоянный
Битрейт : 640 Кбит/сек
Каналы : 6 каналов
Расположение каналов : Front: L C R, Side: L R, LFE
Частота : 48,0 КГц
Битовая глубина : 16 бит
Метод сжатия : С потерями
Размер потока : 489 Мбайт (5%)
Язык : Ukrainian
Default : Нет
Forced : Нет

Аудио #3
Идентификатор : 4
Формат : AC-3
Формат/Информация : Audio Coding 3
Расширение режима : CM (complete main)
Параметр Endianness формата : Big
Режим смешивания : Header stripping
Идентификатор кодека : A_AC3
Продолжительность : 1 ч. 46 м.
Вид битрейта : Постоянный
Битрейт : 640 Кбит/сек
Каналы : 6 каналов
Расположение каналов : Front: L C R, Side: L R, LFE
Частота : 48,0 КГц
Битовая глубина : 16 бит
Метод сжатия : С потерями
Размер потока : 489 Мбайт (5%)
Язык : English
Default : Нет
Forced : Нет

Проверено на встроенном плейере ТВ Samsung-D6500
Скриншоты:



Справа и слева у видеоряда обрезано по 248р, что дает возможность просмотра на полный экран (без черных полос) на телевизорах с соотношением сторон 16:9 без изменения пропорций. На мой взгляд плюсы данных рипов- это более глубокое восприятие 3D-эффектов (конечно там где они есть) К минусам отнесу- вынужденное обрезание кадра по бокам. Так-что господа- выбор за вами! Всем приятного просмотра!

Приключения Тинтина на NNm-club
Время раздачи: 24/7 - круглосуточно до 15 скачавших
[NNM-Club.ru]_THE_ADVENTURES_OF_TINTIN_3D.mkv.torrent
 Торрент: Платиновая раздача  Зарегистрирован
 
Скачать


Примагнититься
 Зарегистрирован:   07 Дек 2012 22:49:12
 Размер:   9,13 GB  (
 Рейтинг:   4,8 (Голосов: 77)
 Поблагодарили:   331
 Проверка:   Оформление проверено модератором 08 Дек 2012 15:48:19
Как cкачать  ·  Как раздать  ·  Правильно оформить  ·  Поднять ратио!  
Загрузка...
Lowerman
Стаж: 8 лет 5 мес.
Сообщений: 18
Ratio: 1,251
100%
Откуда: Волгоград
russia.gif
Приветствую всех! Дайте скорости пожалуйста!
nikoly1970
Стаж: 9 лет 10 мес.
Сообщений: 355
Ratio: 0,919
100%
ukraine.gif
Эффектный фильм?
varacuda
Стаж: 9 лет 3 мес.
Сообщений: 15
Ratio: 1,757
1.1%
да, приключенческий в стиле сокровищ наций, кодов давинчей и тд. только в упрощенном варианте, смотрел сам с интересом хотя взрослый дядька)
jeikfan
Стаж: 6 лет 8 мес.
Сообщений: 46
Ratio: 21,286
100%
Откуда: Калуга
ussr.gif
Замечательный мультик, спасибо автору!
jeka2665
Стаж: 6 лет 9 мес.
Сообщений: 45
Ratio: 12,625
100%
Откуда: Савино
russia.gif
:респект:

_________________
Джордж Бернард Шоу:
«Тот, кто умеет, тот делает, кто не умеет — тот учит других…»
servasiy1959
Стаж: 6 лет
Сообщений: 51
Ratio: 5,905
100%
спасибо. наконец-то посмотрю его в 3Д. хороший мультфильм. Спасибо Спилбергу.
FairWorld
Стаж: 5 лет 3 мес.
Сообщений: 2
Ratio: 30,096
100%
Встаньте на раздачу кто - нибудь. Пожалуйста.
senyasenyas
Стаж: 8 лет 7 мес.
Сообщений: 4
Ratio: 39,912
Раздал: 33,74 TB
100%
Откуда: Кинешма
russia.gif
Друзья, у меня есть возможность поддержать раздачу здесь: Приключения Тинтина: Тайна Единорога / The Adventures of Tintin (2011) [1080p] BDRip [Горизонтальная анаморфная стереопара 3D]
Показать сообщения:   
Начать новую тему   Ответить на тему    Торрент-трекер NNM-Club -> Мультфильмы -> Зарубежные Мультфильмы (3D) Часовой пояс: GMT + 3
Страница 1 из 1