Классический форум-трекер
canvas not supported
Нас вместе: 4 093 167

Всадник по имени Смерть (2004) BDRip [H.264]


Страницы:   Пред.  1, 2, 3, 4 
 
RSS
Начать новую тему   Ответить на тему    Торрент-трекер NNM-Club -> Отечественное кино -> Отечественные Фильмы (HD*Rip/LQ, DVDRip, SATRip, VHSRip)
Автор Сообщение
denver7979 ®
Зам. Куратора Детского.
Модератор Видео.
RG Всё лучшее - детям!
 
Стаж: 9 лет 2 мес.
Сообщений: 8108
Ratio: 550,609
Раздал: 37,75 TB
Поблагодарили: 327146
100%
Откуда: Земля
ussr.gif
Всадник по имени Смерть (2004) BDRip
Памяти Андрея Панина
Производство: Россия
Год выпуска: 2004
Жанр: Драма

Язык: Русский
Субтитры: Английские

Описание фильма:
Россия начала XX века. Совершен ряд кровавых террористических актов, направленных против высоких должностных лиц государства. Главная цель террористов — убийство Великого князя Сергея Александровича. Покушение готовят члены так называемой «Боевой организации» — ее руководитель Жорж.
Процесс подготовки теракта раскрывает психику, чувства и стремления террористов, каждый из которых идет на террор по различным причинам: во имя любви к ближнему, в порыве мести, во имя принципа, веры в светлое будущее. Одна за другой проваливаются попытки теракта — гибнут практически все его организаторы.
Оставшийся в живых Жорж внезапно осознает, что дело убийства Великого князя становится для него смыслом его существования, и что ради осуществления задуманного он пойдет на все. Он совершает дерзкое убийство, однако, его ждет разочарование.

Режиссер: Карен Шахназаров
Актеры: Андрей Панин, Ксения Раппопорт, Артем Семакин, Ростислав Бершауер, Анастасия Макеева, Алексей Козаков, Дмитрий Дюжев



Продолжительность: 01:41:54
Качество видео: BDRip

Видео: AVC, 1024x576 (16:9), 23.976 fps, 2 163 Kbps
Аудио: AC-3, 48.0 KHz, 6 ch, 448 Kbps, CBR
Видео
Идентификатор : 1
Формат : AVC
Формат/Информация : Advanced Video Codec
Профиль формата : High@L4.1
Параметр CABAC формата : Да
Параметр ReFrames формата : 8 кадров
Идентификатор кодека : V_MPEG4/ISO/AVC
Продолжительность : 1 ч. 46 м.
Битрейт : 2163 Кбит/сек
Ширина : 1024 пикселя
Высота : 576 пикселей
Соотношение сторон : 16:9
Режим частоты кадров : Постоянный
Частота кадров : 23,976 кадра/сек
Цветовое пространство : YUV
Субдискретизация насыщенности : 4:2:0
Битовая глубина : 8 бит
Тип развёртки : Прогрессивная
Бит/(Пиксели*Кадры) : 0.153
Размер потока : 1,57 Гбайт (81%)
Заголовок : Wsadnik.po.imeni.smert.2004 [Release by neni]
Библиотека кодирования : x264 core 112 r1867 22bfd31
Настройки программы : cabac=1 / ref=8 / deblock=1:-1:-1 / analyse=0x3:0x133 / me=umh / subme=10 / psy=1 / psy_rd=1.00:0.00 / mixed_ref=1 / me_range=40 / chroma_me=1 / trellis=2 / 8x8dct=1 / cqm=0 / deadzone=21,11 / fast_pskip=0 / chroma_qp_offset=-2 / threads=3 / sliced_threads=0 / nr=0 / decimate=1 / interlaced=0 / constrained_intra=0 / bframes=6 / b_pyramid=2 / b_adapt=2 / b_bias=0 / direct=1 / weightb=1 / open_gop=0 / weightp=2 / keyint=250 / keyint_min=23 / scenecut=40 / intra_refresh=0 / rc=2pass / mbtree=0 / bitrate=2163 / ratetol=1.0 / qcomp=0.60 / qpmin=0 / qpmax=51 / qpstep=4 / cplxblur=20.0 / qblur=0.5 / ip_ratio=1.10 / pb_ratio=1.10 / aq=1:1.00
Default : Да
Forced : Да

Аудио
Идентификатор : 2
Формат : AC-3
Формат/Информация : Audio Coding 3
Расширение режима : CM (complete main)
Параметр Endianness формата : Big
Идентификатор кодека : A_AC3
Продолжительность : 1 ч. 46 м.
Вид битрейта : Постоянный
Битрейт : 448 Кбит/сек
Каналы : 6 каналов
Расположение каналов : Front: L C R, Side: L R, LFE
Частота : 48,0 КГц
Битовая глубина : 16 бит
Метод сжатия : С потерями
Размер потока : 341 Мбайт (17%)
Заголовок : Русский
Язык : Russian
Default : Да
Forced : Да

Текст
Идентификатор : 3
Формат : UTF-8
Идентификатор кодека : S_TEXT/UTF8
Идентификатор кодека/Информация : UTF-8 Plain Text
Заголовок : Английские
Язык : English
Default : Нет
Forced : Да

Меню
00:00:00.000 : :Chapter 01
00:09:30.569 : :Chapter 02
00:17:42.061 : :Chapter 03
00:26:22.581 : :Chapter 04
00:35:56.154 : :Chapter 05
00:45:50.748 : :Chapter 06
00:54:48.285 : :Chapter 07
01:04:41.878 : :Chapter 08
01:12:23.339 : :Chapter 09
01:23:35.010 : :Chapter 10
01:31:14.469 : :Chapter 11
01:34:46.680 : :Chapter 12
Скриншоты:


Всадник по имени Смерть на NNM-club

Время раздачи: с 11:00 до 01:00
[NNM-Club.ru]_Vsadnik po imeni smert'.2004.x264.BDRip.mkv.torrent
 Торрент: Платиновая раздача  Зарегистрирован
 
Скачать


Примагнититься
 Зарегистрирован:   07 Мар 2013 14:33:33
 Размер:   1,94 GB  (
 Рейтинг:   4,7 (Голосов: 142)
 Поблагодарили:   713
 Проверка:   Оформление проверено модератором 07 Мар 2013 14:37:56
Как cкачать  ·  Как раздать  ·  Правильно оформить  ·  Поднять ратио!  
Certykul
Стаж: 6 лет 2 мес.
Сообщений: 97
Ratio: 1,714
100%
Андрей Краско, Андрей Панин, Вячеслав Галкин... талантливы и оставили по себе память.
kalvis
Стаж: 10 лет 1 мес.
Сообщений: 138
Ratio: 0,967
96.67%
За ранее говорю спасибо потому что, плохого фильма с Андреем Паниным я не видел. :шок:

Добавлено спустя 2 часа 37 минут 13 секунд:

Простите меня за коменты, но он сыграл изверга, это даром не проходит, я думаю что этой ролью он убил себя.
DrBrownNeo
Стаж: 9 лет 6 мес.
Сообщений: 35
Ratio: 3,337
100%
jamaica.gif
Жреческого воплощения! Мара, будь великодушна к нему!
DrBrownNeo
Стаж: 9 лет 6 мес.
Сообщений: 35
Ratio: 3,337
100%
jamaica.gif
мне фильма понравилась)
особенно начало. но весьма предсказуемо...
Русский бунт!.. Бессмысленный и беспощадный...

Добавлено спустя 3 минуты 29 секунд:

kalvis писал(а): Перейти к сообщению
он сыграл изверга, это даром не проходит, я думаю что этой ролью он убил себя.


По мне так изверга играете вы. Я думаю, что думать блажные верующие не способны...
Даже элементарное СПАСИБО говорить вам трудно (судя по профилю) (за де юро КРАДЕННЫЕ фильмы).

Ничего личного. Этот месадж адресован всем .
klarissa13
Стаж: 1 год 7 мес.
Сообщений: 89
Ratio: 0,164
100%
uzbekistan.gif
помогите, пожалуйста, докачать 342 мб. заранее спасибо!
Показать сообщения:   
Начать новую тему   Ответить на тему    Торрент-трекер NNM-Club -> Отечественное кино -> Отечественные Фильмы (HD*Rip/LQ, DVDRip, SATRip, VHSRip) Часовой пояс: GMT + 3
Страницы:   Пред.  1, 2, 3, 4
Страница 4 из 4