Классический форум-трекер
canvas not supported
Нас вместе: 4 076 651

INNA - The Video Collection (Видеография) HDRemux [H.264,1080p]


 
 
RSS
Начать новую тему   Ответить на тему    Торрент-трекер NNM-Club -> Театр и Музыкальное видео -> Музыкальные клипы
Автор Сообщение
TigTig ®
Стаж: 8 лет 5 мес.
Сообщений: 194
Ratio: 403,276
Поблагодарили: 9285
100%
witch.png
INNA - The Video Collection (Видеография) HDRemux [H.264,1080p]
Год выпуска: (Видеография)
Жанр: Pop

Контейнер: m2ts
Видеокодек: H.264
Битрейт видео: ~7000-10000 Kbps
Размер кадра: 1920x1080 (16:9), 23.976 fps
Аудиокодек: PCM
Битрейт аудио: 48 KHz, PCM, 2ch stereo, ~1536kbps

Треклист:
1. Bob Taylor feat. Inna - Deja Vu (1st Version) (2009), 00:04:18
2. Bob Taylor feat. Inna - Deja Vu (2nd Version) (2009), 00:04:17
3. Hot (1st Version) (2009), 00:03:39
4. Hot (2nd Version) (2009), 00:03:58
5. Amazing (2009), 00:03:25
6. Love (2009), 00:03:24
7. 10 minutes (2010), 00:03:31
8. Sun Is Up (2010), 00:03:14
9. Club Rocker (2011), 00:03:59
10. Un Momento (2011), 00:04:03
11. Endless (2011), 00:03:11
12. Wow (2012), 00:04:51
13. Crazy Sexy Wild (2012), 00:03:21
14. J'Adore (Lyrics Video) (2012), 00:03:13
15. Caliente (2012), 00:03:21
16. Inndia feat. Play & Win (2012), 00:03:33
17. More Than Friends (2013), 00:03:25, mp4, AAC, 256 Kbps
18. Carla's Dreams feat. Inna - P.O.H.U.I. (2013), 00:04:01
19. Spre mare (2013), 00:03:43
20. More Than Friends feat. Daddy Yankee (2013), 00:04:21
21. Dame Tu Amor feat. Reik (2013), 00:03:37
22. Be My Lover (2013), 00:03:33
23. In Your Eyes feat. Yandel (2013), 00:03:16
1. Bob Taylor feat. Inna - Deja Vu (1st Version) (2009), 00:04:18
General
ID : 0 (0x0)
Complete name : Bob Taylor feat Inna - Deja Vu (1st Version) (2009).m2ts
Format : BDAV
Format/Info : Blu-ray Video
File size : 266 MiB
Duration : 4mn 18s
Overall bit rate mode : Variable
Overall bit rate : 8 635 Kbps
Maximum Overall bit rate : 48.0 Mbps

Video
ID : 4113 (0x1011)
Menu ID : 1 (0x1)
Format : AVC
Format/Info : Advanced Video Codec
Format profile : High@L4.0
Format settings, CABAC : Yes
Format settings, ReFrames : 2 frames
Codec ID : 27
Duration : 4mn 18s
Bit rate mode : Variable
Bit rate : 6 748 Kbps
Maximum bit rate : 7 000 Kbps
Width : 1 920 pixels
Height : 1 080 pixels
Display aspect ratio : 16:9
Frame rate : 23.976 fps
Color space : YUV
Chroma subsampling : 4:2:0
Bit depth : 8 bits
Scan type : Progressive
Bits/(Pixel*Frame) : 0.136
Stream size : 208 MiB (78%)

Audio
ID : 4352 (0x1100)
Menu ID : 1 (0x1)
Format : PCM
Format settings, Endianness : Big
Format settings, Sign : Signed
Muxing mode : Blu-ray
Codec ID : 128
Duration : 4mn 18s
Bit rate mode : Constant
Bit rate : 1 536 Kbps
Channel count : 2 channels
Channel positions : Front: L R
Sampling rate : 48.0 KHz
Bit depth : 16 bits
Stream size : 47.4 MiB (18%)

2. Bob Taylor feat. Inna - Deja Vu (2nd Version) (2009), 00:04:17
General
ID : 0 (0x0)
Complete name : Bob Taylor feat Inna - Deja Vu (2nd Version) (2009).m2ts
Format : BDAV
Format/Info : Blu-ray Video
File size : 260 MiB
Duration : 4mn 17s
Overall bit rate mode : Variable
Overall bit rate : 8 446 Kbps
Maximum Overall bit rate : 48.0 Mbps

Video
ID : 4113 (0x1011)
Menu ID : 1 (0x1)
Format : AVC
Format/Info : Advanced Video Codec
Format profile : High@L4.0
Format settings, CABAC : Yes
Format settings, ReFrames : 2 frames
Codec ID : 27
Duration : 4mn 17s
Bit rate mode : Variable
Bit rate : 6 566 Kbps
Maximum bit rate : 7 000 Kbps
Width : 1 920 pixels
Height : 1 080 pixels
Display aspect ratio : 16:9
Frame rate : 23.976 fps
Color space : YUV
Chroma subsampling : 4:2:0
Bit depth : 8 bits
Scan type : Progressive
Bits/(Pixel*Frame) : 0.132
Stream size : 202 MiB (78%)

Audio
ID : 4352 (0x1100)
Menu ID : 1 (0x1)
Format : PCM
Format settings, Endianness : Big
Format settings, Sign : Signed
Muxing mode : Blu-ray
Codec ID : 128
Duration : 4mn 17s
Bit rate mode : Constant
Bit rate : 1 536 Kbps
Channel count : 2 channels
Channel positions : Front: L R
Sampling rate : 48.0 KHz
Bit depth : 16 bits
Stream size : 47.2 MiB (18%)

3. Hot (1st Version) (2009), 00:03:39
General
ID : 0 (0x0)
Complete name : Inna - Hot (1st Version) (2009).m2ts
Format : BDAV
Format/Info : Blu-ray Video
File size : 234 MiB
Duration : 3mn 39s
Overall bit rate mode : Variable
Overall bit rate : 8 937 Kbps
Maximum Overall bit rate : 48.0 Mbps

Video
ID : 4113 (0x1011)
Menu ID : 1 (0x1)
Format : AVC
Format/Info : Advanced Video Codec
Format profile : High@L4.0
Format settings, CABAC : Yes
Format settings, ReFrames : 2 frames
Codec ID : 27
Duration : 3mn 40s
Bit rate mode : Variable
Bit rate : 7 000 Kbps
Width : 1 920 pixels
Height : 1 080 pixels
Display aspect ratio : 16:9
Frame rate : 23.976 fps
Color space : YUV
Chroma subsampling : 4:2:0
Bit depth : 8 bits
Scan type : Progressive
Bits/(Pixel*Frame) : 0.141
Stream size : 185 MiB (79%)

Audio
ID : 4352 (0x1100)
Menu ID : 1 (0x1)
Format : PCM
Format settings, Endianness : Big
Format settings, Sign : Signed
Muxing mode : Blu-ray
Codec ID : 128
Duration : 3mn 40s
Bit rate mode : Constant
Bit rate : 1 536 Kbps
Channel count : 2 channels
Channel positions : Front: L R
Sampling rate : 48.0 KHz
Bit depth : 16 bits
Stream size : 40.3 MiB (17%)

4. Hot (2nd Version) (2009), 00:03:58
General
ID : 0 (0x0)
Complete name : Inna - Hot (2nd Version) (2009).m2ts
Format : BDAV
Format/Info : Blu-ray Video
File size : 247 MiB
Duration : 3mn 58s
Overall bit rate mode : Variable
Overall bit rate : 8 702 Kbps
Maximum Overall bit rate : 48.0 Mbps

Video
ID : 4113 (0x1011)
Menu ID : 1 (0x1)
Format : AVC
Format/Info : Advanced Video Codec
Format profile : High@L4.0
Format settings, CABAC : Yes
Format settings, ReFrames : 2 frames
Codec ID : 27
Duration : 3mn 58s
Bit rate mode : Variable
Bit rate : 6 813 Kbps
Maximum bit rate : 7 000 Kbps
Width : 1 920 pixels
Height : 1 080 pixels
Display aspect ratio : 16:9
Frame rate : 23.976 fps
Color space : YUV
Chroma subsampling : 4:2:0
Bit depth : 8 bits
Scan type : Progressive
Bits/(Pixel*Frame) : 0.137
Stream size : 194 MiB (78%)

Audio
ID : 4352 (0x1100)
Menu ID : 1 (0x1)
Format : PCM
Format settings, Endianness : Big
Format settings, Sign : Signed
Muxing mode : Blu-ray
Codec ID : 128
Duration : 3mn 58s
Bit rate mode : Constant
Bit rate : 1 536 Kbps
Channel count : 2 channels
Channel positions : Front: L R
Sampling rate : 48.0 KHz
Bit depth : 16 bits
Stream size : 43.6 MiB (18%)

5. Amazing (2009), 00:03:25
General
ID : 0 (0x0)
Complete name : Inna - Amazing (2009).m2ts
Format : BDAV
Format/Info : Blu-ray Video
File size : 206 MiB
Duration : 3mn 25s
Overall bit rate mode : Variable
Overall bit rate : 8 382 Kbps
Maximum Overall bit rate : 48.0 Mbps

Video
ID : 4113 (0x1011)
Menu ID : 1 (0x1)
Format : AVC
Format/Info : Advanced Video Codec
Format profile : High@L4.0
Format settings, CABAC : Yes
Format settings, ReFrames : 2 frames
Codec ID : 27
Duration : 3mn 25s
Bit rate mode : Variable
Bit rate : 6 505 Kbps
Maximum bit rate : 7 000 Kbps
Width : 1 920 pixels
Height : 1 080 pixels
Display aspect ratio : 16:9
Frame rate : 23.976 fps
Color space : YUV
Chroma subsampling : 4:2:0
Bit depth : 8 bits
Scan type : Progressive
Bits/(Pixel*Frame) : 0.131
Stream size : 159 MiB (78%)

Audio
ID : 4352 (0x1100)
Menu ID : 1 (0x1)
Format : PCM
Format settings, Endianness : Big
Format settings, Sign : Signed
Muxing mode : Blu-ray
Codec ID : 128
Duration : 3mn 25s
Bit rate mode : Constant
Bit rate : 1 536 Kbps
Channel count : 2 channels
Channel positions : Front: L R
Sampling rate : 48.0 KHz
Bit depth : 16 bits
Stream size : 37.7 MiB (18%)

6. Love (2009), 00:03:24
General
ID : 0 (0x0)
Complete name : Inna - Love (2009).m2ts
Format : BDAV
Format/Info : Blu-ray Video
File size : 272 MiB
Duration : 3mn 24s
Overall bit rate mode : Variable
Overall bit rate : 11.2 Mbps
Maximum Overall bit rate : 48.0 Mbps

Video
ID : 4113 (0x1011)
Menu ID : 1 (0x1)
Format : AVC
Format/Info : Advanced Video Codec
Format profile : High@L4.0
Format settings, CABAC : Yes
Format settings, ReFrames : 2 frames
Format settings, GOP : M=2, N=12
Codec ID : 27
Duration : 3mn 24s
Bit rate mode : Variable
Bit rate : 9 171 Kbps
Maximum bit rate : 10 000 Kbps
Width : 1 920 pixels
Height : 1 080 pixels
Display aspect ratio : 16:9
Frame rate : 23.976 fps
Color space : YUV
Chroma subsampling : 4:2:0
Bit depth : 8 bits
Scan type : Progressive
Bits/(Pixel*Frame) : 0.184
Stream size : 224 MiB (82%)

Audio
ID : 4352 (0x1100)
Menu ID : 1 (0x1)
Format : PCM
Format settings, Endianness : Big
Format settings, Sign : Signed
Muxing mode : Blu-ray
Codec ID : 128
Duration : 3mn 24s
Bit rate mode : Constant
Bit rate : 1 536 Kbps
Channel count : 2 channels
Channel positions : Front: L R
Sampling rate : 48.0 KHz
Bit depth : 16 bits
Stream size : 37.5 MiB (14%)

7. 10 minutes (2010), 00:03:31
General
ID : 0 (0x0)
Complete name : Inna - 10 minutes (2010).m2ts
Format : BDAV
Format/Info : Blu-ray Video
File size : 203 MiB
Duration : 3mn 31s
Overall bit rate mode : Variable
Overall bit rate : 8 050 Kbps
Maximum Overall bit rate : 48.0 Mbps

Video
ID : 4113 (0x1011)
Menu ID : 1 (0x1)
Format : AVC
Format/Info : Advanced Video Codec
Format profile : High@L4.0
Format settings, CABAC : Yes
Format settings, ReFrames : 2 frames
Format settings, GOP : M=2, N=12
Codec ID : 27
Duration : 3mn 31s
Bit rate mode : Variable
Bit rate : 6 186 Kbps
Maximum bit rate : 7 000 Kbps
Width : 1 920 pixels
Height : 1 080 pixels
Display aspect ratio : 16:9
Frame rate : 23.976 fps
Color space : YUV
Chroma subsampling : 4:2:0
Bit depth : 8 bits
Scan type : Progressive
Bits/(Pixel*Frame) : 0.124
Stream size : 156 MiB (77%)

Audio
ID : 4352 (0x1100)
Menu ID : 1 (0x1)
Format : PCM
Format settings, Endianness : Big
Format settings, Sign : Signed
Muxing mode : Blu-ray
Codec ID : 128
Duration : 3mn 31s
Bit rate mode : Constant
Bit rate : 1 536 Kbps
Channel count : 2 channels
Channel positions : Front: L R
Sampling rate : 48.0 KHz
Bit depth : 16 bits
Stream size : 38.7 MiB (19%)

8. Sun Is Up (2010), 00:03:14
General
ID : 0 (0x0)
Complete name : Inna - Sun Is Up (2010).m2ts
Format : BDAV
Format/Info : Blu-ray Video
File size : 205 MiB
Duration : 3mn 14s
Overall bit rate mode : Variable
Overall bit rate : 8 868 Kbps
Maximum Overall bit rate : 48.0 Mbps

Video
ID : 4113 (0x1011)
Menu ID : 1 (0x1)
Format : AVC
Format/Info : Advanced Video Codec
Format profile : High@L4.0
Format settings, CABAC : Yes
Format settings, ReFrames : 2 frames
Format settings, GOP : M=2, N=12
Codec ID : 27
Duration : 3mn 14s
Bit rate mode : Variable
Bit rate : 7 000 Kbps
Width : 1 920 pixels
Height : 1 080 pixels
Display aspect ratio : 16:9
Frame rate : 23.976 fps
Color space : YUV
Chroma subsampling : 4:2:0
Bit depth : 8 bits
Scan type : Progressive
Bits/(Pixel*Frame) : 0.141
Stream size : 161 MiB (79%)

Audio
ID : 4352 (0x1100)
Menu ID : 1 (0x1)
Format : PCM
Format settings, Endianness : Big
Format settings, Sign : Signed
Muxing mode : Blu-ray
Codec ID : 128
Duration : 3mn 14s
Bit rate mode : Constant
Bit rate : 1 536 Kbps
Channel count : 2 channels
Channel positions : Front: L R
Sampling rate : 48.0 KHz
Bit depth : 16 bits
Stream size : 35.6 MiB (17%)

9. Club Rocker (2011), 00:03:59
General
ID : 0 (0x0)
Complete name : Inna - Club Rocker (2011).m2ts
Format : BDAV
Format/Info : Blu-ray Video
File size : 313 MiB
Duration : 3mn 59s
Overall bit rate mode : Variable
Overall bit rate : 11.0 Mbps
Maximum Overall bit rate : 48.0 Mbps

Video
ID : 4113 (0x1011)
Menu ID : 1 (0x1)
Format : AVC
Format/Info : Advanced Video Codec
Format profile : High@L4.0
Format settings, CABAC : Yes
Format settings, ReFrames : 2 frames
Format settings, GOP : M=2, N=12
Codec ID : 27
Duration : 3mn 59s
Bit rate mode : Variable
Bit rate : 8 992 Kbps
Maximum bit rate : 10 000 Kbps
Width : 1 920 pixels
Height : 1 080 pixels
Display aspect ratio : 16:9
Frame rate : 23.976 fps
Color space : YUV
Chroma subsampling : 4:2:0
Bit depth : 8 bits
Scan type : Progressive
Bits/(Pixel*Frame) : 0.181
Stream size : 257 MiB (82%)

Audio
ID : 4352 (0x1100)
Menu ID : 1 (0x1)
Format : PCM
Format settings, Endianness : Big
Format settings, Sign : Signed
Muxing mode : Blu-ray
Codec ID : 128
Duration : 3mn 59s
Bit rate mode : Constant
Bit rate : 1 536 Kbps
Channel count : 2 channels
Channel positions : Front: L R
Sampling rate : 48.0 KHz
Bit depth : 16 bits
Stream size : 43.8 MiB (14%)

10. Un Momento (2011), 00:04:03
General
ID : 1 (0x1)
Complete name : I:\Up_Load\Inna - The Video Collection\inna_the_video_collection\Inna - Un Momento (2011).m2ts
Format : BDAV
Format/Info : Blu-ray Video
File size : 372 MiB
Duration : 4mn 3s
Overall bit rate mode : Variable
Overall bit rate : 12.9 Mbps
Maximum Overall bit rate : 35.5 Mbps

Video
ID : 4113 (0x1011)
Menu ID : 1 (0x1)
Format : AVC
Format/Info : Advanced Video Codec
Format profile : High@L5.0
Format settings, CABAC : Yes
Format settings, ReFrames : 8 frames
Codec ID : 27
Duration : 4mn 3s
Bit rate mode : Variable
Bit rate : 10.8 Mbps
Maximum bit rate : 40.0 Mbps
Width : 1 920 pixels
Height : 1 080 pixels
Display aspect ratio : 16:9
Frame rate mode : Variable
Color space : YUV
Chroma subsampling : 4:2:0
Bit depth : 8 bits
Scan type : Progressive
Stream size : 313 MiB (84%)
Writing library : x264 core 130
Encoding settings : cabac=1 / ref=8 / deblock=1:0:0 / analyse=0x3:0x133 / me=umh / subme=9 / psy=1 / psy_rd=1.00:0.00 / mixed_ref=1 / me_range=16 / chroma_me=1 / trellis=2 / 8x8dct=1 / cqm=0 / deadzone=21,11 / fast_pskip=1 / chroma_qp_offset=-2 / threads=3 / lookahead_threads=1 / sliced_threads=0 / nr=0 / decimate=1 / interlaced=0 / bluray_compat=0 / constrained_intra=0 / bframes=3 / b_pyramid=2 / b_adapt=2 / b_bias=0 / direct=3 / weightb=1 / open_gop=0 / weightp=2 / keyint=250 / keyint_min=23 / scenecut=40 / intra_refresh=0 / rc_lookahead=60 / rc=crf / mbtree=1 / crf=20.0 / qcomp=0.60 / qpmin=0 / qpmax=69 / qpstep=4 / ip_ratio=1.40 / aq=1:1.0
Language : English

Audio
ID : 4352 (0x1100)
Menu ID : 1 (0x1)
Format : PCM
Format settings, Endianness : Big
Format settings, Sign : Signed
Muxing mode : Blu-ray
Codec ID : 128
Duration : 4mn 3s
Bit rate mode : Constant
Bit rate : 1 536 Kbps
Channel count : 2 channels
Channel positions : Front: L R
Sampling rate : 48.0 KHz
Bit depth : 16 bits
Stream size : 44.5 MiB (12%)

11. Endless (2011), 00:03:11
General
ID : 0 (0x0)
Complete name : Inna - Endless (2011).m2ts
Format : BDAV
Format/Info : Blu-ray Video
File size : 190 MiB
Duration : 3mn 11s
Overall bit rate mode : Variable
Overall bit rate : 8 286 Kbps
Maximum Overall bit rate : 48.0 Mbps

Video
ID : 4113 (0x1011)
Menu ID : 1 (0x1)
Format : AVC
Format/Info : Advanced Video Codec
Format profile : High@L4.0
Format settings, CABAC : Yes
Format settings, ReFrames : 2 frames
Codec ID : 27
Duration : 3mn 11s
Bit rate mode : Variable
Bit rate : 6 413 Kbps
Maximum bit rate : 7 000 Kbps
Width : 1 920 pixels
Height : 1 080 pixels
Display aspect ratio : 16:9
Frame rate : 23.976 fps
Color space : YUV
Chroma subsampling : 4:2:0
Bit depth : 8 bits
Scan type : Progressive
Bits/(Pixel*Frame) : 0.129
Stream size : 147 MiB (77%)

Audio
ID : 4352 (0x1100)
Menu ID : 1 (0x1)
Format : PCM
Format settings, Endianness : Big
Format settings, Sign : Signed
Muxing mode : Blu-ray
Codec ID : 128
Duration : 3mn 11s
Bit rate mode : Constant
Bit rate : 1 536 Kbps
Channel count : 2 channels
Channel positions : Front: L R
Sampling rate : 48.0 KHz
Bit depth : 16 bits
Stream size : 35.2 MiB (19%)

12. Wow (2012), 00:04:51
General
ID : 0 (0x0)
Complete name : Inna - Wow (2012).m2ts
Format : BDAV
Format/Info : Blu-ray Video
File size : 386 MiB
Duration : 4mn 51s
Overall bit rate mode : Variable
Overall bit rate : 11.1 Mbps
Maximum Overall bit rate : 48.0 Mbps

Video
ID : 4113 (0x1011)
Menu ID : 1 (0x1)
Format : AVC
Format/Info : Advanced Video Codec
Format profile : High@L4.0
Format settings, CABAC : Yes
Format settings, ReFrames : 2 frames
Codec ID : 27
Duration : 4mn 51s
Bit rate mode : Variable
Bit rate : 9 124 Kbps
Maximum bit rate : 10 000 Kbps
Width : 1 920 pixels
Height : 1 080 pixels
Display aspect ratio : 16:9
Frame rate : 23.976 fps
Color space : YUV
Chroma subsampling : 4:2:0
Bit depth : 8 bits
Scan type : Progressive
Bits/(Pixel*Frame) : 0.184
Stream size : 317 MiB (82%)

Audio
ID : 4352 (0x1100)
Menu ID : 1 (0x1)
Format : PCM
Format settings, Endianness : Big
Format settings, Sign : Signed
Muxing mode : Blu-ray
Codec ID : 128
Duration : 4mn 51s
Bit rate mode : Constant
Bit rate : 1 536 Kbps
Channel count : 2 channels
Channel positions : Front: L R
Sampling rate : 48.0 KHz
Bit depth : 16 bits
Stream size : 53.4 MiB (14%)

13. Crazy Sexy Wild (2012), 00:03:21
General
ID : 0 (0x0)
Complete name : Inna - Crazy Sexy Wild (2012).m2ts
Format : BDAV
Format/Info : Blu-ray Video
File size : 264 MiB
Duration : 3mn 21s
Overall bit rate mode : Variable
Overall bit rate : 11.0 Mbps
Maximum Overall bit rate : 48.0 Mbps

Video
ID : 4113 (0x1011)
Menu ID : 1 (0x1)
Format : AVC
Format/Info : Advanced Video Codec
Format profile : High@L4.0
Format settings, CABAC : Yes
Format settings, ReFrames : 2 frames
Codec ID : 27
Duration : 3mn 21s
Bit rate mode : Variable
Bit rate : 9 022 Kbps
Maximum bit rate : 10 000 Kbps
Width : 1 920 pixels
Height : 1 080 pixels
Display aspect ratio : 16:9
Frame rate : 23.976 fps
Color space : YUV
Chroma subsampling : 4:2:0
Bit depth : 8 bits
Scan type : Progressive
Bits/(Pixel*Frame) : 0.181
Stream size : 217 MiB (82%)

Audio
ID : 4352 (0x1100)
Menu ID : 1 (0x1)
Format : PCM
Format settings, Endianness : Big
Format settings, Sign : Signed
Muxing mode : Blu-ray
Codec ID : 128
Duration : 3mn 21s
Bit rate mode : Constant
Bit rate : 1 536 Kbps
Channel count : 2 channels
Channel positions : Front: L R
Sampling rate : 48.0 KHz
Bit depth : 16 bits
Stream size : 36.9 MiB (14%)

14. J'Adore (Lyrics Video) (2012), 00:03:13
General
ID : 0 (0x0)
Complete name : Inna - J'Adore (Lyrics Video) (2012).m2ts
Format : BDAV
Format/Info : Blu-ray Video
File size : 532 MiB
Duration : 3mn 13s
Overall bit rate mode : Variable
Overall bit rate : 23.0 Mbps
Maximum Overall bit rate : 48.0 Mbps

Video
ID : 4113 (0x1011)
Menu ID : 1 (0x1)
Format : AVC
Format/Info : Advanced Video Codec
Format profile : High@L4.0
Format settings, CABAC : Yes
Format settings, ReFrames : 2 frames
Codec ID : 27
Duration : 3mn 13s
Bit rate mode : Variable
Bit rate : 20.6 Mbps
Maximum bit rate : 22.0 Mbps
Width : 1 920 pixels
Height : 1 080 pixels
Display aspect ratio : 16:9
Frame rate : 23.976 fps
Color space : YUV
Chroma subsampling : 4:2:0
Bit depth : 8 bits
Scan type : Progressive
Bits/(Pixel*Frame) : 0.414
Stream size : 475 MiB (89%)

Audio
ID : 4352 (0x1100)
Menu ID : 1 (0x1)
Format : PCM
Format settings, Endianness : Big
Format settings, Sign : Signed
Muxing mode : Blu-ray
Codec ID : 128
Duration : 3mn 13s
Bit rate mode : Constant
Bit rate : 1 536 Kbps
Channel count : 2 channels
Channel positions : Front: L R
Sampling rate : 48.0 KHz
Bit depth : 16 bits
Stream size : 35.5 MiB (7%)

15. Caliente (2012), 00:03:21
General
ID : 0 (0x0)
Complete name : Inna - Caliente (2012).m2ts
Format : BDAV
Format/Info : Blu-ray Video
File size : 260 MiB
Duration : 3mn 21s
Overall bit rate mode : Variable
Overall bit rate : 10.8 Mbps
Maximum Overall bit rate : 48.0 Mbps

Video
ID : 4113 (0x1011)
Menu ID : 1 (0x1)
Format : AVC
Format/Info : Advanced Video Codec
Format profile : High@L4.0
Format settings, CABAC : Yes
Format settings, ReFrames : 2 frames
Codec ID : 27
Duration : 3mn 21s
Bit rate mode : Variable
Bit rate : 8 852 Kbps
Maximum bit rate : 10 000 Kbps
Width : 1 920 pixels
Height : 1 080 pixels
Display aspect ratio : 16:9
Frame rate : 23.976 fps
Color space : YUV
Chroma subsampling : 4:2:0
Bit depth : 8 bits
Scan type : Progressive
Bits/(Pixel*Frame) : 0.178
Stream size : 213 MiB (82%)

Audio
ID : 4352 (0x1100)
Menu ID : 1 (0x1)
Format : PCM
Format settings, Endianness : Big
Format settings, Sign : Signed
Muxing mode : Blu-ray
Codec ID : 128
Duration : 3mn 21s
Bit rate mode : Constant
Bit rate : 1 536 Kbps
Channel count : 2 channels
Channel positions : Front: L R
Sampling rate : 48.0 KHz
Bit depth : 16 bits
Stream size : 37.0 MiB (14%)

16. Inndia feat. Play & Win (2012), 00:03:33
General
ID : 0 (0x0)
Complete name : Inna feat Play & Win - Inndia (2012).m2ts
Format : BDAV
Format/Info : Blu-ray Video
File size : 282 MiB
Duration : 3mn 33s
Overall bit rate mode : Variable
Overall bit rate : 11.1 Mbps
Maximum Overall bit rate : 48.0 Mbps

Video
ID : 4113 (0x1011)
Menu ID : 1 (0x1)
Format : AVC
Format/Info : Advanced Video Codec
Format profile : High@L4.0
Format settings, CABAC : Yes
Format settings, ReFrames : 2 frames
Format settings, GOP : M=2, N=12
Codec ID : 27
Duration : 3mn 33s
Bit rate mode : Variable
Bit rate : 9 116 Kbps
Maximum bit rate : 10 000 Kbps
Width : 1 920 pixels
Height : 1 080 pixels
Display aspect ratio : 16:9
Frame rate : 23.976 fps
Color space : YUV
Chroma subsampling : 4:2:0
Bit depth : 8 bits
Scan type : Progressive
Bits/(Pixel*Frame) : 0.183
Stream size : 232 MiB (82%)

Audio
ID : 4352 (0x1100)
Menu ID : 1 (0x1)
Format : PCM
Format settings, Endianness : Big
Format settings, Sign : Signed
Muxing mode : Blu-ray
Codec ID : 128
Duration : 3mn 33s
Bit rate mode : Constant
Bit rate : 1 536 Kbps
Channel count : 2 channels
Channel positions : Front: L R
Sampling rate : 48.0 KHz
Bit depth : 16 bits
Stream size : 39.0 MiB (14%)

17. More Than Friends (2013), 00:03:25
General
Complete name : Inna - More Than Friends (2013) (4-2-2).mp4
Format : MPEG-4
Format profile : Base Media
Codec ID : isom
File size : 250 MiB
Duration : 3mn 25s
Overall bit rate : 10.2 Mbps
Movie name : Inna - More Than Friends (MP2-Master-1080p-MPEG2)
Performer : WinX HD Video Converter Deluxe
Writing application : Lavf55.19.104

Video
ID : 1
Format : AVC
Format/Info : Advanced Video Codec
Format profile : High 4:2:2@L5.0
Format settings, CABAC : Yes
Format settings, ReFrames : 8 frames
Codec ID : avc1
Codec ID/Info : Advanced Video Coding
Duration : 3mn 25s
Bit rate : 10 000 Kbps
Width : 1 920 pixels
Height : 1 080 pixels
Display aspect ratio : 16:9
Frame rate mode : Constant
Frame rate : 23.976 fps
Color space : YUV
Chroma subsampling : 4:2:2
Bit depth : 8 bits
Scan type : Progressive
Bits/(Pixel*Frame) : 0.201
Stream size : 243 MiB (97%)
Writing library : x264 core 130
Encoding settings : cabac=1 / ref=8 / deblock=1:0:0 / analyse=0x3:0x133 / me=umh / subme=9 / psy=1 / psy_rd=1.00:0.00 / mixed_ref=1 / me_range=16 / chroma_me=1 / trellis=2 / 8x8dct=1 / cqm=0 / deadzone=21,11 / fast_pskip=1 / chroma_qp_offset=-2 / threads=3 / lookahead_threads=1 / sliced_threads=0 / nr=0 / decimate=1 / interlaced=0 / bluray_compat=0 / constrained_intra=0 / bframes=3 / b_pyramid=2 / b_adapt=2 / b_bias=0 / direct=3 / weightb=1 / open_gop=0 / weightp=2 / keyint=250 / keyint_min=23 / scenecut=40 / intra_refresh=0 / rc_lookahead=60 / rc=abr / mbtree=1 / bitrate=10000 / ratetol=1.0 / qcomp=0.60 / qpmin=0 / qpmax=69 / qpstep=4 / ip_ratio=1.40 / aq=1:1.00

Audio
ID : 2
Format : AAC
Format/Info : Advanced Audio Codec
Format profile : LC
Codec ID : 40
Duration : 3mn 25s
Duration_LastFrame : -5ms
Bit rate mode : Constant
Bit rate : 256 Kbps
Channel count : 2 channels
Channel positions : Front: L R
Sampling rate : 48.0 KHz
Compression mode : Lossy
Stream size : 6.28 MiB (3%)

18. Carla's Dreams feat. Inna - P.O.H.U.I. (2013), 00:04:01
General
ID : 0 (0x0)
Complete name : Carla's Dreams feat Inna - P.O.H.U.I. (2013).m2ts
Format : BDAV
Format/Info : Blu-ray Video
File size : 237 MiB
Duration : 4mn 1s
Overall bit rate mode : Variable
Overall bit rate : 8 217 Kbps
Maximum Overall bit rate : 48.0 Mbps

Video
ID : 4113 (0x1011)
Menu ID : 1 (0x1)
Format : AVC
Format/Info : Advanced Video Codec
Format profile : High@L4.0
Format settings, CABAC : Yes
Format settings, ReFrames : 2 frames
Codec ID : 27
Duration : 4mn 1s
Bit rate mode : Variable
Bit rate : 6 347 Kbps
Maximum bit rate : 7 000 Kbps
Width : 1 920 pixels
Height : 1 080 pixels
Display aspect ratio : 16:9
Frame rate : 23.976 fps
Color space : YUV
Chroma subsampling : 4:2:0
Bit depth : 8 bits
Scan type : Progressive
Bits/(Pixel*Frame) : 0.128
Stream size : 183 MiB (77%)

Audio
ID : 4352 (0x1100)
Menu ID : 1 (0x1)
Format : PCM
Format settings, Endianness : Big
Format settings, Sign : Signed
Muxing mode : Blu-ray
Codec ID : 128
Duration : 4mn 1s
Bit rate mode : Constant
Bit rate : 1 536 Kbps
Channel count : 2 channels
Channel positions : Front: L R
Sampling rate : 48.0 KHz
Bit depth : 16 bits
Stream size : 44.3 MiB (19%)

19. Spre mare (2013), 00:03:43
General
ID : 1 (0x1)
Complete name : Inna - Spre mare (2013).m2ts
Format : BDAV
Format/Info : Blu-ray Video
File size : 216 MiB
Duration : 3mn 43s
Overall bit rate mode : Variable
Overall bit rate : 8 100 Kbps
Maximum Overall bit rate : 35.5 Mbps

Video
ID : 4113 (0x1011)
Menu ID : 1 (0x1)
Format : AVC
Format/Info : Advanced Video Codec
Format profile : High@L4.0
Format settings, CABAC : Yes
Format settings, ReFrames : 2 frames
Codec ID : 27
Duration : 3mn 43s
Bit rate mode : Variable
Bit rate : 6 234 Kbps
Maximum bit rate : 7 000 Kbps
Width : 1 920 pixels
Height : 1 080 pixels
Display aspect ratio : 16:9
Frame rate : 23.976 fps
Color space : YUV
Chroma subsampling : 4:2:0
Bit depth : 8 bits
Scan type : Progressive
Bits/(Pixel*Frame) : 0.125
Stream size : 166 MiB (77%)

Audio
ID : 4352 (0x1100)
Menu ID : 1 (0x1)
Format : PCM
Format settings, Endianness : Big
Format settings, Sign : Signed
Muxing mode : Blu-ray
Codec ID : 128
Duration : 3mn 43s
Bit rate mode : Constant
Bit rate : 1 536 Kbps
Channel count : 2 channels
Channel positions : Front: L R
Sampling rate : 48.0 KHz
Bit depth : 16 bits
Stream size : 40.9 MiB (19%)

20. More Than Friends feat. Daddy Yankee (2013), 00:04:21
General
ID : 1 (0x1)
Complete name : Inna feat Daddy Yankee - More Than Friends (2013).m2ts
Format : BDAV
Format/Info : Blu-ray Video
File size : 370 MiB
Duration : 4mn 21s
Overall bit rate mode : Variable
Overall bit rate : 11.9 Mbps
Maximum Overall bit rate : 35.5 Mbps

Video
ID : 4113 (0x1011)
Menu ID : 1 (0x1)
Format : AVC
Format/Info : Advanced Video Codec
Format profile : High@L5.0
Format settings, CABAC : Yes
Format settings, ReFrames : 8 frames
Codec ID : 27
Duration : 4mn 21s
Bit rate mode : Variable
Bit rate : 10 000 Kbps
Maximum bit rate : 40.0 Mbps
Width : 1 920 pixels
Height : 1 080 pixels
Display aspect ratio : 16:9
Frame rate mode : Variable
Color space : YUV
Chroma subsampling : 4:2:0
Bit depth : 8 bits
Scan type : Progressive
Stream size : 307 MiB (83%)
Writing library : x264 core 130
Encoding settings : cabac=1 / ref=8 / deblock=1:0:0 / analyse=0x3:0x133 / me=umh / subme=9 / psy=1 / psy_rd=1.00:0.00 / mixed_ref=1 / me_range=16 / chroma_me=1 / trellis=2 / 8x8dct=1 / cqm=0 / deadzone=21,11 / fast_pskip=1 / chroma_qp_offset=-2 / threads=3 / lookahead_threads=1 / sliced_threads=0 / nr=0 / decimate=1 / interlaced=0 / bluray_compat=0 / constrained_intra=0 / bframes=3 / b_pyramid=2 / b_adapt=2 / b_bias=0 / direct=3 / weightb=1 / open_gop=0 / weightp=2 / keyint=250 / keyint_min=23 / scenecut=40 / intra_refresh=0 / rc_lookahead=60 / rc=abr / mbtree=1 / bitrate=10000 / ratetol=1.0 / qcomp=0.60 / qpmin=0 / qpmax=69 / qpstep=4 / ip_ratio=1.40 / aq=1:1.0
Language : English

Audio
ID : 4352 (0x1100)
Menu ID : 1 (0x1)
Format : PCM
Format settings, Endianness : Big
Format settings, Sign : Signed
Muxing mode : Blu-ray
Codec ID : 128
Duration : 4mn 14s
Bit rate mode : Constant
Bit rate : 1 536 Kbps
Channel count : 2 channels
Channel positions : Front: L R
Sampling rate : 48.0 KHz
Bit depth : 16 bits
Stream size : 46.6 MiB (13%)

21. Dame Tu Amor feat. Reik (2013), 00:03:37
General
ID : 0 (0x0)
Complete name : Inna feat Reik - Dame Tu Amor (2013).m2ts
Format : BDAV
Format/Info : Blu-ray Video
File size : 191 MiB
Duration : 3mn 37s
Overall bit rate mode : Variable
Overall bit rate : 7 371 Kbps
Maximum Overall bit rate : 48.0 Mbps

Video
ID : 4113 (0x1011)
Menu ID : 1 (0x1)
Format : AVC
Format/Info : Advanced Video Codec
Format profile : High@L4.0
Format settings, CABAC : Yes
Format settings, ReFrames : 2 frames
Format settings, GOP : M=2, N=12
Codec ID : 27
Duration : 3mn 37s
Bit rate mode : Variable
Bit rate : 5 534 Kbps
Maximum bit rate : 6 000 Kbps
Width : 1 920 pixels
Height : 1 080 pixels
Display aspect ratio : 16:9
Frame rate : 23.976 fps
Color space : YUV
Chroma subsampling : 4:2:0
Bit depth : 8 bits
Scan type : Progressive
Bits/(Pixel*Frame) : 0.111
Stream size : 143 MiB (75%)

Audio
ID : 4352 (0x1100)
Menu ID : 1 (0x1)
Format : PCM
Format settings, Endianness : Big
Format settings, Sign : Signed
Muxing mode : Blu-ray
Codec ID : 128
Duration : 3mn 37s
Bit rate mode : Constant
Bit rate : 1 536 Kbps
Channel count : 2 channels
Channel positions : Front: L R
Sampling rate : 48.0 KHz
Bit depth : 16 bits
Stream size : 39.8 MiB (21%)

22. Be My Lover (2013), 00:03:33
General
ID : 0 (0x0)
Complete name : Inna - Be My Lover (2013).m2ts
Format : BDAV
Format/Info : Blu-ray Video
File size : 240 MiB
Duration : 3mn 33s
Overall bit rate mode : Variable
Overall bit rate : 9 401 Kbps
Maximum Overall bit rate : 48.0 Mbps

Video
ID : 4113 (0x1011)
Menu ID : 1 (0x1)
Format : AVC
Format/Info : Advanced Video Codec
Format profile : High@L4.0
Format settings, CABAC : Yes
Format settings, ReFrames : 2 frames
Codec ID : 27
Duration : 3mn 33s
Bit rate mode : Variable
Bit rate : 7 484 Kbps
Maximum bit rate : 8 000 Kbps
Width : 1 920 pixels
Height : 1 080 pixels
Display aspect ratio : 16:9
Frame rate : 23.976 fps
Color space : YUV
Chroma subsampling : 4:2:0
Bit depth : 8 bits
Scan type : Progressive
Bits/(Pixel*Frame) : 0.151
Stream size : 191 MiB (80%)

Audio
ID : 4352 (0x1100)
Menu ID : 1 (0x1)
Format : PCM
Format settings, Endianness : Big
Format settings, Sign : Signed
Muxing mode : Blu-ray
Codec ID : 128
Duration : 3mn 33s
Bit rate mode : Constant
Bit rate : 1 536 Kbps
Channel count : 2 channels
Channel positions : Front: L R
Sampling rate : 48.0 KHz
Bit depth : 16 bits
Stream size : 39.1 MiB (16%)

23. In Your Eyes feat. Yandel (2013), 00:03:16
General
ID : 1 (0x1)
Complete name : Inna feat Yandel - In Your Eyes (2013) (4-2-2).m2ts
Format : BDAV
Format/Info : Blu-ray Video
File size : 289 MiB
Duration : 3mn 16s
Overall bit rate mode : Variable
Overall bit rate : 12.3 Mbps
Maximum Overall bit rate : 35.5 Mbps

Video
ID : 4113 (0x1011)
Menu ID : 1 (0x1)
Format : AVC
Format/Info : Advanced Video Codec
Format profile : High 4:2:2@L5.0
Format settings, CABAC : Yes
Format settings, ReFrames : 8 frames
Codec ID : 27
Duration : 3mn 17s
Bit rate mode : Variable
Bit rate : 10 000 Kbps
Maximum bit rate : 40.0 Mbps
Width : 1 920 pixels
Height : 1 080 pixels
Display aspect ratio : 16:9
Frame rate mode : Variable
Color space : YUV
Chroma subsampling : 4:2:2
Bit depth : 8 bits
Scan type : Progressive
Stream size : 242 MiB (84%)
Writing library : x264 core 130
Encoding settings : cabac=1 / ref=8 / deblock=1:0:0 / analyse=0x3:0x133 / me=umh / subme=9 / psy=1 / psy_rd=1.00:0.00 / mixed_ref=1 / me_range=16 / chroma_me=1 / trellis=2 / 8x8dct=1 / cqm=0 / deadzone=21,11 / fast_pskip=1 / chroma_qp_offset=-2 / threads=3 / lookahead_threads=1 / sliced_threads=0 / nr=0 / decimate=1 / interlaced=0 / bluray_compat=0 / constrained_intra=0 / bframes=3 / b_pyramid=2 / b_adapt=2 / b_bias=0 / direct=3 / weightb=1 / open_gop=0 / weightp=2 / keyint=250 / keyint_min=23 / scenecut=40 / intra_refresh=0 / rc_lookahead=60 / rc=abr / mbtree=1 / bitrate=10000 / ratetol=1.0 / qcomp=0.60 / qpmin=0 / qpmax=69 / qpstep=4 / ip_ratio=1.40 / aq=1:1.0
Language : English

Audio
ID : 4352 (0x1100)
Menu ID : 1 (0x1)
Format : PCM
Format settings, Endianness : Big
Format settings, Sign : Signed
Muxing mode : Blu-ray
Codec ID : 128
Duration : 3mn 16s
Bit rate mode : Constant
Bit rate : 1 536 Kbps
Channel count : 2 channels
Channel positions : Front: L R
Sampling rate : 48.0 KHz
Bit depth : 16 bits
Stream size : 36.1 MiB (12%)
Скриншоты:


Время раздачи: До 5 первых раздач, далее по возможности
inna_the_video_collection_[nnm-club.ru].torrent
 Торрент: Платиновая раздача  Зарегистрирован
 
Скачать


Примагнититься
 Зарегистрирован:   06 Янв 2014 20:21:58
 Размер:   6,14 GB  (
 Рейтинг:   4,8 (Голосов: 73)
 Поблагодарили:   166
 Проверка:   Оформление проверено модератором 07 Янв 2014 17:03:22
Как cкачать  ·  Как раздать  ·  Правильно оформить  ·  Поднять ратио!  
TigTig ®
Стаж: 8 лет 5 мес.
Сообщений: 194
Ratio: 403,276
Поблагодарили: 9285
100%
witch.png
Установите кодеки ( K-Lite ). Несколько клипов с субдискретизацией насыщенности 4:2:2 (4-2-2) не всеми плеерами поддерживается.
Плеер MPC в составе K-Lite.
andron4472419
Стаж: 6 лет 5 мес.
Сообщений: 159
Ratio: 14,675
Поблагодарили: 12849
100%
огромное спасибо
Никулин Юрий
Стаж: 6 лет 11 мес.
Сообщений: 195
Ratio: 25,881
Раздал: 22,28 TB
100%
Откуда: Приволжский Ф.О.
russia.gif
Спасибо !!! Побольше бы таких раздач...
TigTig ®
Стаж: 8 лет 5 мес.
Сообщений: 194
Ratio: 403,276
Поблагодарили: 9285
100%
witch.png
Пожалуйста
clyng
Стаж: 6 лет 2 мес.
Сообщений: 11
Ratio: 0,096
100%
:респект:
stark1771
Стаж: 9 лет 6 мес.
Сообщений: 18
Ratio: 6,633
100%
Откуда: UA,Мелитополь
ussr.gif
а где знаменитая Coca-Cola ??

_________________
Бедным быть не стыдно, стыдно быть дешёвым
DREDNAUT
Стаж: 8 лет 5 мес.
Сообщений: 2
Ratio: 6,308
100%
kyrgyzstan.gif
:клево:
Показать сообщения:   
Начать новую тему   Ответить на тему    Торрент-трекер NNM-Club -> Театр и Музыкальное видео -> Музыкальные клипы Часовой пояс: GMT + 3
Страница 1 из 1