Классический форум-трекер
canvas not supported
Нас вместе: 4 065 102

Наше призвание / Я вожатый форпоста (4 серии) (1981, 1986) TVRip


 
 
RSS
Начать новую тему   Ответить на тему    Торрент-трекер NNM-Club -> Видео -> Отечественные Фильмы для детей
Автор Сообщение
ornellit ®
Стаж: 9 лет 1 мес.
Сообщений: 1747
Ratio: 152,344
Поблагодарили: 94951
100%
ukraine.gif
Наше призвание / Я вожатый форпоста (1981, 1986) TVRip
Русское название: Наше призвание / Я вожатый форпоста
Год выпуска: 1981, 1986
Жанр: Киноповесть, детский
Выпущено: СССР, Беларусьфильм

Описание фильма:
По произведениям, биографии, письмам и воспоминаниям писателя и педагога Михаила Гавриловича Огнева (Розанова).
Начинающая журналистка Варя пишет статью о заслуженном учителе Николае Ивановиче Гудкове. В течение трех вечеров он рассказывает девушке о самоуправлении в школе 20-х годов, друзьях, любимом учителе Михаиле Гавриловиче, сыгравшем большую роль в становлении его характера и выборе жизненного пути. Фильм "Я вожатый форпоста", является продолжением фильма "Наше призвание".

Режиссер: Геннадий Полока
Актеры: Валерий Золотухин, Павел Кадочников, Василий Мищенко, Георгий Тейх, Игорь Наумов, Ия Саввина, Федор Никитин, Валентина Теличкина, Юлия Бурыгина, Ирина Ожеховская-Пескова, Юрий Голубицкий, Любовь Малиновская, Иван Бортник, Алексей Кожевников, Лилия Гурова, Наталья Михайлова (II), Наталия Флоренская, Владимир Сальников (II), Мария Овчинникова, Андрей Анкудинов, Юрий Попович, Елена Майорова, Ольга Ипполитова, Илона Броневицкая, Василий Семенов, Леонид Захожаев, Владимир Смилянец, Юрий Вьюшин, Елена Шанина, Алексей Селиверстов, Анатолий Шлаустас, Лев Золотухин, Муза Крепкогорская

Продолжительность: 01:09:19 + 01:13:14 + 01:03:57 + 01:29:45



Видеокодек: DivX 5
Битрейт видео: ~1233 kb/s
Размер кадра: 512 x 384
Качество видео: TVRip
Аудиокодек: MP3, 1 ch
Битрейт аудио: 96 kb/s
Общее
Полное имя : \Наше призвание.1981-1986.DivX.TVRip\1 серия.1981.DivX.TVRip.avi
Формат : AVI
Формат/Информация : Audio Video Interleave
Размер файла : 664 Мбайт
Продолжительность : 1 ч. 9 м.
Общий поток : 1340 Кбит/сек
Название фильма : Nashe prizvanie (1of4)
Режиссёр : Belarus'fil'm
Дата записи : 1981
Программа кодирования : VirtualDubMod 1.5.10.1 (build 2366/release)
Библиотека кодирования : VirtualDubMod build 2366/release
Примечание : TVrip by Turtle @ XviDClub / DivX Pro 5.0.3 @ 0,252 bpp / Lame MP3 44,1 kHz Mono @ 96 kbps

Видео
Идентификатор : 0
Формат : MPEG-4 Visual
Параметр BVOP формата : 1
Параметр QPel формата : Нет
Параметр GMC формата : Без точки перехода
Параметр матрицы формата : Default (H.263)
Режим смешивания : Сжатый битовый поток
Идентификатор кодека : DX50
Идентификатор кодека/Подсказка : DivX 5
Продолжительность : 1 ч. 9 м.
Битрейт : 1234 Кбит/сек
Ширина : 512 пикселей
Высота : 384 пикселя
Соотношение сторон : 4:3
Частота кадров : 25,000 кадров/сек
Цветовое пространство : YUV
Субдискретизация насыщенности : 4:2:0
Битовая глубина : 8 бит
Тип развёртки : Прогрессивная
Метод сжатия : С потерями
Бит/(Пиксели*Кадры) : 0.251
Размер потока : 612 Мбайт (92%)
Библиотека кодирования : DivX 5.0.3 (UTC 2003-01-24)

Аудио
Идентификатор : 1
Формат : MPEG Audio
Версия формата : Version 1
Профиль формата : Layer 3
Идентификатор кодека : 55
Идентификатор кодека/Подсказка : MP3
Продолжительность : 1 ч. 9 м.
Вид битрейта : Постоянный
Битрейт : 96,0 Кбит/сек
Каналы : 1 канал
Частота : 44,1 КГц
Метод сжатия : С потерями
Размер потока : 47,6 Мбайт (7%)
Выравнивание : Разделение по промежуткам
Продолжительность промежутка : 39 мс. (0,97 видеокадр)
Время предзагрузки промежутка : 500 мс.
Общее
Полное имя : \Наше призвание.1981-1986.DivX.TVRip\2 серия.1981.DivX.TVRip.avi
Формат : AVI
Формат/Информация : Audio Video Interleave
Размер файла : 702 Мбайт
Продолжительность : 1 ч. 13 м.
Общий поток : 1339 Кбит/сек
Название фильма : Nashe prizvanie (2of4)
Режиссёр : Belarus'fil'm
Дата записи : 1981
Программа кодирования : VirtualDubMod 1.5.10.1 (build 2366/release)
Библиотека кодирования : VirtualDubMod build 2366/release
Примечание : TVrip by Turtle @ XviDClub / DivX Pro 5.0.3 @ 0,252 bpp / Lame MP3 44,1 kHz Mono @ 96 kbps

Видео
Идентификатор : 0
Формат : MPEG-4 Visual
Параметр BVOP формата : 1
Параметр QPel формата : Нет
Параметр GMC формата : Без точки перехода
Параметр матрицы формата : Default (H.263)
Режим смешивания : Сжатый битовый поток
Идентификатор кодека : DX50
Идентификатор кодека/Подсказка : DivX 5
Продолжительность : 1 ч. 13 м.
Битрейт : 1234 Кбит/сек
Ширина : 512 пикселей
Высота : 384 пикселя
Соотношение сторон : 4:3
Частота кадров : 25,000 кадров/сек
Цветовое пространство : YUV
Субдискретизация насыщенности : 4:2:0
Битовая глубина : 8 бит
Тип развёртки : Прогрессивная
Метод сжатия : С потерями
Бит/(Пиксели*Кадры) : 0.251
Размер потока : 646 Мбайт (92%)
Библиотека кодирования : DivX 5.0.3 (UTC 2003-01-24)

Аудио
Идентификатор : 1
Формат : MPEG Audio
Версия формата : Version 1
Профиль формата : Layer 3
Идентификатор кодека : 55
Идентификатор кодека/Подсказка : MP3
Продолжительность : 1 ч. 13 м.
Вид битрейта : Постоянный
Битрейт : 96,0 Кбит/сек
Каналы : 1 канал
Частота : 44,1 КГц
Метод сжатия : С потерями
Размер потока : 50,3 Мбайт (7%)
Выравнивание : Разделение по промежуткам
Продолжительность промежутка : 40 мс. (1,00 видеокадр)
Время предзагрузки промежутка : 500 мс.
Общее
Полное имя : \Наше призвание.1981-1986.DivX.TVRip\3 серия.1986.DivX.TVRip.avi
Формат : AVI
Формат/Информация : Audio Video Interleave
Размер файла : 613 Мбайт
Продолжительность : 1 ч. 3 м.
Общий поток : 1340 Кбит/сек
Название фильма : Nashe prizvanie (3of4)
Режиссёр : Belarus'fil'm
Дата записи : 1981
Программа кодирования : VirtualDubMod 1.5.10.1 (build 2366/release)
Библиотека кодирования : VirtualDubMod build 2366/release
Примечание : TVrip by Turtle @ XviDClub / DivX Pro 5.0.3 @ 0,252 bpp / Lame MP3 44,1 kHz Mono @ 96 kbps

Видео
Идентификатор : 0
Формат : MPEG-4 Visual
Параметр BVOP формата : 1
Параметр QPel формата : Нет
Параметр GMC формата : Без точки перехода
Параметр матрицы формата : Default (H.263)
Режим смешивания : Сжатый битовый поток
Идентификатор кодека : DX50
Идентификатор кодека/Подсказка : DivX 5
Продолжительность : 1 ч. 3 м.
Битрейт : 1234 Кбит/сек
Ширина : 512 пикселей
Высота : 384 пикселя
Соотношение сторон : 4:3
Частота кадров : 25,000 кадров/сек
Цветовое пространство : YUV
Субдискретизация насыщенности : 4:2:0
Битовая глубина : 8 бит
Тип развёртки : Прогрессивная
Метод сжатия : С потерями
Бит/(Пиксели*Кадры) : 0.251
Размер потока : 564 Мбайт (92%)
Библиотека кодирования : DivX 5.0.3 (UTC 2003-01-24)

Аудио
Идентификатор : 1
Формат : MPEG Audio
Версия формата : Version 1
Профиль формата : Layer 3
Идентификатор кодека : 55
Идентификатор кодека/Подсказка : MP3
Продолжительность : 1 ч. 3 м.
Вид битрейта : Постоянный
Битрейт : 96,0 Кбит/сек
Каналы : 1 канал
Частота : 44,1 КГц
Метод сжатия : С потерями
Размер потока : 43,9 Мбайт (7%)
Выравнивание : Разделение по промежуткам
Продолжительность промежутка : 39 мс. (0,97 видеокадр)
Время предзагрузки промежутка : 500 мс.
Общее
Полное имя : \Наше призвание.1981-1986.DivX.TVRip\4 серия.1986.DivX.TVRip.avi
Формат : AVI
Формат/Информация : Audio Video Interleave
Размер файла : 702 Мбайт
Продолжительность : 1 ч. 29 м.
Общий поток : 1094 Кбит/сек
Название фильма : Ja - vozhatyj forposta (Nashe prizvanie 4of4)
Режиссёр : Belarus'fil'm
Дата записи : 1986
Программа кодирования : VirtualDubMod 1.5.10.1 (build 2366/release)
Библиотека кодирования : VirtualDubMod build 2366/release
Примечание : TVrip by Turtle @ XviDClub / DivX Pro 5.0.3 @ 0,202 bpp / Lame MP3 44,1 kHz Mono @ 96 kbps

Видео
Идентификатор : 0
Формат : MPEG-4 Visual
Параметр BVOP формата : 1
Параметр QPel формата : Нет
Параметр GMC формата : Без точки перехода
Параметр матрицы формата : Default (H.263)
Режим смешивания : Сжатый битовый поток
Идентификатор кодека : DX50
Идентификатор кодека/Подсказка : DivX 5
Продолжительность : 1 ч. 29 м.
Битрейт : 988 Кбит/сек
Ширина : 512 пикселей
Высота : 384 пикселя
Соотношение сторон : 4:3
Частота кадров : 25,000 кадров/сек
Цветовое пространство : YUV
Субдискретизация насыщенности : 4:2:0
Битовая глубина : 8 бит
Тип развёртки : Прогрессивная
Метод сжатия : С потерями
Бит/(Пиксели*Кадры) : 0.201
Размер потока : 634 Мбайт (90%)
Библиотека кодирования : DivX 5.0.3 (UTC 2003-01-24)

Аудио
Идентификатор : 1
Формат : MPEG Audio
Версия формата : Version 1
Профиль формата : Layer 3
Идентификатор кодека : 55
Идентификатор кодека/Подсказка : MP3
Продолжительность : 1 ч. 29 м.
Вид битрейта : Постоянный
Битрейт : 96,0 Кбит/сек
Каналы : 1 канал
Частота : 44,1 КГц
Метод сжатия : С потерями
Размер потока : 61,6 Мбайт (9%)
Выравнивание : Разделение по промежуткам
Продолжительность промежутка : 39 мс. (0,97 видеокадр)
Время предзагрузки промежутка : 500 мс.
Скриншоты:


Время раздачи: С 13:00 до 21:00 (до 5 скачавших)
Приятного просмотра!
[NNM-Club.ru]_Nashe prizvanie.1981-1986.DivX.TVRip.torrent
 Торрент: Платиновая раздача  Зарегистрирован
 
Скачать


Примагнититься
 Зарегистрирован:   19 Июн 2012 21:00:19
 Размер:   2,62 GB  (
 Рейтинг:   5 (Голосов: 14)
 Поблагодарили:   36
 Проверка:   Оформление проверено модератором 19 Июн 2012 21:51:55
Как cкачать  ·  Как раздать  ·  Правильно оформить  ·  Поднять ратио!  
sergey_pv
Стаж: 8 лет
Сообщений: 332
Ratio: 10,115
100%
Откуда: Средняя полоса России
russia.gif
" Шкрабы заседали в Шкрабилоке." Классный фильм.

_________________
Сон разума рождает чудовищ.
gtt2000
Стаж: 7 лет 6 мес.
Сообщений: 17
Ratio: 4,193
Раздал: 3,54 TB
100%
ornellit
Пожалуйста, начните раздавать Наше призвание!
Показать сообщения:   
Начать новую тему   Ответить на тему    Торрент-трекер NNM-Club -> Видео -> Отечественные Фильмы для детей Часовой пояс: GMT + 3
Страница 1 из 1