Классический форум-трекер
canvas not supported
Нас вместе: 4 084 133
Платим за отзывы

Би-2 feat. Elizaveta feat. А. Заворотнюк - Только любовь починит (OST «Мамы 3») (2014) HDTVRip [1080p]


 
 
RSS
Начать новую тему   Ответить на тему    Торрент-трекер NNM-Club -> Театр и Музыкальное видео -> Музыкальные клипы
Автор Сообщение
andron4472419 ®
Стаж: 6 лет 9 мес.
Сообщений: 159
Ratio: 14,362
Поблагодарили: 12872
100%
Би-2 feat. Elizaveta feat. А. Заворотнюк - Только любовь починит (OST «Мамы 3») (2014) HDTVRip [1080p]
Исполнитель: Би-2, Elizaveta, А. Заворотнюк
Год выпуска: 2014
Жанр: Рок
Продолжительность: 00:03:21

Описание: Би-2 представили новый клип, снятый к песне «Только любовь починит». Композиция является одним из саундтреков к фильму «Мамы-3», премьера которого назначена на конец декабря этого года. Одну из главных ролей в киноленте исполнила Анастасия Заворотнюк. Поэтому не вызывает удивление тот факт, что группа пригласила ее для участия в съемках в клипа. Часть видеоряда состоит из кадров фильма. Остальная часть видео снята на затемненной съемочной площадке. Декорации отсутствуют, а из спецэффектов есть лишь падающий искусственный снег. Камера фокусируется то на музыкантах, то на подпевающей у микрофона Анастасии. Несмотря на активное участие Заворотнюк в клипе, вокальной партии как таковой ей не досталось, поэтому она исполняет роль бэквокалистки.

Качество видео: HDTVRip [1080p]
Видеокодек: MPEG-4 AVC/H.264
Битрейт видео: ~14,7 Мбит/с
Размер кадра: 1920x1080 (16:9), 24,000 кадров/с
Аудиокодек: AC3, 2 ch, stereo
Битрейт аудио: 448 Кбит/с
Общее
Уникальный идентификатор : 168348648403719580577546155723716462494 (0x7EA6C532C2870C1E037BA147C20E879E)
Полное имя : F:\Новая папка (33)\Би-2 feat. Elizaveta feat. А. Заворотнюк - Только любовь починит (OST «Мамы 3»).mkv
Формат : Matroska
Версия формата : Version 2
Размер файла : 370 Мбайт
Продолжительность : 3 м. 21 с.
Общий поток : 15,5 Мбит/сек
Программа кодирования : Lavf51.12.1
Библиотека кодирования : Lavf51.12.1

Видео
Идентификатор : 1
Формат : AVC
Формат/Информация : Advanced Video Codec
Профиль формата : Baseline@L5.1
Параметр CABAC формата : Нет
Параметр ReFrames формата : 1 кадр
Параметр GOP формата : M=1, N=12
Идентификатор кодека : V_MPEG4/ISO/AVC
Продолжительность : 3 м. 21 с.
Битрейт : 14,7 Мбит/сек
Ширина : 1920 пикселей
Высота : 1080 пикселей
Соотношение сторон : 16:9
Режим частоты кадров : Постоянный
Частота кадров : 24,000 кадра/сек
Цветовое пространство : YUV
Субдискретизация насыщенности : 4:2:0
Битовая глубина : 8 бит
Тип развёртки : Прогрессивная
Бит/(Пиксели*Кадры) : 0.295
Размер потока : 352 Мбайт (95%)
Язык : English
Default : Да
Forced : Нет

Аудио
Идентификатор : 2
Формат : AC-3
Формат/Информация : Audio Coding 3
Расширение режима : CM (complete main)
Параметр Endianness формата : Big
Идентификатор кодека : A_AC3
Продолжительность : 3 м. 21 с.
Вид битрейта : Постоянный
Битрейт : 448 Кбит/сек
Каналы : 2 канала
Расположение каналов : Front: L R
Частота : 48,0 КГц
Битовая глубина : 16 бит
Метод сжатия : С потерями
Размер потока : 10,7 Мбайт (3%)
Язык : English
Default : Да
Forced : Нет
Скриншоты:
[NNM-Club.me]_Bi-2 feat. Elizaveta feat. A. Zavorotnyuk - Tol'ko lyubov' pochinit (OST «Mamyi 3»).mkv.torrent
 Торрент: Платиновая раздача  Зарегистрирован
 
Скачать


Примагнититься
 Зарегистрирован:   22 Ноя 2014 14:01:09
 Размер:   370 MB  (
 Рейтинг:   3,9 (Голосов: 19)
 Поблагодарили:   79
 Проверка:   Оформление проверено модератором 23 Дек 2014 03:04:05
Как cкачать  ·  Как раздать  ·  Правильно оформить  ·  Поднять ратио!  
Loading...
bl1
Стаж: 9 лет 10 мес.
Сообщений: 167
Ratio: 0,653
100%
russia.gif
А. Заворотнюк-Вот отстой !!!!

_________________
Если человек попал в беду,я его фигуру мелом обведу
Mari_333_Mari
Стаж: 7 лет 1 мес.
Сообщений: 1
Ratio: 39,31
5.56%
Заворотнюк талантивейшая актриса! Спасибо за видео!
Показать сообщения:   
Начать новую тему   Ответить на тему    Торрент-трекер NNM-Club -> Театр и Музыкальное видео -> Музыкальные клипы Часовой пояс: GMT + 3
Страница 1 из 1