Классический форум-трекер
canvas not supported
Нас вместе: 4 064 961

Королевство океанов (серия 1-4 из 4) / Kingdom of the Oceans / Le Peuple des Oceans (2011) [1080p] BDRip


 
 
RSS
Начать новую тему   Ответить на тему    Торрент-трекер NNM-Club -> Документалистика и Телепередачи -> Живая природа
Автор Сообщение
Oops_Smile ®
Стаж: 8 лет 8 мес.
Сообщений: 1543
Ratio: 53,595
Раздал: 56,59 TB
Поблагодарили: 45040
100%
Откуда: Симферополь
Королевство океанов / Kingdom of the Oceans / Le Peuple des Oceans (2011) [1080p] BDRip
От Создателей «Птиц» и «Океанов»
1-4 серия из 4
Русское название: Королевство океанов
Оригинальное название: Kingdom of the Oceans / Le Peuple des Océans
Режиссер / Телекомпания: Жак Клюзо, Жак Перрен/Jacques Cluzaud, Jacques Perrin
Год выпуска: 2011
Жанр: Документальный

Спасибо:

Описание:
Документальный сериал из четырех частей о жизни океана по всему миру.

Продолжительность: 4 х ~00:54:00

Части:

1: Le Peuple Du Bleu / Народ Великой Синевы
2: Le Peuple Des Sables Et Des Forets / Народ Песков и Лесов
3: Le Peuple Des Recifs / Народ Рифов
4: De La Terre A La Mer / Между Сушей и Морем

Видеокодек: MPEG-4 AVC/H.264
Битрейт видео: ~11700 kb/s
Размер кадра: 1920х1080
Качество видео: BDRip [1080p]
Аудио: 2 дорожки
Аудиокодек: DTS 5.1 для обеих
Битрейт аудио: 1536 Кб/с для обеих
Аудио#1: Russian: Одноголосый закадровый, А. Дасевич
Аудио#2: French

Язык субтитров: Русские


Скриншоты:




Все раздачи
Формат : Matroska
Версия формата : Version 2
Размер файла : 5,59 Гбайт
Продолжительность : 54 м.
Общий поток : 14,7 Мбит/сек
Название фильма : Kingdom of the Oceans E01 (2011) - Release for HDCLUB
Дата кодирования : UTC 2012-02-18 21:32:19
Программа кодирования : mkvmerge v3.4.0 ('Rapunzel') built on May 15 2010 09:38:20
Библиотека кодирования : libebml v0.8.0 + libmatroska v0.9.0

Видео
Идентификатор : 1
Формат : AVC
Формат/Информация : Advanced Video Codec
Профиль формата : High@L4.1
Параметр CABAC формата : Да
Параметр ReFrames формата : 4 кадра
Идентификатор кодека : V_MPEG4/ISO/AVC
Продолжительность : 54 м.
Битрейт : 11,7 Мбит/сек
Ширина : 1920 пикселей
Высота : 1080 пикселей
Соотношение сторон : 16:9
Частота кадров : 23,976 кадра/сек
Цветовое пространство : YUV
Субдискретизация насыщенности : 4:2:0
Битовая глубина : 8 бит
Тип развёртки : Прогрессивная
Бит/(Пиксели*Кадры) : 0.235
Размер потока : 4,33 Гбайт (77%)
Заголовок : Release for HDCLUB
Библиотека кодирования : x264 core 119 r2106+636 fcb18f7
Настройки программы : cabac=1 / ref=4 / deblock=1:-3:-3 / analyse=0x3:0x113 / me=umh / subme=10 / psy=1 / fade_compensate=0.00 / psy_rd=1.05:0.10 / mixed_ref=1 / me_range=48 / chroma_me=1 / trellis=2 / 8x8dct=1 / cqm=1 / deadzone=21,11 / fast_pskip=0 / chroma_qp_offset=-2 / threads=12 / sliced_threads=0 / nr=0 / decimate=1 / interlaced=0 / bluray_compat=0 / constrained_intra=0 / fgo=0 / bframes=6 / b_pyramid=2 / b_adapt=2 / b_bias=0 / direct=3 / weightb=1 / open_gop=0 / weightp=2 / keyint=250 / keyint_min=23 / scenecut=40 / intra_refresh=0 / rc_lookahead=60 / rc=2pass / mbtree=1 / bitrate=11667 / ratetol=2.0 / qcomp=0.70 / qpmin=3 / qpmax=69 / qpstep=4 / cplxblur=20.0 / qblur=0.5 / vbv_maxrate=40000 / vbv_bufsize=30000 / nal_hrd=none / ip_ratio=1.40 / aq=2:1.00
Язык : French
Default : Да
Forced : Нет

Аудио #1
Идентификатор : 2
Формат : DTS
Формат/Информация : Digital Theater Systems
Идентификатор кодека : A_DTS
Продолжительность : 54 м.
Вид битрейта : Постоянный
Битрейт : 1510 Кбит/сек
Каналы : 6 каналов
Расположение каналов : Front: L C R, Side: L R, LFE
Частота : 48,0 КГц
Битовая глубина : 16 бит
Метод сжатия : С потерями
Размер потока : 588 Мбайт (10%)
Заголовок : DTS 5.1 @ 1536 kbps - Одноголосый закадровый, Ю.Сербин
Язык : Russian
Default : Да
Forced : Нет

Аудио #2
Идентификатор : 3
Формат : DTS
Формат/Информация : Digital Theater Systems
Идентификатор кодека : A_DTS
Продолжительность : 54 м.
Вид битрейта : Постоянный
Битрейт : 1510 Кбит/сек
Каналы : 6 каналов
Расположение каналов : Front: L C R, Side: L R, LFE
Частота : 48,0 КГц
Битовая глубина : 24 бит
Метод сжатия : С потерями
Размер потока : 588 Мбайт (10%)
Заголовок : DTS 5.1 @ 1536 kbps
Язык : French
Default : Нет
Forced : Нет

Текст
Идентификатор : 4
Формат : UTF-8
Идентификатор кодека : S_TEXT/UTF8
Идентификатор кодека/Информация : UTF-8 Plain Text
Язык : Russian
Default : Нет
Forced : Нет

Меню
00:00:00.000 : en:00:00:00.000
00:10:47.313 : en:00:10:47.313
00:21:34.668 : en:00:21:34.668
00:31:19.044 : en:00:31:19.044
00:41:55.596 : en:00:41:55.596
Сохранены оригинальные чаптеры как на Blu-ray.
Перевод и озвучка осуществлены в рамках сервиса "Озвучивание". Спонсоры: moses, LibrarianA, Turko, ГраНат27, NickAlex, Кириллка, kirill_sky, levanevski, Snow_Leopard, tarasco, agentHD, ork2010, kimi, jezburg68, Baron0580, Charlemagne, mpetr, Воваростов, Soiree, Kator, tor30515, breeze, alb9925.
Время раздачи: 24/7 - круглосуточно
[NNM-Club.ru]_Kingdom.of.the.Oceans.2011.1080p.mkv.torrent
 Торрент: Платиновая раздача  Зарегистрирован
 
Скачать


Примагнититься
 Зарегистрирован:   07 Апр 2012 10:20:38
 Размер:   22,3 GB  (
 Рейтинг:   5 (Голосов: 51)
 Поблагодарили:   162
 Проверка:   Оформление проверено модератором 07 Апр 2012 10:42:22
Как cкачать  ·  Как раздать  ·  Правильно оформить  ·  Поднять ратио!  

_________________
Мои раздачи
Muxadpro
Стаж: 6 лет 9 мес.
Сообщений: 1
Ratio: 4,112
100%
ОГРОМНОЕ СПАСИБО!!!
Моя жена обожает эту тематику,да ещё и в таком качестве!!! :респект:
mirex2
Стаж: 6 лет 8 мес.
Сообщений: 4
Ratio: 1,988
Поблагодарили: 14
1.79%
russia.gif
ОГРОМНОЕ СПАСИБО!!! :)
Oops_Smile ®
Стаж: 8 лет 8 мес.
Сообщений: 1543
Ratio: 53,595
Раздал: 56,59 TB
Поблагодарили: 45040
100%
Откуда: Симферополь
всем пожалуйста и приятного просмотра !!!

_________________
Мои раздачи
Mr.Gudvin.
Стаж: 7 лет 5 мес.
Сообщений: 157
Ratio: 6,485
Поблагодарили: 18
100%
Откуда: region32.ru
russia.gif
Тоже люблю это дело))) спасибо!
MegaObzor
Стаж: 8 лет 9 мес.
Сообщений: 32
Ratio: 0,602
0.26%
ООО!Благодарю!
veresk62
Стаж: 6 лет 3 мес.
Сообщений: 8
Ratio: 1,667
14.75%
ВеСЧь! И по качеству и по содержанию. Ляпы в переводе не испортили впечатления. Примеры. 1. Спутаны виды. Белуха- млекопитающее подотряда зубатых китов, переименована в белугу- рыбу семейства осетровых. 2.Путаница с ударениями. Каменного окуня - грУпера, переводчик "обозвал" групЕром. Если детям показываете, учитывайте эти моменты. Память у них хорошая, пусть запоминают правильно. :подмигивание:
galiludmila
Стаж: 8 лет 2 мес.
Сообщений: 18
Ratio: 1,153
100%
ОГРОМНОЕ СПАСИБО!!! Снят фильм -Великолепно! :крутой:
avrora7
Стаж: 4 года
Сообщений: 4687
Ratio: 96,037
Поблагодарили: 60209
100%
cod4.gif
Спасибо! :пока:
дени де вито
Стаж: 8 лет 6 мес.
Сообщений: 27
Ratio: 3,744
100%
madagascar.gif
встаньте на раздачу пожалуйста
batya-crazy
Стаж: 2 мес. 16 дней
Сообщений: 2
Ratio: 1,349
27.54%
Спасибо!
Показать сообщения:   
Начать новую тему   Ответить на тему    Торрент-трекер NNM-Club -> Документалистика и Телепередачи -> Живая природа Часовой пояс: GMT + 3
Страница 1 из 1