Классический форум-трекер
canvas not supported
Нас вместе: 4 079 156

[UKR]History Channel: Семь смертных грехов / Seven Deadly Sins (2009) IPTVRip [7 серий из 7]


 
 
RSS
Начать новую тему   Ответить на тему    Торрент-трекер NNM-Club -> Религии и культы -> Религиозное видео
Автор Сообщение
avverok ®
Стаж: 9 лет 2 мес.
Сообщений: 23
Ratio: 33,538
Поблагодарили: 1259
100%
History Channel: Семь смертных грехов / Seven Deadly Sins (2009) IPTVRip [UKR] [7 серий из 7]
Язык: UKR
Русское название: Семь смертных грехов
Оригинальное название: Seven Deadly Sins
Режиссер / Телекомпания: Джефри Шарп
Год выпуска: 2009
Жанр: Документальный, телепередача

Описание:
Гордыня, жадность, похоть, зависть, чревоугодие, гнев и лень - вот семь главных врагов человечества, которые, согласно священным писаниям, являются наиболее опасными для души человека. Действительно ли эти явления имеют настолько сильное влияние на нашу жизнь? И как изменилось наше предстваление о смертных грехах в современном мире?

Впервые семь смертных грехов описал византийский богослов Евагрий Понтийский в IV столетии. Но даже сейчас они имеют огромное влияние на формирование моральных основ современного общества.



Продолжительность:
00:40:30 "Жадность"
00:41:29 "Зависть"
00:44:21 "Лень"
00:44:27 "Похоть"
00:44:31 "Гордыня"
00:42:58 "Чревоугодие"
00:44:26 "Гнев"

Перевод: Многоголосый закадровый, профессиональный (канал "Мега")

Видеокодек:
MPEG-2 ("Гнев", "Жадность", "Гордыня", "Чревоугодие", "Лень")
AVC [H.264] ("Зависть", "Похоть")
Битрейт видео: ~3000 kb/s (в среднем)
Размер кадра: 704 x 576
Качество видео: IPTVRip
Аудиокодек:
MP2 ("Гнев", "Жадность", "Гордыня", "Чревоугодие", "Лень")
AAC ("Зависть", "Похоть")
Битрейт аудио: 192 kb/s

Сэмплы:
"Зависть"
"Лень"
General
Format : MPEG-PS
File size : 1.06 GiB
Duration : 44mn 26s
Overall bit rate mode : Variable
Overall bit rate : 3 421 Kbps

Video
ID : 224 (0xE0)
Format : MPEG Video
Format version : Version 2
Format profile : Main@Main
Format settings, BVOP : No
Format settings, Matrix : Custom
Duration : 44mn 26s
Bit rate mode : Variable
Bit rate : 3 161 Kbps
Maximum bit rate : 15.0 Mbps
Width : 704 pixels
Height : 576 pixels
Display aspect ratio : 4:3
Frame rate : 25.000 fps
Standard : PAL
Color space : YUV
Chroma subsampling : 4:2:0
Bit depth : 8 bits
Scan type : Interlaced
Scan order : Top Field First
Compression mode : Lossy
Bits/(Pixel*Frame) : 0.312
Stream size : 1 005 MiB (92%)

Audio
ID : 192 (0xC0)
Format : MPEG Audio
Format version : Version 1
Format profile : Layer 2
Duration : 44mn 26s
Bit rate mode : Constant
Bit rate : 192 Kbps
Channel(s) : 2 channels
Sampling rate : 48.0 KHz
Compression mode : Lossy
Delay relative to video : -617ms
Stream size : 61.0 MiB (6%)
General
Format : MPEG-PS
File size : 847 MiB
Duration : 40mn 30s
Overall bit rate mode : Variable
Overall bit rate : 2 924 Kbps

Video
ID : 224 (0xE0)
Format : MPEG Video
Format version : Version 2
Format profile : Main@Main
Format settings, BVOP : Yes
Format settings, Matrix : Custom
Format settings, GOP : M=1, N=30
Duration : 40mn 28s
Bit rate mode : Variable
Bit rate : 2 674 Kbps
Maximum bit rate : 15.0 Mbps
Width : 704 pixels
Height : 576 pixels
Display aspect ratio : 4:3
Frame rate : 25.000 fps
Standard : PAL
Color space : YUV
Chroma subsampling : 4:2:0
Bit depth : 8 bits
Scan type : Interlaced
Scan order : Top Field First
Compression mode : Lossy
Bits/(Pixel*Frame) : 0.264
Stream size : 774 MiB (91%)

Audio
ID : 192 (0xC0)
Format : MPEG Audio
Format version : Version 1
Format profile : Layer 2
Duration : 40mn 30s
Bit rate mode : Constant
Bit rate : 192 Kbps
Channel(s) : 2 channels
Sampling rate : 48.0 KHz
Compression mode : Lossy
Delay relative to video : -1s 577ms
Stream size : 55.6 MiB (7%)
General
Format : Matroska
Format version : Version 2
File size : 1.01 GiB
Duration : 44mn 31s
Overall bit rate mode : Variable
Overall bit rate : 3 257 Kbps
Encoded date : UTC 2012-08-30 21:06:49
Writing application : mkvmerge v5.4.0 ('Piper') built on Mar 10 2012 13:34:39
Writing library : libebml v1.2.3 + libmatroska v1.3.0

Video
ID : 1
Format : MPEG Video
Format version : Version 2
Format profile : Main@Main
Format settings, BVOP : No
Format settings, Matrix : Custom
Codec ID : V_MPEG2
Codec ID/Info : MPEG 1 or 2 Video
Duration : 44mn 31s
Bit rate mode : Variable
Bit rate : 3 000 Kbps
Maximum bit rate : 15.0 Mbps
Width : 704 pixels
Height : 576 pixels
Display aspect ratio : 4:3
Frame rate : 50.000 fps
Original frame rate : 25.000 fps
Standard : PAL
Color space : YUV
Chroma subsampling : 4:2:0
Bit depth : 8 bits
Scan type : Interlaced
Scan order : Top Field First
Compression mode : Lossy
Bits/(Pixel*Frame) : 0.148
Stream size : 955 MiB (92%)

Audio
ID : 2
Format : MPEG Audio
Format version : Version 1
Format profile : Layer 2
Muxing mode : Header stripping
Codec ID : A_MPEG/L2
Codec ID/Hint : MP2
Duration : 44mn 31s
Bit rate mode : Constant
Bit rate : 192 Kbps
Channel(s) : 2 channels
Sampling rate : 48.0 KHz
Compression mode : Lossy
Delay relative to video : -569ms
Stream size : 61.1 MiB (6%)
General
Format : MPEG-PS
File size : 909 MiB
Duration : 42mn 58s
Overall bit rate mode : Variable
Overall bit rate : 2 956 Kbps

Video
ID : 224 (0xE0)
Format : MPEG Video
Format version : Version 2
Format profile : Main@Main
Format settings, BVOP : Yes
Format settings, Matrix : Custom
Format settings, GOP : M=1, N=32
Duration : 42mn 58s
Bit rate mode : Variable
Bit rate : 2 705 Kbps
Maximum bit rate : 15.0 Mbps
Width : 704 pixels
Height : 576 pixels
Display aspect ratio : 4:3
Frame rate : 25.000 fps
Standard : PAL
Color space : YUV
Chroma subsampling : 4:2:0
Bit depth : 8 bits
Scan type : Interlaced
Scan order : Top Field First
Compression mode : Lossy
Bits/(Pixel*Frame) : 0.267
Stream size : 832 MiB (92%)

Audio
ID : 192 (0xC0)
Format : MPEG Audio
Format version : Version 1
Format profile : Layer 2
Duration : 42mn 57s
Bit rate mode : Constant
Bit rate : 192 Kbps
Channel(s) : 2 channels
Sampling rate : 48.0 KHz
Compression mode : Lossy
Delay relative to video : 151ms
Stream size : 59.0 MiB (6%)
General
Format : MPEG-PS
File size : 928 MiB
Duration : 44mn 21s
Overall bit rate mode : Variable
Overall bit rate : 2 924 Kbps

Video
ID : 224 (0xE0)
Format : MPEG Video
Format version : Version 2
Format profile : Main@Main
Format settings, BVOP : No
Format settings, Matrix : Custom
Format settings, GOP : M=1, N=29
Duration : 44mn 19s
Bit rate mode : Variable
Bit rate : 2 674 Kbps
Maximum bit rate : 15.0 Mbps
Width : 704 pixels
Height : 576 pixels
Display aspect ratio : 4:3
Frame rate : 25.000 fps
Standard : PAL
Color space : YUV
Chroma subsampling : 4:2:0
Bit depth : 8 bits
Scan type : Interlaced
Scan order : Top Field First
Compression mode : Lossy
Bits/(Pixel*Frame) : 0.264
Stream size : 848 MiB (91%)

Audio
ID : 192 (0xC0)
Format : MPEG Audio
Format version : Version 1
Format profile : Layer 2
Duration : 44mn 21s
Bit rate mode : Constant
Bit rate : 192 Kbps
Channel(s) : 2 channels
Sampling rate : 48.0 KHz
Compression mode : Lossy
Delay relative to video : 26h 30mn
Stream size : 60.9 MiB (7%)
General
Format : Matroska
Format version : Version 2
File size : 317 MiB
Duration : 41mn 29s
Overall bit rate : 1 069 Kbps
Encoded date : UTC 2012-08-29 18:25:11
Writing application : mkvmerge v5.4.0 ('Piper') built on Mar 10 2012 13:34:39
Writing library : libebml v1.2.3 + libmatroska v1.3.0

Video
ID : 2
Format : AVC
Format/Info : Advanced Video Codec
Format profile : Main@L3.1
Format settings, CABAC : Yes
Format settings, ReFrames : 4 frames
Muxing mode : Header stripping
Codec ID : V_MPEG4/ISO/AVC
Duration : 41mn 29s
Width : 704 pixels
Height : 576 pixels
Display aspect ratio : 4:3
Frame rate : 25.000 fps
Standard : PAL
Color space : YUV
Chroma subsampling : 4:2:0
Bit depth : 8 bits
Scan type : Progressive
Writing library : x264 core 119
Encoding settings : cabac=1 / ref=3 / deblock=1:0:0 / analyse=0x1:0x11 / me=hex / subme=7 / psy=1 / psy_rd=1.00:0.00 / mixed_ref=1 / me_range=16 / chroma_me=1 / trellis=1 / 8x8dct=0 / cqm=0 / deadzone=21,11 / fast_pskip=1 / chroma_qp_offset=-2 / threads=36 / sliced_threads=0 / nr=0 / decimate=1 / interlaced=0 / bluray_compat=0 / constrained_intra=0 / bframes=3 / b_pyramid=2 / b_adapt=1 / b_bias=0 / direct=1 / weightb=1 / open_gop=0 / weightp=2 / keyint=12 / keyint_min=1 / scenecut=40 / intra_refresh=0 / rc_lookahead=12 / rc=crf / mbtree=1 / crf=26.0 / qcomp=0.60 / qpmin=10 / qpmax=51 / qpstep=4 / ip_ratio=1.40 / aq=1:1.00

Audio
ID : 1
Format : AAC
Format/Info : Advanced Audio Codec
Format profile : LC
Codec ID : A_AAC
Duration : 41mn 29s
Channel(s) : 2 channels
Channel positions : Front: L R
Sampling rate : 48.0 KHz
Compression mode : Lossy
Delay relative to video : -22ms
Language : Ukrainian
General
Format : Matroska
Format version : Version 2
File size : 369 MiB
Duration : 44mn 27s
Overall bit rate : 1 161 Kbps
Encoded date : UTC 2012-08-29 18:58:31
Writing application : mkvmerge v5.4.0 ('Piper') built on Mar 10 2012 13:34:39
Writing library : libebml v1.2.3 + libmatroska v1.3.0

Video
ID : 2
Format : AVC
Format/Info : Advanced Video Codec
Format profile : Main@L3.1
Format settings, CABAC : Yes
Format settings, ReFrames : 4 frames
Muxing mode : Header stripping
Codec ID : V_MPEG4/ISO/AVC
Duration : 44mn 27s
Width : 704 pixels
Height : 576 pixels
Display aspect ratio : 4:3
Frame rate : 25.000 fps
Standard : PAL
Color space : YUV
Chroma subsampling : 4:2:0
Bit depth : 8 bits
Scan type : Progressive
Writing library : x264 core 119
Encoding settings : cabac=1 / ref=3 / deblock=1:0:0 / analyse=0x1:0x11 / me=hex / subme=7 / psy=1 / psy_rd=1.00:0.00 / mixed_ref=1 / me_range=16 / chroma_me=1 / trellis=1 / 8x8dct=0 / cqm=0 / deadzone=21,11 / fast_pskip=1 / chroma_qp_offset=-2 / threads=36 / sliced_threads=0 / nr=0 / decimate=1 / interlaced=0 / bluray_compat=0 / constrained_intra=0 / bframes=3 / b_pyramid=2 / b_adapt=1 / b_bias=0 / direct=1 / weightb=1 / open_gop=0 / weightp=2 / keyint=12 / keyint_min=1 / scenecut=40 / intra_refresh=0 / rc_lookahead=12 / rc=crf / mbtree=1 / crf=26.0 / qcomp=0.60 / qpmin=10 / qpmax=51 / qpstep=4 / ip_ratio=1.40 / aq=1:1.00

Audio
ID : 1
Format : AAC
Format/Info : Advanced Audio Codec
Format profile : LC
Codec ID : A_AAC
Duration : 44mn 27s
Channel(s) : 2 channels
Channel positions : Front: L R
Sampling rate : 48.0 KHz
Compression mode : Lossy
Delay relative to video : 5ms
Language : Ukrainian

Скриншоты:


Время раздачи: C 16:00 до 22:00
[NNM-Club.ru]_Sem' smertnyih grehov (History Channel).torrent
 Торрент: Платиновая раздача  Зарегистрирован
 
Скачать


Примагнититься
 Зарегистрирован:   05 Сен 2012 13:54:19
 Размер:   5,37 GB  (
 Рейтинг:   4,5 (Голосов: 21)
 Поблагодарили:   66
 Проверка:   Оформление проверено модератором 19 Сен 2012 19:46:15
Как cкачать  ·  Как раздать  ·  Правильно оформить  ·  Поднять ратио!  
Bliznec775
Стаж: 9 лет 6 мес.
Сообщений: 114
Ratio: 56,504
Раздал: 11,09 TB
Поблагодарили: 1016
100%
russia.gif
А на русском ? нет ли?
avverok ®
Стаж: 9 лет 2 мес.
Сообщений: 23
Ratio: 33,538
Поблагодарили: 1259
100%
Bliznec775 писал(а): Перейти к сообщению
А на русском ? нет ли?

Увы, на русском не видел :( Но есть на английском в оригинале :)
Асисяй 108
Стаж: 4 года 10 мес.
Сообщений: 24
Ratio: 2,385
100%
Привет всем, извините друзья, напишите где эта заветная кнопка позвать скачавших, раздача вообще ни какая.
iva2002iva
Стаж: 5 лет 6 мес.
Сообщений: 4
Ratio: 56,901
2.82%
по возможности станьте пжл. на раздачу. заранее благодарен
iva2002iva
Стаж: 5 лет 6 мес.
Сообщений: 4
Ratio: 56,901
2.82%
скачал эти фильмы на vimeo.com
tulisch
Стаж: 5 лет 2 мес.
Сообщений: 42
Ratio: 19,042
Раздал: 682 GB
Поблагодарили: 111
100%
russia.gif
Значит про похоть... Бог говорит размножайтесь и Христиане размножаются, но как? а я скажу как - благодаря той самой похоти... которую Христианский муж изливает в жену... У них с похотью окей! а нам (нехристианам) похоть ставят во грех. Водой закаляйтесь - хорошо Похоть снимает.

_________________
MX linux.
OrdaadrD
Стаж: 1 год 9 мес.
Сообщений: 3
Ratio: 10,314
4.16%
Откуда: Земля
pirates.png
вернитесь плз)
Показать сообщения:   
Начать новую тему   Ответить на тему    Торрент-трекер NNM-Club -> Религии и культы -> Религиозное видео Часовой пояс: GMT + 3
Страница 1 из 1