Классический форум-трекер
canvas not supported
Нас вместе: 4 065 416

Tina Turner - Tina Live In Europe (1988) 2xLP/Live/England [FLAC 2.0 24/192|Tracks (Vinyl-Rip)]<Rock & Roll, Soft Rock, Pop Rock>


 
 
RSS
Начать новую тему   Ответить на тему    Торрент-трекер NNM-Club -> HD Audio и Многоканальная Музыка -> Vinyl-Rip и Hand-Made
Автор Сообщение
Poweruss ®
 
Стаж: 7 лет
Сообщений: 2391
Ratio: 98,296
Поблагодарили: 25737
100%
Откуда: точно не знаю.
nnm-club.gif
Tina Turner - Tina Live In Europe (1988) 2LP

Описание:
Тина Тёрнер (англ. Tina Turner; при рождении Анна Мэй Буллок (англ. Anna Mae Bullock), род. 26 ноября 1939, Натбуш, Теннесси) - американская певица, автор песен, актриса и танцовщица. Обладательница восьми премий Грэмми. За свой артистизм, темперамент и сценическую экспрессивность она носит титул «Королевы рок-н-ролла». Тина значится в десятке самых лучших танцоров мира. Журнал «Роллинг Стоун» назвал её одной из величайших певиц современности. В 1993 году автобиография Тины легла в основу фильма «What’s Love Got to Do With It?» («При чём здесь любовь?»).

Год: 1988 | Страна: England | Жанр: Rock & Roll, Soft Rock, Pop Rock | Лэйбл: Capitol Records [ESTD 1] | Формат: 2xVinyl, LP, Album, Live
Аудио Кодек: FLAC | Тип Рипа: Tracks+.cue | Наличие Сканов: Full | Автор Рипа: Titura :респект:

Продолжительность: 01:50:13

Трек лист:
A1. What You Get Is What You See :: 05:12
A2. Break Every Rule :: 04:49
A3. I Can't Stand The Rain :: 03:25
A4. Two People :: 04:25
A5. Typical Male :: 04:01
A6. Better Be Good To Me :: 06:38
B1. Addicted To Love :: 05:17
B2. Private Dancer :: 05:43
B3. We Don't Need Another Hero (Thunderdome) :: 04:46
B4. What's Love Got To Do With It :: 05:39
B5. Let's Stay Together :: 04:39
B6. Show Some Respect :: 03:06
C1. Land Of 1000 Dances :: 03:05
C2. In The Midnight Hour :: 03:27
C3. 634-5789 :: 03:10
C4. A Change Is Gonna Come :: 06:42
C5. Tearing Us Apart :: 04:42
C6. Proud Mary :: 04:48
D1. Help :: 05:11
D2. Tonight :: 03:55
D3. Let's Dance :: 03:46
D4. It's Only Love :: 04:15
D5. Nutbush City Limits :: 03:30
D6. Paradise Is Here :: 05:54
Код:
Общее
Полное имя                               : C:\Users\123\Desktop\МОЯ !!!\Flac\Tina Turner - Tina Live In Europe (24-192, UK, 2xLP Set) `1988\A6. Tina Turner - Better Be Good To Me.flac
Формат                                   : FLAC
Формат/Информация                        : Free Lossless Audio Codec
Размер файла                             : 261 Мбайт
Продолжительность                        : 6 м. 38 с.
Режим общего битрейта                    : Переменный
Общий поток                              : 5500 Кбит/сек
Альбом                                   : Tina Live In Europe
Трек                                     : Better Be Good To Me
Трек/Положение                           : 06
Трек/Всего                               : 24
Исполнитель                              : Tina Turner
Продюсер                                 : Capitol Records
Жанр                                     : Pop
Дата записи                              : 1988
Обложка                                  : Yes
Тип обложки                              : Cover (front)
MIME-тип обложки                         : image/jpeg
DISCOGS_ARTIST_LINK                      : Tina%20Turner
DISCOGS_CATALOG                          : ESTD 1
DISCOGS_COUNTRY                          : UK
DISCOGS_LABEL_LINK                       : Capitol%20Records
DISCOGS_ORIGINAL_TRACK_NUMBER            : 06
DISCOGS_RELEASE_ID                       : 413313
DISCOGS_RELEASED                         : 1988
STYLE                                    : Rock & Roll / Soft Rock / Arena Rock / Classic Rock

Аудио
Формат                                   : FLAC
Формат/Информация                        : Free Lossless Audio Codec
Продолжительность                        : 6 м. 38 с.
Вид битрейта                             : Переменный
Битрейт                                  : 5499 Кбит/сек
Каналы                                   : 2 канала
Частота                                  : 192 КГц
Битовая глубина                          : 24 бит
Размер потока                            : 261 Мбайт (100%)
Библиотека кодирования                   : libFLAC 1.2.1 (UTC 2007-09-17)

Общее
Полное имя                               : C:\Users\123\Desktop\МОЯ !!!\Flac\Tina Turner - Tina Live In Europe (24-192, UK, 2xLP Set) `1988\B1. Tina Turner - Addicted To Love.flac
Формат                                   : FLAC
Формат/Информация                        : Free Lossless Audio Codec
Размер файла                             : 211 Мбайт
Продолжительность                        : 5 м. 17 с.
Режим общего битрейта                    : Переменный
Общий поток                              : 5586 Кбит/сек
Альбом                                   : Tina Live In Europe
Трек                                     : Addicted To Love
Трек/Положение                           : 07
Трек/Всего                               : 24
Исполнитель                              : Tina Turner
Продюсер                                 : Capitol Records
Жанр                                     : Pop
Дата записи                              : 1988
Обложка                                  : Yes
Тип обложки                              : Cover (front)
MIME-тип обложки                         : image/jpeg
DISCOGS_ARTIST_LINK                      : Tina%20Turner
DISCOGS_CATALOG                          : ESTD 1
DISCOGS_COUNTRY                          : UK
DISCOGS_LABEL_LINK                       : Capitol%20Records
DISCOGS_ORIGINAL_TRACK_NUMBER            : 07
DISCOGS_RELEASE_ID                       : 413313
DISCOGS_RELEASED                         : 1988
STYLE                                    : Rock & Roll / Soft Rock / Arena Rock / Classic Rock

Аудио
Формат                                   : FLAC
Формат/Информация                        : Free Lossless Audio Codec
Продолжительность                        : 5 м. 17 с.
Вид битрейта                             : Переменный
Битрейт                                  : 5585 Кбит/сек
Каналы                                   : 2 канала
Частота                                  : 192 КГц
Битовая глубина                          : 24 бит
Размер потока                            : 211 Мбайт (100%)
Библиотека кодирования                   : libFLAC 1.2.1 (UTC 2007-09-17)

Общее
Полное имя                               : C:\Users\123\Desktop\МОЯ !!!\Flac\Tina Turner - Tina Live In Europe (24-192, UK, 2xLP Set) `1988\B2. Tina Turner - Private Dancer.flac
Формат                                   : FLAC
Формат/Информация                        : Free Lossless Audio Codec
Размер файла                             : 218 Мбайт
Продолжительность                        : 5 м. 43 с.
Режим общего битрейта                    : Переменный
Общий поток                              : 5333 Кбит/сек
Альбом                                   : Tina Live In Europe
Трек                                     : Private Dancer
Трек/Положение                           : 08
Трек/Всего                               : 24
Исполнитель                              : Tina Turner
Продюсер                                 : Capitol Records
Жанр                                     : Pop
Дата записи                              : 1988
Обложка                                  : Yes
Тип обложки                              : Cover (front)
MIME-тип обложки                         : image/jpeg
DISCOGS_ARTIST_LINK                      : Tina%20Turner
DISCOGS_CATALOG                          : ESTD 1
DISCOGS_COUNTRY                          : UK
DISCOGS_LABEL_LINK                       : Capitol%20Records
DISCOGS_ORIGINAL_TRACK_NUMBER            : 08
DISCOGS_RELEASE_ID                       : 413313
DISCOGS_RELEASED                         : 1988
STYLE                                    : Rock & Roll / Soft Rock / Arena Rock / Classic Rock

Аудио
Формат                                   : FLAC
Формат/Информация                        : Free Lossless Audio Codec
Продолжительность                        : 5 м. 43 с.
Вид битрейта                             : Переменный
Битрейт                                  : 5332 Кбит/сек
Каналы                                   : 2 канала
Частота                                  : 192 КГц
Битовая глубина                          : 24 бит
Размер потока                            : 218 Мбайт (100%)
Библиотека кодирования                   : libFLAC 1.2.1 (UTC 2007-09-17)

Общее
Полное имя                               : C:\Users\123\Desktop\МОЯ !!!\Flac\Tina Turner - Tina Live In Europe (24-192, UK, 2xLP Set) `1988\B3. Tina Turner - We Don't Need Another Hero (Thunderdome).flac
Формат                                   : FLAC
Формат/Информация                        : Free Lossless Audio Codec
Размер файла                             : 184 Мбайт
Продолжительность                        : 4 м. 46 с.
Режим общего битрейта                    : Переменный
Общий поток                              : 5398 Кбит/сек
Альбом                                   : Tina Live In Europe
Трек                                     : We Don't Need Another Hero (Thunderdome)
Трек/Положение                           : 09
Трек/Всего                               : 24
Исполнитель                              : Tina Turner
Продюсер                                 : Capitol Records
Жанр                                     : Pop
Дата записи                              : 1988
Обложка                                  : Yes
Тип обложки                              : Cover (front)
MIME-тип обложки                         : image/jpeg
DISCOGS_ARTIST_LINK                      : Tina%20Turner
DISCOGS_CATALOG                          : ESTD 1
DISCOGS_COUNTRY                          : UK
DISCOGS_LABEL_LINK                       : Capitol%20Records
DISCOGS_ORIGINAL_TRACK_NUMBER            : 09
DISCOGS_RELEASE_ID                       : 413313
DISCOGS_RELEASED                         : 1988
STYLE                                    : Rock & Roll / Soft Rock / Arena Rock / Classic Rock

Аудио
Формат                                   : FLAC
Формат/Информация                        : Free Lossless Audio Codec
Продолжительность                        : 4 м. 46 с.
Вид битрейта                             : Переменный
Битрейт                                  : 5396 Кбит/сек
Каналы                                   : 2 канала
Частота                                  : 192 КГц
Битовая глубина                          : 24 бит
Размер потока                            : 184 Мбайт (100%)
Библиотека кодирования                   : libFLAC 1.2.1 (UTC 2007-09-17)

Общее
Полное имя                               : C:\Users\123\Desktop\МОЯ !!!\Flac\Tina Turner - Tina Live In Europe (24-192, UK, 2xLP Set) `1988\B4. Tina Turner - What's Love Got To Do With It.flac
Формат                                   : FLAC
Формат/Информация                        : Free Lossless Audio Codec
Размер файла                             : 216 Мбайт
Продолжительность                        : 5 м. 39 с.
Режим общего битрейта                    : Переменный
Общий поток                              : 5338 Кбит/сек
Альбом                                   : Tina Live In Europe
Трек                                     : What's Love Got To Do With It
Трек/Положение                           : 10
Трек/Всего                               : 24
Исполнитель                              : Tina Turner
Продюсер                                 : Capitol Records
Жанр                                     : Pop
Дата записи                              : 1988
Обложка                                  : Yes
Тип обложки                              : Cover (front)
MIME-тип обложки                         : image/jpeg
DISCOGS_ARTIST_LINK                      : Tina%20Turner
DISCOGS_CATALOG                          : ESTD 1
DISCOGS_COUNTRY                          : UK
DISCOGS_LABEL_LINK                       : Capitol%20Records
DISCOGS_ORIGINAL_TRACK_NUMBER            : 10
DISCOGS_RELEASE_ID                       : 413313
DISCOGS_RELEASED                         : 1988
STYLE                                    : Rock & Roll / Soft Rock / Arena Rock / Classic Rock

Аудио
Формат                                   : FLAC
Формат/Информация                        : Free Lossless Audio Codec
Продолжительность                        : 5 м. 39 с.
Вид битрейта                             : Переменный
Битрейт                                  : 5337 Кбит/сек
Каналы                                   : 2 канала
Частота                                  : 192 КГц
Битовая глубина                          : 24 бит
Размер потока                            : 216 Мбайт (100%)
Библиотека кодирования                   : libFLAC 1.2.1 (UTC 2007-09-17)

Общее
Полное имя                               : C:\Users\123\Desktop\МОЯ !!!\Flac\Tina Turner - Tina Live In Europe (24-192, UK, 2xLP Set) `1988\B5. Tina Turner - Let's Stay Together.flac
Формат                                   : FLAC
Формат/Информация                        : Free Lossless Audio Codec
Размер файла                             : 180 Мбайт
Продолжительность                        : 4 м. 39 с.
Режим общего битрейта                    : Переменный
Общий поток                              : 5405 Кбит/сек
Альбом                                   : Tina Live In Europe
Трек                                     : Let's Stay Together
Трек/Положение                           : 11
Трек/Всего                               : 24
Исполнитель                              : Tina Turner
Продюсер                                 : Capitol Records
Жанр                                     : Pop
Дата записи                              : 1988
Обложка                                  : Yes
Тип обложки                              : Cover (front)
MIME-тип обложки                         : image/jpeg
DISCOGS_ARTIST_LINK                      : Tina%20Turner
DISCOGS_CATALOG                          : ESTD 1
DISCOGS_COUNTRY                          : UK
DISCOGS_LABEL_LINK                       : Capitol%20Records
DISCOGS_ORIGINAL_TRACK_NUMBER            : 11
DISCOGS_RELEASE_ID                       : 413313
DISCOGS_RELEASED                         : 1988
STYLE                                    : Rock & Roll / Soft Rock / Arena Rock / Classic Rock

Аудио
Формат                                   : FLAC
Формат/Информация                        : Free Lossless Audio Codec
Продолжительность                        : 4 м. 39 с.
Вид битрейта                             : Переменный
Битрейт                                  : 5403 Кбит/сек
Каналы                                   : 2 канала
Частота                                  : 192 КГц
Битовая глубина                          : 24 бит
Размер потока                            : 180 Мбайт (100%)
Библиотека кодирования                   : libFLAC 1.2.1 (UTC 2007-09-17)

Общее
Полное имя                               : C:\Users\123\Desktop\МОЯ !!!\Flac\Tina Turner - Tina Live In Europe (24-192, UK, 2xLP Set) `1988\B6. Tina Turner - Show Some Respect.flac
Формат                                   : FLAC
Формат/Информация                        : Free Lossless Audio Codec
Размер файла                             : 126 Мбайт
Продолжительность                        : 3 м. 6 с.
Режим общего битрейта                    : Переменный
Общий поток                              : 5660 Кбит/сек
Альбом                                   : Tina Live In Europe
Трек                                     : Show Some Respect
Трек/Положение                           : 12
Трек/Всего                               : 24
Исполнитель                              : Tina Turner
Продюсер                                 : Capitol Records
Жанр                                     : Pop
Дата записи                              : 1988
Обложка                                  : Yes
Тип обложки                              : Cover (front)
MIME-тип обложки                         : image/jpeg
DISCOGS_ARTIST_LINK                      : Tina%20Turner
DISCOGS_CATALOG                          : ESTD 1
DISCOGS_COUNTRY                          : UK
DISCOGS_LABEL_LINK                       : Capitol%20Records
DISCOGS_ORIGINAL_TRACK_NUMBER            : 12
DISCOGS_RELEASE_ID                       : 413313
DISCOGS_RELEASED                         : 1988
STYLE                                    : Rock & Roll / Soft Rock / Arena Rock / Classic Rock

Аудио
Формат                                   : FLAC
Формат/Информация                        : Free Lossless Audio Codec
Продолжительность                        : 3 м. 6 с.
Вид битрейта                             : Переменный
Битрейт                                  : 5658 Кбит/сек
Каналы                                   : 2 канала
Частота                                  : 192 КГц
Битовая глубина                          : 24 бит
Размер потока                            : 126 Мбайт (100%)
Библиотека кодирования                   : libFLAC 1.2.1 (UTC 2007-09-17)

Общее
Полное имя                               : C:\Users\123\Desktop\МОЯ !!!\Flac\Tina Turner - Tina Live In Europe (24-192, UK, 2xLP Set) `1988\C1. Tina Turner - Land Of 1000 Dances.flac
Формат                                   : FLAC
Формат/Информация                        : Free Lossless Audio Codec
Размер файла                             : 121 Мбайт
Продолжительность                        : 3 м. 5 с.
Режим общего битрейта                    : Переменный
Общий поток                              : 5462 Кбит/сек
Альбом                                   : Tina Live In Europe
Трек                                     : Land Of 1000 Dances
Трек/Положение                           : 13
Трек/Всего                               : 24
Исполнитель                              : Tina Turner
Продюсер                                 : Capitol Records
Жанр                                     : Pop
Дата записи                              : 1988
Обложка                                  : Yes
Тип обложки                              : Cover (front)
MIME-тип обложки                         : image/jpeg
DISCOGS_ARTIST_LINK                      : Tina%20Turner
DISCOGS_CATALOG                          : ESTD 1
DISCOGS_COUNTRY                          : UK
DISCOGS_LABEL_LINK                       : Capitol%20Records
DISCOGS_ORIGINAL_TRACK_NUMBER            : 13
DISCOGS_RELEASE_ID                       : 413313
DISCOGS_RELEASED                         : 1988
STYLE                                    : Rock & Roll / Soft Rock / Arena Rock / Classic Rock

Аудио
Формат                                   : FLAC
Формат/Информация                        : Free Lossless Audio Codec
Продолжительность                        : 3 м. 5 с.
Вид битрейта                             : Переменный
Битрейт                                  : 5460 Кбит/сек
Каналы                                   : 2 канала
Частота                                  : 192 КГц
Битовая глубина                          : 24 бит
Размер потока                            : 121 Мбайт (100%)
Библиотека кодирования                   : libFLAC 1.2.1 (UTC 2007-09-17)

Общее
Полное имя                               : C:\Users\123\Desktop\МОЯ !!!\Flac\Tina Turner - Tina Live In Europe (24-192, UK, 2xLP Set) `1988\C2. Tina Turner - In The Midnight Hour.flac
Формат                                   : FLAC
Формат/Информация                        : Free Lossless Audio Codec
Размер файла                             : 139 Мбайт
Продолжительность                        : 3 м. 27 с.
Режим общего битрейта                    : Переменный
Общий поток                              : 5612 Кбит/сек
Альбом                                   : Tina Live In Europe
Трек                                     : In The Midnight Hour
Трек/Положение                           : 14
Трек/Всего                               : 24
Исполнитель                              : Tina Turner
Продюсер                                 : Capitol Records
Жанр                                     : Pop
Дата записи                              : 1988
Обложка                                  : Yes
Тип обложки                              : Cover (front)
MIME-тип обложки                         : image/jpeg
DISCOGS_ARTIST_LINK                      : Tina%20Turner
DISCOGS_CATALOG                          : ESTD 1
DISCOGS_COUNTRY                          : UK
DISCOGS_LABEL_LINK                       : Capitol%20Records
DISCOGS_ORIGINAL_TRACK_NUMBER            : 14
DISCOGS_RELEASE_ID                       : 413313
DISCOGS_RELEASED                         : 1988
STYLE                                    : Rock & Roll / Soft Rock / Arena Rock / Classic Rock

Аудио
Формат                                   : FLAC
Формат/Информация                        : Free Lossless Audio Codec
Продолжительность                        : 3 м. 27 с.
Вид битрейта                             : Переменный
Битрейт                                  : 5609 Кбит/сек
Каналы                                   : 2 канала
Частота                                  : 192 КГц
Битовая глубина                          : 24 бит
Размер потока                            : 139 Мбайт (100%)
Библиотека кодирования                   : libFLAC 1.2.1 (UTC 2007-09-17)

Общее
Полное имя                               : C:\Users\123\Desktop\МОЯ !!!\Flac\Tina Turner - Tina Live In Europe (24-192, UK, 2xLP Set) `1988\C3. Tina Turner - 634-5789.flac
Формат                                   : FLAC
Формат/Информация                        : Free Lossless Audio Codec
Размер файла                             : 125 Мбайт
Продолжительность                        : 3 м. 10 с.
Режим общего битрейта                    : Переменный
Общий поток                              : 5504 Кбит/сек
Альбом                                   : Tina Live In Europe
Трек                                     : 634-5789
Трек/Положение                           : 15
Трек/Всего                               : 24
Исполнитель                              : Tina Turner
Продюсер                                 : Capitol Records
Жанр                                     : Pop
Дата записи                              : 1988
Обложка                                  : Yes
Тип обложки                              : Cover (front)
MIME-тип обложки                         : image/jpeg
DISCOGS_ARTIST_LINK                      : Tina%20Turner
DISCOGS_CATALOG                          : ESTD 1
DISCOGS_COUNTRY                          : UK
DISCOGS_LABEL_LINK                       : Capitol%20Records
DISCOGS_ORIGINAL_TRACK_NUMBER            : 15
DISCOGS_RELEASE_ID                       : 413313
DISCOGS_RELEASED                         : 1988
STYLE                                    : Rock & Roll / Soft Rock / Arena Rock / Classic Rock

Аудио
Формат                                   : FLAC
Формат/Информация                        : Free Lossless Audio Codec
Продолжительность                        : 3 м. 10 с.
Вид битрейта                             : Переменный
Битрейт                                  : 5502 Кбит/сек
Каналы                                   : 2 канала
Частота                                  : 192 КГц
Битовая глубина                          : 24 бит
Размер потока                            : 125 Мбайт (100%)
Библиотека кодирования                   : libFLAC 1.2.1 (UTC 2007-09-17)

Общее
Полное имя                               : C:\Users\123\Desktop\МОЯ !!!\Flac\Tina Turner - Tina Live In Europe (24-192, UK, 2xLP Set) `1988\C4. Tina Turner - A Change Is Gonna Come.flac
Формат                                   : FLAC
Формат/Информация                        : Free Lossless Audio Codec
Размер файла                             : 257 Мбайт
Продолжительность                        : 6 м. 42 с.
Режим общего битрейта                    : Переменный
Общий поток                              : 5366 Кбит/сек
Альбом                                   : Tina Live In Europe
Трек                                     : A Change Is Gonna Come
Трек/Положение                           : 16
Трек/Всего                               : 24
Исполнитель                              : Tina Turner
Продюсер                                 : Capitol Records
Жанр                                     : Pop
Дата записи                              : 1988
Обложка                                  : Yes
Тип обложки                              : Cover (front)
MIME-тип обложки                         : image/jpeg
DISCOGS_ARTIST_LINK                      : Tina%20Turner
DISCOGS_CATALOG                          : ESTD 1
DISCOGS_COUNTRY                          : UK
DISCOGS_LABEL_LINK                       : Capitol%20Records
DISCOGS_ORIGINAL_TRACK_NUMBER            : 16
DISCOGS_RELEASE_ID                       : 413313
DISCOGS_RELEASED                         : 1988
STYLE                                    : Rock & Roll / Soft Rock / Arena Rock / Classic Rock

Аудио
Формат                                   : FLAC
Формат/Информация                        : Free Lossless Audio Codec
Продолжительность                        : 6 м. 42 с.
Вид битрейта                             : Переменный
Битрейт                                  : 5365 Кбит/сек
Каналы                                   : 2 канала
Частота                                  : 192 КГц
Битовая глубина                          : 24 бит
Размер потока                            : 257 Мбайт (100%)
Библиотека кодирования                   : libFLAC 1.2.1 (UTC 2007-09-17)

Общее
Полное имя                               : C:\Users\123\Desktop\МОЯ !!!\Flac\Tina Turner - Tina Live In Europe (24-192, UK, 2xLP Set) `1988\C5. Tina Turner - Tearing Us Apart.flac
Формат                                   : FLAC
Формат/Информация                        : Free Lossless Audio Codec
Размер файла                             : 186 Мбайт
Продолжительность                        : 4 м. 42 с.
Режим общего битрейта                    : Переменный
Общий поток                              : 5532 Кбит/сек
Альбом                                   : Tina Live In Europe
Трек                                     : Tearing Us Apart
Трек/Положение                           : 17
Трек/Всего                               : 24
Исполнитель                              : Tina Turner
Продюсер                                 : Capitol Records
Жанр                                     : Pop
Дата записи                              : 1988
Обложка                                  : Yes
Тип обложки                              : Cover (front)
MIME-тип обложки                         : image/jpeg
DISCOGS_ARTIST_LINK                      : Tina%20Turner
DISCOGS_CATALOG                          : ESTD 1
DISCOGS_COUNTRY                          : UK
DISCOGS_LABEL_LINK                       : Capitol%20Records
DISCOGS_ORIGINAL_TRACK_NUMBER            : 17
DISCOGS_RELEASE_ID                       : 413313
DISCOGS_RELEASED                         : 1988
STYLE                                    : Rock & Roll / Soft Rock / Arena Rock / Classic Rock

Аудио
Формат                                   : FLAC
Формат/Информация                        : Free Lossless Audio Codec
Продолжительность                        : 4 м. 42 с.
Вид битрейта                             : Переменный
Битрейт                                  : 5531 Кбит/сек
Каналы                                   : 2 канала
Частота                                  : 192 КГц
Битовая глубина                          : 24 бит
Размер потока                            : 186 Мбайт (100%)
Библиотека кодирования                   : libFLAC 1.2.1 (UTC 2007-09-17)

Общее
Полное имя                               : C:\Users\123\Desktop\МОЯ !!!\Flac\Tina Turner - Tina Live In Europe (24-192, UK, 2xLP Set) `1988\C6. Tina Turner - Proud Mary.flac
Формат                                   : FLAC
Формат/Информация                        : Free Lossless Audio Codec
Размер файла                             : 189 Мбайт
Продолжительность                        : 4 м. 48 с.
Режим общего битрейта                    : Переменный
Общий поток                              : 5495 Кбит/сек
Альбом                                   : Tina Live In Europe
Трек                                     : Proud Mary
Трек/Положение                           : 18
Трек/Всего                               : 24
Исполнитель                              : Tina Turner
Продюсер                                 : Capitol Records
Жанр                                     : Pop
Дата записи                              : 1988
Обложка                                  : Yes
Тип обложки                              : Cover (front)
MIME-тип обложки                         : image/jpeg
DISCOGS_ARTIST_LINK                      : Tina%20Turner
DISCOGS_CATALOG                          : ESTD 1
DISCOGS_COUNTRY                          : UK
DISCOGS_LABEL_LINK                       : Capitol%20Records
DISCOGS_ORIGINAL_TRACK_NUMBER            : 18
DISCOGS_RELEASE_ID                       : 413313
DISCOGS_RELEASED                         : 1988
STYLE                                    : Rock & Roll / Soft Rock / Arena Rock / Classic Rock

Аудио
Формат                                   : FLAC
Формат/Информация                        : Free Lossless Audio Codec
Продолжительность                        : 4 м. 48 с.
Вид битрейта                             : Переменный
Битрейт                                  : 5493 Кбит/сек
Каналы                                   : 2 канала
Частота                                  : 192 КГц
Битовая глубина                          : 24 бит
Размер потока                            : 189 Мбайт (100%)
Библиотека кодирования                   : libFLAC 1.2.1 (UTC 2007-09-17)

Общее
Полное имя                               : C:\Users\123\Desktop\МОЯ !!!\Flac\Tina Turner - Tina Live In Europe (24-192, UK, 2xLP Set) `1988\D1. Tina Turner - Help.flac
Формат                                   : FLAC
Формат/Информация                        : Free Lossless Audio Codec
Размер файла                             : 199 Мбайт
Продолжительность                        : 5 м. 11 с.
Режим общего битрейта                    : Переменный
Общий поток                              : 5364 Кбит/сек
Альбом                                   : Tina Live In Europe
Трек                                     : Help
Трек/Положение                           : 19
Трек/Всего                               : 24
Исполнитель                              : Tina Turner
Продюсер                                 : Capitol Records
Жанр                                     : Pop
Дата записи                              : 1988
Обложка                                  : Yes
Тип обложки                              : Cover (front)
MIME-тип обложки                         : image/jpeg
DISCOGS_ARTIST_LINK                      : Tina%20Turner
DISCOGS_CATALOG                          : ESTD 1
DISCOGS_COUNTRY                          : UK
DISCOGS_LABEL_LINK                       : Capitol%20Records
DISCOGS_ORIGINAL_TRACK_NUMBER            : 19
DISCOGS_RELEASE_ID                       : 413313
DISCOGS_RELEASED                         : 1988
STYLE                                    : Rock & Roll / Soft Rock / Arena Rock / Classic Rock

Аудио
Формат                                   : FLAC
Формат/Информация                        : Free Lossless Audio Codec
Продолжительность                        : 5 м. 11 с.
Вид битрейта                             : Переменный
Битрейт                                  : 5363 Кбит/сек
Каналы                                   : 2 канала
Частота                                  : 192 КГц
Битовая глубина                          : 24 бит
Размер потока                            : 199 Мбайт (100%)
Библиотека кодирования                   : libFLAC 1.2.1 (UTC 2007-09-17)

Общее
Полное имя                               : C:\Users\123\Desktop\МОЯ !!!\Flac\Tina Turner - Tina Live In Europe (24-192, UK, 2xLP Set) `1988\D2. Tina Turner - Tonight.flac
Формат                                   : FLAC
Формат/Информация                        : Free Lossless Audio Codec
Размер файла                             : 157 Мбайт
Продолжительность                        : 3 м. 55 с.
Режим общего битрейта                    : Переменный
Общий поток                              : 5598 Кбит/сек
Альбом                                   : Tina Live In Europe
Трек                                     : Tonight
Трек/Положение                           : 20
Трек/Всего                               : 24
Исполнитель                              : Tina Turner
Продюсер                                 : Capitol Records
Жанр                                     : Pop
Дата записи                              : 1988
Обложка                                  : Yes
Тип обложки                              : Cover (front)
MIME-тип обложки                         : image/jpeg
DISCOGS_ARTIST_LINK                      : Tina%20Turner
DISCOGS_CATALOG                          : ESTD 1
DISCOGS_COUNTRY                          : UK
DISCOGS_LABEL_LINK                       : Capitol%20Records
DISCOGS_ORIGINAL_TRACK_NUMBER            : 20
DISCOGS_RELEASE_ID                       : 413313
DISCOGS_RELEASED                         : 1988
STYLE                                    : Rock & Roll / Soft Rock / Arena Rock / Classic Rock

Аудио
Формат                                   : FLAC
Формат/Информация                        : Free Lossless Audio Codec
Продолжительность                        : 3 м. 55 с.
Вид битрейта                             : Переменный
Битрейт                                  : 5596 Кбит/сек
Каналы                                   : 2 канала
Частота                                  : 192 КГц
Битовая глубина                          : 24 бит
Размер потока                            : 157 Мбайт (100%)
Библиотека кодирования                   : libFLAC 1.2.1 (UTC 2007-09-17)

Общее
Полное имя                               : C:\Users\123\Desktop\МОЯ !!!\Flac\Tina Turner - Tina Live In Europe (24-192, UK, 2xLP Set) `1988\D3. Tina Turner - Let's Dance.flac
Формат                                   : FLAC
Формат/Информация                        : Free Lossless Audio Codec
Размер файла                             : 152 Мбайт
Продолжительность                        : 3 м. 46 с.
Режим общего битрейта                    : Переменный
Общий поток                              : 5640 Кбит/сек
Альбом                                   : Tina Live In Europe
Трек                                     : Let's Dance
Трек/Положение                           : 21
Трек/Всего                               : 24
Исполнитель                              : Tina Turner
Продюсер                                 : Capitol Records
Жанр                                     : Pop
Дата записи                              : 1988
Обложка                                  : Yes
Тип обложки                              : Cover (front)
MIME-тип обложки                         : image/jpeg
DISCOGS_ARTIST_LINK                      : Tina%20Turner
DISCOGS_CATALOG                          : ESTD 1
DISCOGS_COUNTRY                          : UK
DISCOGS_LABEL_LINK                       : Capitol%20Records
DISCOGS_ORIGINAL_TRACK_NUMBER            : 21
DISCOGS_RELEASE_ID                       : 413313
DISCOGS_RELEASED                         : 1988
STYLE                                    : Rock & Roll / Soft Rock / Arena Rock / Classic Rock

Аудио
Формат                                   : FLAC
Формат/Информация                        : Free Lossless Audio Codec
Продолжительность                        : 3 м. 46 с.
Вид битрейта                             : Переменный
Битрейт                                  : 5638 Кбит/сек
Каналы                                   : 2 канала
Частота                                  : 192 КГц
Битовая глубина                          : 24 бит
Размер потока                            : 152 Мбайт (100%)
Библиотека кодирования                   : libFLAC 1.2.1 (UTC 2007-09-17)

Общее
Полное имя                               : C:\Users\123\Desktop\МОЯ !!!\Flac\Tina Turner - Tina Live In Europe (24-192, UK, 2xLP Set) `1988\D4. Tina Turner - It's Only Love.flac
Формат                                   : FLAC
Формат/Информация                        : Free Lossless Audio Codec
Размер файла                             : 170 Мбайт
Продолжительность                        : 4 м. 15 с.
Режим общего битрейта                    : Переменный
Общий поток                              : 5575 Кбит/сек
Альбом                                   : Tina Live In Europe
Трек                                     : It's Only Love
Трек/Положение                           : 22
Трек/Всего                               : 24
Исполнитель                              : Tina Turner
Продюсер                                 : Capitol Records
Жанр                                     : Pop
Дата записи                              : 1988
Обложка                                  : Yes
Тип обложки                              : Cover (front)
MIME-тип обложки                         : image/jpeg
DISCOGS_ARTIST_LINK                      : Tina%20Turner
DISCOGS_CATALOG                          : ESTD 1
DISCOGS_COUNTRY                          : UK
DISCOGS_LABEL_LINK                       : Capitol%20Records
DISCOGS_ORIGINAL_TRACK_NUMBER            : 22
DISCOGS_RELEASE_ID                       : 413313
DISCOGS_RELEASED                         : 1988
STYLE                                    : Rock & Roll / Soft Rock / Arena Rock / Classic Rock

Аудио
Формат                                   : FLAC
Формат/Информация                        : Free Lossless Audio Codec
Продолжительность                        : 4 м. 15 с.
Вид битрейта                             : Переменный
Битрейт                                  : 5573 Кбит/сек
Каналы                                   : 2 канала
Частота                                  : 192 КГц
Битовая глубина                          : 24 бит
Размер потока                            : 170 Мбайт (100%)
Библиотека кодирования                   : libFLAC 1.2.1 (UTC 2007-09-17)

Общее
Полное имя                               : C:\Users\123\Desktop\МОЯ !!!\Flac\Tina Turner - Tina Live In Europe (24-192, UK, 2xLP Set) `1988\D5. Tina Turner - Nutbush City Limits.flac
Формат                                   : FLAC
Формат/Информация                        : Free Lossless Audio Codec
Размер файла                             : 142 Мбайт
Продолжительность                        : 3 м. 30 с.
Режим общего битрейта                    : Переменный
Общий поток                              : 5679 Кбит/сек
Альбом                                   : Tina Live In Europe
Трек                                     : Nutbush City Limits
Трек/Положение                           : 23
Трек/Всего                               : 24
Исполнитель                              : Tina Turner
Продюсер                                 : Capitol Records
Жанр                                     : Pop
Дата записи                              : 1988
Обложка                                  : Yes
Тип обложки                              : Cover (front)
MIME-тип обложки                         : image/jpeg
DISCOGS_ARTIST_LINK                      : Tina%20Turner
DISCOGS_CATALOG                          : ESTD 1
DISCOGS_COUNTRY                          : UK
DISCOGS_LABEL_LINK                       : Capitol%20Records
DISCOGS_ORIGINAL_TRACK_NUMBER            : 23
DISCOGS_RELEASE_ID                       : 413313
DISCOGS_RELEASED                         : 1988
STYLE                                    : Rock & Roll / Soft Rock / Arena Rock / Classic Rock

Аудио
Формат                                   : FLAC
Формат/Информация                        : Free Lossless Audio Codec
Продолжительность                        : 3 м. 30 с.
Вид битрейта                             : Переменный
Битрейт                                  : 5677 Кбит/сек
Каналы                                   : 2 канала
Частота                                  : 192 КГц
Битовая глубина                          : 24 бит
Размер потока                            : 142 Мбайт (100%)
Библиотека кодирования                   : libFLAC 1.2.1 (UTC 2007-09-17)

Общее
Полное имя                               : C:\Users\123\Desktop\МОЯ !!!\Flac\Tina Turner - Tina Live In Europe (24-192, UK, 2xLP Set) `1988\D6. Tina Turner - Paradise Is Here.flac
Формат                                   : FLAC
Формат/Информация                        : Free Lossless Audio Codec
Размер файла                             : 237 Мбайт
Продолжительность                        : 5 м. 54 с.
Режим общего битрейта                    : Переменный
Общий поток                              : 5599 Кбит/сек
Альбом                                   : Tina Live In Europe
Трек                                     : Paradise Is Here
Трек/Положение                           : 24
Трек/Всего                               : 24
Исполнитель                              : Tina Turner
Продюсер                                 : Capitol Records
Жанр                                     : Pop
Дата записи                              : 1988
Обложка                                  : Yes
Тип обложки                              : Cover (front)
MIME-тип обложки                         : image/jpeg
DISCOGS_ARTIST_LINK                      : Tina%20Turner
DISCOGS_CATALOG                          : ESTD 1
DISCOGS_COUNTRY                          : UK
DISCOGS_LABEL_LINK                       : Capitol%20Records
DISCOGS_ORIGINAL_TRACK_NUMBER            : 24
DISCOGS_RELEASE_ID                       : 413313
DISCOGS_RELEASED                         : 1988
STYLE                                    : Rock & Roll / Soft Rock / Arena Rock / Classic Rock

Аудио
Формат                                   : FLAC
Формат/Информация                        : Free Lossless Audio Codec
Продолжительность                        : 5 м. 54 с.
Вид битрейта                             : Переменный
Битрейт                                  : 5598 Кбит/сек
Каналы                                   : 2 канала
Частота                                  : 192 КГц
Битовая глубина                          : 24 бит
Размер потока                            : 237 Мбайт (100%)
Библиотека кодирования                   : libFLAC 1.2.1 (UTC 2007-09-17)

Общее
Полное имя                               : C:\Users\123\Desktop\МОЯ !!!\Flac\Tina Turner - Tina Live In Europe (24-192, UK, 2xLP Set) `1988\A1. Tina Turner - What You Get Is What You See.flac
Формат                                   : FLAC
Формат/Информация                        : Free Lossless Audio Codec
Размер файла                             : 201 Мбайт
Продолжительность                        : 5 м. 12 с.
Режим общего битрейта                    : Переменный
Общий поток                              : 5414 Кбит/сек
Альбом                                   : Tina Live In Europe
Трек                                     : What You Get Is What You See
Трек/Положение                           : 01
Трек/Всего                               : 24
Исполнитель                              : Tina Turner
Продюсер                                 : Capitol Records
Жанр                                     : Pop
Дата записи                              : 1988
Обложка                                  : Yes
Тип обложки                              : Cover (front)
MIME-тип обложки                         : image/jpeg
DISCOGS_ARTIST_LINK                      : Tina%20Turner
DISCOGS_CATALOG                          : ESTD 1
DISCOGS_COUNTRY                          : UK
DISCOGS_LABEL_LINK                       : Capitol%20Records
DISCOGS_ORIGINAL_TRACK_NUMBER            : 01
DISCOGS_RELEASE_ID                       : 413313
DISCOGS_RELEASED                         : 1988
STYLE                                    : Rock & Roll / Soft Rock / Arena Rock / Classic Rock

Аудио
Формат                                   : FLAC
Формат/Информация                        : Free Lossless Audio Codec
Продолжительность                        : 5 м. 12 с.
Вид битрейта                             : Переменный
Битрейт                                  : 5413 Кбит/сек
Каналы                                   : 2 канала
Частота                                  : 192 КГц
Битовая глубина                          : 24 бит
Размер потока                            : 201 Мбайт (100%)
Библиотека кодирования                   : libFLAC 1.2.1 (UTC 2007-09-17)

Общее
Полное имя                               : C:\Users\123\Desktop\МОЯ !!!\Flac\Tina Turner - Tina Live In Europe (24-192, UK, 2xLP Set) `1988\A2. Tina Turner - Break Every Rule.flac
Формат                                   : FLAC
Формат/Информация                        : Free Lossless Audio Codec
Размер файла                             : 185 Мбайт
Продолжительность                        : 4 м. 49 с.
Режим общего битрейта                    : Переменный
Общий поток                              : 5361 Кбит/сек
Альбом                                   : Tina Live In Europe
Трек                                     : Break Every Rule
Трек/Положение                           : 02
Трек/Всего                               : 24
Исполнитель                              : Tina Turner
Продюсер                                 : Capitol Records
Жанр                                     : Pop
Дата записи                              : 1988
Обложка                                  : Yes
Тип обложки                              : Cover (front)
MIME-тип обложки                         : image/jpeg
DISCOGS_ARTIST_LINK                      : Tina%20Turner
DISCOGS_CATALOG                          : ESTD 1
DISCOGS_COUNTRY                          : UK
DISCOGS_LABEL_LINK                       : Capitol%20Records
DISCOGS_ORIGINAL_TRACK_NUMBER            : 02
DISCOGS_RELEASE_ID                       : 413313
DISCOGS_RELEASED                         : 1988
STYLE                                    : Rock & Roll / Soft Rock / Arena Rock / Classic Rock

Аудио
Формат                                   : FLAC
Формат/Информация                        : Free Lossless Audio Codec
Продолжительность                        : 4 м. 49 с.
Вид битрейта                             : Переменный
Битрейт                                  : 5360 Кбит/сек
Каналы                                   : 2 канала
Частота                                  : 192 КГц
Битовая глубина                          : 24 бит
Размер потока                            : 185 Мбайт (100%)
Библиотека кодирования                   : libFLAC 1.2.1 (UTC 2007-09-17)

Общее
Полное имя                               : C:\Users\123\Desktop\МОЯ !!!\Flac\Tina Turner - Tina Live In Europe (24-192, UK, 2xLP Set) `1988\A3. Tina Turner - I Can't Stand The Rain.flac
Формат                                   : FLAC
Формат/Информация                        : Free Lossless Audio Codec
Размер файла                             : 134 Мбайт
Продолжительность                        : 3 м. 25 с.
Режим общего битрейта                    : Переменный
Общий поток                              : 5464 Кбит/сек
Альбом                                   : Tina Live In Europe
Трек                                     : I Can't Stand The Rain
Трек/Положение                           : 03
Трек/Всего                               : 24
Исполнитель                              : Tina Turner
Продюсер                                 : Capitol Records
Жанр                                     : Pop
Дата записи                              : 1988
Обложка                                  : Yes
Тип обложки                              : Cover (front)
MIME-тип обложки                         : image/jpeg
DISCOGS_ARTIST_LINK                      : Tina%20Turner
DISCOGS_CATALOG                          : ESTD 1
DISCOGS_COUNTRY                          : UK
DISCOGS_LABEL_LINK                       : Capitol%20Records
DISCOGS_ORIGINAL_TRACK_NUMBER            : 03
DISCOGS_RELEASE_ID                       : 413313
DISCOGS_RELEASED                         : 1988
STYLE                                    : Rock & Roll / Soft Rock / Arena Rock / Classic Rock

Аудио
Формат                                   : FLAC
Формат/Информация                        : Free Lossless Audio Codec
Продолжительность                        : 3 м. 25 с.
Вид битрейта                             : Переменный
Битрейт                                  : 5462 Кбит/сек
Каналы                                   : 2 канала
Частота                                  : 192 КГц
Битовая глубина                          : 24 бит
Размер потока                            : 134 Мбайт (100%)
Библиотека кодирования                   : libFLAC 1.2.1 (UTC 2007-09-17)

Общее
Полное имя                               : C:\Users\123\Desktop\МОЯ !!!\Flac\Tina Turner - Tina Live In Europe (24-192, UK, 2xLP Set) `1988\A4. Tina Turner - Two People.flac
Формат                                   : FLAC
Формат/Информация                        : Free Lossless Audio Codec
Размер файла                             : 167 Мбайт
Продолжительность                        : 4 м. 25 с.
Режим общего битрейта                    : Переменный
Общий поток                              : 5293 Кбит/сек
Альбом                                   : Tina Live In Europe
Трек                                     : Two People
Трек/Положение                           : 04
Трек/Всего                               : 24
Исполнитель                              : Tina Turner
Продюсер                                 : Capitol Records
Жанр                                     : Pop
Дата записи                              : 1988
Обложка                                  : Yes
Тип обложки                              : Cover (front)
MIME-тип обложки                         : image/jpeg
DISCOGS_ARTIST_LINK                      : Tina%20Turner
DISCOGS_CATALOG                          : ESTD 1
DISCOGS_COUNTRY                          : UK
DISCOGS_LABEL_LINK                       : Capitol%20Records
DISCOGS_ORIGINAL_TRACK_NUMBER            : 04
DISCOGS_RELEASE_ID                       : 413313
DISCOGS_RELEASED                         : 1988
STYLE                                    : Rock & Roll / Soft Rock / Arena Rock / Classic Rock

Аудио
Формат                                   : FLAC
Формат/Информация                        : Free Lossless Audio Codec
Продолжительность                        : 4 м. 25 с.
Вид битрейта                             : Переменный
Битрейт                                  : 5292 Кбит/сек
Каналы                                   : 2 канала
Частота                                  : 192 КГц
Битовая глубина                          : 24 бит
Размер потока                            : 167 Мбайт (100%)
Библиотека кодирования                   : libFLAC 1.2.1 (UTC 2007-09-17)

Общее
Полное имя                               : C:\Users\123\Desktop\МОЯ !!!\Flac\Tina Turner - Tina Live In Europe (24-192, UK, 2xLP Set) `1988\A5. Tina Turner - Typical Male.flac
Формат                                   : FLAC
Формат/Информация                        : Free Lossless Audio Codec
Размер файла                             : 154 Мбайт
Продолжительность                        : 4 м. 1 с.
Режим общего битрейта                    : Переменный
Общий поток                              : 5366 Кбит/сек
Альбом                                   : Tina Live In Europe
Трек                                     : Typical Male
Трек/Положение                           : 05
Трек/Всего                               : 24
Исполнитель                              : Tina Turner
Продюсер                                 : Capitol Records
Жанр                                     : Pop
Дата записи                              : 1988
Обложка                                  : Yes
Тип обложки                              : Cover (front)
MIME-тип обложки                         : image/jpeg
DISCOGS_ARTIST_LINK                      : Tina%20Turner
DISCOGS_CATALOG                          : ESTD 1
DISCOGS_COUNTRY                          : UK
DISCOGS_LABEL_LINK                       : Capitol%20Records
DISCOGS_ORIGINAL_TRACK_NUMBER            : 05
DISCOGS_RELEASE_ID                       : 413313
DISCOGS_RELEASED                         : 1988
STYLE                                    : Rock & Roll / Soft Rock / Arena Rock / Classic Rock

Аудио
Формат                                   : FLAC
Формат/Информация                        : Free Lossless Audio Codec
Продолжительность                        : 4 м. 1 с.
Вид битрейта                             : Переменный
Битрейт                                  : 5364 Кбит/сек
Каналы                                   : 2 канала
Частота                                  : 192 КГц
Битовая глубина                          : 24 бит
Размер потока                            : 154 Мбайт (100%)
Библиотека кодирования                   : libFLAC 1.2.1 (UTC 2007-09-17)
Код:
Код класса состояния винила: Ex
Устройство воспроизведения: Kenwood KD 770D
Головка звукоснимателя: AT 150 MLX
Предварительный усилитель: Creek OBH-8SE
АЦП: E-MU 0404 USB
Программа-оцифровщик: Adobe Audition 3.0
Обработка: Пытылся удалить щелчки
Формат записи: 32/192
Формат раздачи: 24/192
Код:
foobar2000 1.2.9 / Замер динамического диапазона (DR) 1.1.1
Дата отчёта: 2013-10-05 16:57:24

--------------------------------------------------------------------------------
Анализ:       Tina Turner / Tina Live In Europe (Live)
--------------------------------------------------------------------------------

DR         Пики            RMS           Продолжительность трека
--------------------------------------------------------------------------------
DR15      -0.08 дб        -16.08 дб         5:12 1-What You Get Is What You See
DR13      -0.24 дб        -16.40 дб         4:50 2-Break Every Rule
DR14      -1.56 дб        -17.89 дб         3:25 3-I Can't Stand The Rain
DR13      -1.37 дб        -16.39 дб         4:25 4-Two People
DR13      -1.74 дб        -15.67 дб         4:01 5-Typical Male
DR13      -0.28 дб        -15.50 дб         6:38 6-Better Be Good To Me
DR13       0.00 дб        -14.24 дб         5:17 7-Addicted To Love
DR13      -1.90 дб        -18.97 дб         5:43 8-Private Dancer
DR13      -1.36 дб        -15.89 дб         4:46 9-We Don't Need Another Hero (Thunderdome)
DR13      -2.06 дб        -17.79 дб         5:40 10-What's Love Got To Do With It
DR13      -3.12 дб        -19.22 дб         4:40 11-Let's Stay Together
DR13      -1.19 дб        -16.00 дб         3:06 12-Show Some Respect
DR13      -1.62 дб        -16.13 дб         3:06 13-Land Of 1000 Dances
DR14       0.00 дб        -15.06 дб         3:28 14-In The Midnight Hour
DR12      -0.76 дб        -15.66 дб         3:11 15-634-5789
DR12      -2.58 дб        -17.89 дб         6:42 16-A Change Is Gonna Come
DR12      -2.13 дб        -16.60 дб         4:42 17-Tearing Us Apart
DR12      -1.61 дб        -16.89 дб         4:48 18-Proud Mary
DR13      -1.21 дб        -18.40 дб         5:12 19-Help
DR13      -1.57 дб        -16.83 дб         3:55 20-Tonight
DR13      -1.87 дб        -17.62 дб         3:46 21-Let's Dance
DR12      -0.21 дб        -15.20 дб         4:15 22-It's Only Love
DR11      -0.81 дб        -13.62 дб         3:30 23-Nutbush City Limits
DR11      -2.84 дб        -15.98 дб         5:55 24-Paradise Is Here
--------------------------------------------------------------------------------

Количество треков:    24
Реальные значения DR: DR13

Частота:                 192000 Гц
Каналов:                 2
Бит на сэмпл:     24
Битрейт:                 5598 кбит/с
Кодек:                   FLAC
================================================================================


Recorded At - Birmingham N.E.C.
Recorded At - Wembley Arena
Recorded At - Camden Palace
Recorded At - Westfalenhalle
Recorded At - Isstadion

Producer - John Hudson (tracks: A1, A2, A4, A5, B1, B3, B4, C1-C6, D5, D6), Terry Britten (tracks: A3, A6, B2, B5, B6, D1-D4)
+++
Recorded at NEC Birmingham, Wembley Arena London, Camden Palace London, Westfallenhalle Dortmund West Germany, Isstadion Stockholm Sweden
Comes with a 20 page colour tour guide.



Время раздачи: С 18:00 до 24:00 (по возможности дольше)
[NNM-Club.me]_Tina Turner - Tina Live In Europe (24-192, UK, 2xLP Set) `1988.torrent
 Торрент: Платиновая раздача  Зарегистрирован
 
Скачать


Примагнититься
 Зарегистрирован:   05 Окт 2013 14:50:12
 Размер:   4,22 GB  (
 Рейтинг:   5 (Голосов: 21)
 Поблагодарили:   75
 Проверка:   Оформление проверено модератором 05 Окт 2013 22:18:50
Как cкачать  ·  Как раздать  ·  Правильно оформить  ·  Поднять ратио!  
Poweruss ®
 
Стаж: 7 лет
Сообщений: 2391
Ratio: 98,296
Поблагодарили: 25737
100%
Откуда: точно не знаю.
nnm-club.gif
ПРИЯТНОГО ПРОСЛУШИВАНИЯ! :подмигивание:

_________________
Что мешает тебе? Расскажи нам, бездарный танцор!
VINIL MAN
Виниловый маньяк
Стаж: 8 лет 8 мес.
Сообщений: 8967
Ratio: 93,924
Раздал: 2,674 TB
Поблагодарили: 34654
100%
Откуда: Переяслав
ukraine.gif
Спасибо! Хороший элбумЪ.

_________________
Я не собираюсь менять мир, я просто хочу перевязать вам раны... Ян Андерсон
Poweruss ®
 
Стаж: 7 лет
Сообщений: 2391
Ratio: 98,296
Поблагодарили: 25737
100%
Откуда: точно не знаю.
nnm-club.gif
Пасиб за "спасиб", Винилыч! Считаю, что в зальниках энергия и аура совершенно отличная от студийников. Мощнее звучит, открытее. А уж тем более - на виниле. Аж мурашки в некоторых песнях... :да:

_________________
Что мешает тебе? Расскажи нам, бездарный танцор!
VINIL MAN
Виниловый маньяк
Стаж: 8 лет 8 мес.
Сообщений: 8967
Ratio: 93,924
Раздал: 2,674 TB
Поблагодарили: 34654
100%
Откуда: Переяслав
ukraine.gif
Poweruss писал(а):
Аж мурашки

Это если зальникЪ хороший. А тем более ,что на концертах песня звучит как-бы по новому и каждый раз по другому. ИМХО конечно. Кстати давно этот элбум себе взял - мне он по душе хоть Тину я и редко слушаю.

_________________
Я не собираюсь менять мир, я просто хочу перевязать вам раны... Ян Андерсон
iodun
Стаж: 10 мес. 27 дней
Сообщений: 1
Ratio: 0,003
0%
russia.gif
:поцелуй: Так хочица послушать Тину живьем...
Господа, встаньте ктонить на раздачууууу..... Браво!

_________________
It's only rock'n'roll...
but I like it!!!
© Jagger\Richards
weather
 
Стаж: 7 лет 8 мес.
Сообщений: 972
Ratio: 15,897
Раздал: 61,93 TB
Поблагодарили: 3807
100%
kyrgyzstan.gif
iodun писал(а): Перейти к сообщению
:поцелуй: Так хочица послушать Тину живьем...
Господа, встаньте ктонить на раздачууууу..... Браво!

Поддерживаю!
Почему то пропустил этот релиз...

_________________
Добрых людей на путях ваших!
weather
 
Стаж: 7 лет 8 мес.
Сообщений: 972
Ratio: 15,897
Раздал: 61,93 TB
Поблагодарили: 3807
100%
kyrgyzstan.gif
Двое на закачке!

_________________
Добрых людей на путях ваших!
VINIL MAN
Виниловый маньяк
Стаж: 8 лет 8 мес.
Сообщений: 8967
Ratio: 93,924
Раздал: 2,674 TB
Поблагодарили: 34654
100%
Откуда: Переяслав
ukraine.gif
weather
У меня есь ентот элбум. Но давно поменял название папки, CUE файла нет и т.д. Попробую Вам помочь.
P.S.
Хеш 99,7% и раздача ниразу не идет. Сходите к соседям там есть этот релиз и есть один сид. Раздача идет, я проверил. Удачи!

_________________
Я не собираюсь менять мир, я просто хочу перевязать вам раны... Ян Андерсон
Показать сообщения:   
Начать новую тему   Ответить на тему    Торрент-трекер NNM-Club -> HD Audio и Многоканальная Музыка -> Vinyl-Rip и Hand-Made Часовой пояс: GMT + 3
Страница 1 из 1