Классический форум-трекер
canvas not supported
Нас вместе: 4 079 201

Холодное сердце / Frozen (2013) BDRip [1080p] 3D [Вертикальная анаморфная стереопара]


 
 
RSS
Начать новую тему   Ответить на тему    Торрент-трекер NNM-Club -> Мультфильмы -> Зарубежные Мультфильмы (3D)
Автор Сообщение
MR Sergei ®
Uploaders 100+
 
Стаж: 7 лет 1 мес.
Сообщений: 3061
Ratio: 33K
Раздал: 302,4 TB
Поблагодарили: 549115
100%
Откуда: ЛНР, Краснодон
russia.gif
Холодное сердце / Frozen (2013) BDRip [1080p] 3D [Вертикальная анаморфная стереопара]
Год выпуска: 2013
Производство: США, Walt Disney Animation Studios, Walt Disney Pictures
Жанр: Фэнтези, Комедия, Приключения
Перевод: Дублированный [Лицензия CEE]
Субтитры: Вшитые отключаемые
Язык субтитров: Русский Полные (BD 3D CEE), Русский Полные (Нотабеноид), Английский Full, Английский SDH, Английский SDH-Colored

Режиссер: Крис Бак, Дженнифер Ли
Продюсер: Питер Дель Вечо, Джон Лассетер, Айми Скрибнер
Актеры: Кристен Белл, Идина Мензел, Джонатан Грофф, Джош Гад, Сантино Фонтана, Алан Тьюдик, Киаран Хайндс, Крис Уильямс, Стивен Дж. Андерсон, Майа Уилсон

Описание фильма:
Когда древнее предсказание сбывается и королевство погружается в объятия вечной зимы, трое бесстрашных героев — принцесса Анна, отважный Кристофф и его верный олень Свен — отправляются в горы, чтобы найти сестру Анны, Эльзу, которая может снять со страны леденящее заклятие. По пути их ждет множество увлекательных сюрпризов и захватывающих приключений: встреча с мистическими троллями, знакомство с очаровательным снеговиком по имени Олаф, горные вершины покруче Эвереста и магия в каждой снежинке. Анне и Кристоффу предстоит сплотиться и противостоять могучей стихии, чтобы спасти королевство и тех, кто им дорог…



Дата мировой премьеры: 10 ноября 2013
Дата российской премьеры: 12 декабря 2013, «WDSSPR» 3D
Дата выхода DVD релиза: 29 апреля 2014, «Уолт Дисней Компани СНГ»

Продолжительность: 01:42:13
Качество видео: BDRip [1080p]

Видеокодек: MPEG-4 AVC/H.264
Битрейт видео: ~6652 Kbps
Размер кадра: 1920х1080
Аудио #1: Русский: AC-3, 48.0 KHz, 6 ch, 640 Kbps, CBR
Аудио #2: Английский: AC-3, 48.0 KHz, 6 ch, 640 Kbps, CBR
Сэмпл: Скачать
Общее
Уникальный идентификатор : 187544796722767056186990976695516729168 (0x8D17D061CB9F82BF98777BE8DD9F0F50)
Полное имя : D:\Фильмы 3D\Holodnoe.serdce.2013.D.3D-halfOU.BDRip.1080p.mkv
Формат : Matroska
Версия формата : Version 4 / Version 2
Размер файла : 5,78 Гбайт
Продолжительность : 1 ч. 42 м.
Общий поток : 8093 Кбит/сек
Дата кодирования : UTC 2014-03-28 08:32:56
Программа кодирования : mkvmerge v6.8.0 ('Theme for Great Cities') 64bit built on Mar 2 2014 21:34:26
Библиотека кодирования : libebml v1.3.0 + libmatroska v1.4.1

Видео
Идентификатор : 1
Формат : AVC
Формат/Информация : Advanced Video Codec
Профиль формата : High@L4.1
Параметр CABAC формата : Да
Параметр ReFrames формата : 4 кадра
Идентификатор кодека : V_MPEG4/ISO/AVC
Продолжительность : 1 ч. 42 м.
Битрейт : 6652 Кбит/сек
Ширина : 1920 пикселей
Высота : 1080 пикселей
Соотношение сторон : 16:9
Режим частоты кадров : Постоянный
Частота кадров : 23,976 кадра/сек
Цветовое пространство : YUV
Субдискретизация насыщенности : 4:2:0
Битовая глубина : 8 бит
Тип развёртки : Прогрессивная
Бит/(Пиксели*Кадры) : 0.134
Размер потока : 4,75 Гбайт (82%)
Библиотека кодирования : x264 core 129 r2245 bc13772
Настройки программы : cabac=1 / ref=4 / deblock=1:-3:-3 / analyse=0x3:0x113 / me=umh / subme=10 / psy=1 / psy_rd=1.00:0.15 / mixed_ref=1 / me_range=32 / chroma_me=1 / trellis=2 / 8x8dct=1 / cqm=0 / deadzone=21,11 / fast_pskip=1 / chroma_qp_offset=-3 / threads=12 / lookahead_threads=2 / sliced_threads=0 / nr=0 / decimate=1 / interlaced=0 / bluray_compat=0 / constrained_intra=0 / bframes=8 / b_pyramid=2 / b_adapt=2 / b_bias=0 / direct=3 / weightb=1 / open_gop=0 / weightp=2 / keyint=250 / keyint_min=23 / scenecut=40 / intra_refresh=0 / rc_lookahead=60 / rc=crf / mbtree=1 / crf=17.0 / qcomp=0.70 / qpmin=0 / qpmax=69 / qpstep=4 / vbv_maxrate=40000 / vbv_bufsize=30000 / crf_max=0.0 / nal_hrd=none / frame-packing=4 / ip_ratio=1.40 / aq=1:0.70
Язык : English
Default : Да
Forced : Нет

Аудио #1
Идентификатор : 2
Формат : AC-3
Формат/Информация : Audio Coding 3
Расширение режима : CM (complete main)
Параметр Endianness формата : Big
Идентификатор кодека : A_AC3
Продолжительность : 1 ч. 42 м.
Вид битрейта : Постоянный
Битрейт : 640 Кбит/сек
Каналы : 6 каналов
Расположение каналов : Front: L C R, Side: L R, LFE
Частота : 48,0 КГц
Битовая глубина : 16 бит
Метод сжатия : С потерями
Размер потока : 468 Мбайт (8%)
Заголовок : Дубляж - BD 3D CEE
Язык : Russian
Default : Да
Forced : Нет

Аудио #2
Идентификатор : 3
Формат : AC-3
Формат/Информация : Audio Coding 3
Расширение режима : CM (complete main)
Параметр Endianness формата : Big
Идентификатор кодека : A_AC3
Продолжительность : 1 ч. 42 м.
Вид битрейта : Постоянный
Битрейт : 640 Кбит/сек
Каналы : 6 каналов
Расположение каналов : Front: L C R, Side: L R, LFE
Частота : 48,0 КГц
Битовая глубина : 16 бит
Метод сжатия : С потерями
Размер потока : 468 Мбайт (8%)
Заголовок : Original - BD 3D CEE
Язык : English
Default : Нет
Forced : Нет

Текст #1
Идентификатор : 4
Формат : UTF-8
Идентификатор кодека : S_TEXT/UTF8
Идентификатор кодека/Информация : UTF-8 Plain Text
Заголовок : Полные (BD 3D CEE)
Язык : Russian
Default : Нет
Forced : Нет

Текст #2
Идентификатор : 5
Формат : UTF-8
Идентификатор кодека : S_TEXT/UTF8
Идентификатор кодека/Информация : UTF-8 Plain Text
Заголовок : Полные (Нотабеноид)
Язык : Russian
Default : Нет
Forced : Нет

Текст #3
Идентификатор : 6
Формат : UTF-8
Идентификатор кодека : S_TEXT/UTF8
Идентификатор кодека/Информация : UTF-8 Plain Text
Заголовок : Full
Язык : English
Default : Нет
Forced : Нет

Текст #4
Идентификатор : 7
Формат : UTF-8
Идентификатор кодека : S_TEXT/UTF8
Идентификатор кодека/Информация : UTF-8 Plain Text
Заголовок : SDH
Язык : English
Default : Нет
Forced : Нет

Текст #5
Идентификатор : 8
Формат : UTF-8
Идентификатор кодека : S_TEXT/UTF8
Идентификатор кодека/Информация : UTF-8 Plain Text
Заголовок : SDH-Colored
Язык : English
Default : Нет
Forced : Нет

Меню
00:00:00.000 : :1
00:05:59.817 : :2
00:11:37.947 : :3
00:19:53.733 : :4
00:31:03.193 : :5
00:38:39.483 : :6
00:44:21.282 : :7
00:50:51.505 : :8
00:57:48.380 : :9
01:02:57.398 : :10
01:09:36.046 : :11
01:13:34.868 : :12
01:18:07.599 : :13
01:22:33.739 : :14
01:27:10.807 : :15
01:32:33.506 : :16
Скриншоты:



Время раздачи: 24/7
(до 5 скачавших)

Холодное сердце на NoNaMe Club
[NNM-Club.me]_Holodnoe.serdce.2013.D.3D-halfOU.BDRip.1080p.torrent
 Торрент: Платиновая раздача  Зарегистрирован
 
Скачать


Примагнититься
 Зарегистрирован:   28 Мар 2014 12:19:17
 Размер:   5,78 GB  (
 Рейтинг:   4,8 (Голосов: 135)
 Поблагодарили:   650
 Проверка:   Оформление проверено модератором 29 Мар 2014 19:13:37
Как cкачать  ·  Как раздать  ·  Правильно оформить  ·  Поднять ратио!  
Chermonder
Стаж: 9 лет 1 мес.
Сообщений: 25
Ratio: 32,92
5.37%
Спасибо, нормальный мульт. Один раз посмотреть - самое то)
Правда песен много.. И жена сказала, что по поведению я - тот олень..
IMAX_007
Стаж: 6 лет 10 мес.
Сообщений: 18
Ratio: 15,858
100%
russia.gif
Chermonder писал(а): Перейти к сообщению
Спасибо, нормальный мульт. Один раз посмотреть - самое то)
Правда песен много.. И жена сказала, что по поведению я - тот олень..


ахахах ) Значит любит жена)
000000
Стаж: 10 лет 4 мес.
Сообщений: 50
Ratio: 4,964
4.89%
ussr.gif
Странно, но на телике (встроенный проигрыватель) запускается без 3D, хотя на компьютере нормально открывается двойная картинка...
Лариса Чек
Стаж: 3 года 10 мес.
Сообщений: 2
100%
Большое спасибо за мульт, качество хорошее. Посмеяться и задуматься есть над чем.
evorios
Стаж: 6 лет 11 мес.
Сообщений: 12
Ratio: 0,707
27.4%
Кто-нибудь знает, когда выйдет вторая часть?
dr_shtopor
 
Стаж: 7 лет
Сообщений: 37
Ratio: 3,017
100%
russia.gif
Где бы раздобыть не анаморф, а полную стереопару, но в BDrip...

_________________
Человек с рождения умеет только срать и ссать. Остальному придётся учиться.
I7 3770K 16Bb 1886 RAM GTX 980TI
Показать сообщения:   
Начать новую тему   Ответить на тему    Торрент-трекер NNM-Club -> Мультфильмы -> Зарубежные Мультфильмы (3D) Часовой пояс: GMT + 3
Страница 1 из 1