Классический форум-трекер
canvas not supported
Нас вместе: 4 072 841

Побег с планеты Земля / Escape from Planet Earth (2013) BDRip [1080p]


 
 
RSS
Начать новую тему   Ответить на тему    Торрент-трекер NNM-Club -> Архив торрентов -> Архив Мультфильмов
Автор Сообщение
Shuran80 ®
Свободный релизер
 
Стаж: 10 лет 1 мес.
Сообщений: 3173
Ratio: 1197,728
Раздал: 86,82 TB
Поблагодарили: 186358
100%
Откуда: Ленинград
ussr.gif
Побег с планеты Земля / Escape from Planet Earth (2013) BDRip
Русское название: Побег с планеты Земля
Оригинальное название: Escape from Planet Earth
Год выпуска: 2013
Производство: США, Канада
Жанр: Анимация, Фантастика, Комедия, Приключения

Перевод: Дублированный (Лицензия)
Субтитры: Отсутствуют

Режиссер: Кэллан Брукнер
Актеры: Брендан Фрейзер, Роб Кордри, Рики Джервэйс, Джонатан Морган Хейт, Джессика Альба, София Вергара, Пол Шеер, Джейсон Симпсон, Сара Джессика Паркер, Даг Абрахамс

Описание:
На планете Бааб, в самом центре Вселенной, два брата делают всё возможное, чтобы защитить свою галактику. Они — полные противоположности. Если девиз Гарри — «сначала подумай, потом сделай», то отважный Скорч живет по закону «сила есть — ума не надо», что не мешает им слаженно работать. Но однажды они получают сигнал S.O.S. с опасной планеты…под названием Земля. Скорч, сломя голову, бросается на помощь, и, разумеется, влипает в неприятности. Только Гарри может вытащить его из «Зоны 51». Братья откроют множество головокружительных тайн, но смогут ли они сбежать с самой опасной планеты во Вселенной?


Дата мировой премьеры: 14 февраля 2013
Дата российской премьеры: 28 февраля 2013, «Люксор»
Дата выхода DVD/Blu-Ray релиза: 2 апреля 2013, «Флагман-Трейд»

Продолжительность: 01:29:15
Качество видео: BDRip [1080p]
Видеокодек: MPEG-4 AVC/H.264
Видео: 1920x824, ~10.7 Мбит/с
Аудио: DTS, 6 ch, 1510 Кбит/с (Дублированный, Русский)
Общее
Уникальный идентификатор : 171035838081392334481550687338647384265 (0x80AC4DE0DDAE91A396544CECEA05F0C9)
Полное имя : Pobeg.2013.D.BDRip.1080p.mkv
Формат : Matroska
Версия формата : Version 2
Размер файла : 7,64 Гбайт
Продолжительность : 1 ч. 29 м.
Общий поток : 12,3 Мбит/сек
Название фильма : Побег с планеты Земля (Rip by kaspr)
Дата кодирования : UTC 2013-03-31 01:27:19
Программа кодирования : mkvmerge v5.7.0 ('The Whirlwind') built on Aug 7 2012 14:11:40
Библиотека кодирования : libebml v1.2.3 + libmatroska v1.3.0

Видео
Идентификатор : 1
Формат : AVC
Формат/Информация : Advanced Video Codec
Профиль формата : High@L4.1
Параметр CABAC формата : Да
Параметр ReFrames формата : 5 кадров
Идентификатор кодека : V_MPEG4/ISO/AVC
Продолжительность : 1 ч. 29 м.
Битрейт : 10,7 Мбит/сек
Ширина : 1920 пикселей
Высота : 824 пикселя
Соотношение сторон : 2,35:1
Частота кадров : 23,976 кадра/сек
Цветовое пространство : YUV
Субдискретизация насыщенности : 4:2:0
Битовая глубина : 8 бит
Тип развёртки : Прогрессивная
Бит/(Пиксели*Кадры) : 0.283
Размер потока : 6,55 Гбайт (86%)
Заголовок : Побег с планеты Земля (Rip by kaspr)
Библиотека кодирования : x264 core 130 r2273 b3065e6
Настройки программы : cabac=1 / ref=5 / deblock=1:-3:-3 / analyse=0x3:0x133 / me=umh / subme=11 / psy=1 / psy_rd=1.00:0.10 / mixed_ref=1 / me_range=32 / chroma_me=1 / trellis=2 / 8x8dct=1 / cqm=0 / deadzone=21,11 / fast_pskip=0 / chroma_qp_offset=-3 / threads=12 / lookahead_threads=1 / sliced_threads=0 / nr=0 / decimate=0 / interlaced=0 / bluray_compat=0 / constrained_intra=0 / bframes=6 / b_pyramid=2 / b_adapt=2 / b_bias=0 / direct=3 / weightb=1 / open_gop=0 / weightp=2 / keyint=240 / keyint_min=22 / scenecut=40 / intra_refresh=0 / rc_lookahead=40 / rc=2pass / mbtree=1 / bitrate=10743 / ratetol=1.0 / qcomp=0.60 / qpmin=0 / qpmax=69 / qpstep=4 / cplxblur=20.0 / qblur=0.5 / ip_ratio=1.40 / aq=1:1.00
Язык : English
Default : Да
Forced : Нет

Аудио
Идентификатор : 2
Формат : DTS
Формат/Информация : Digital Theater Systems
Идентификатор кодека : A_DTS
Продолжительность : 1 ч. 29 м.
Вид битрейта : Постоянный
Битрейт : 1510 Кбит/сек
Каналы : 6 каналов
Расположение каналов : Front: L C R, Side: L R, LFE
Частота : 48,0 КГц
Битовая глубина : 16 бит
Метод сжатия : С потерями
Размер потока : 964 Мбайт (12%)
Заголовок : Дубляж
Язык : Russian
Default : Да
Forced : Да

Меню
00:00:00.000 : en:Chapter 01
00:08:21.584 : en:Chapter 02
00:15:30.888 : en:Chapter 03
00:25:19.809 : en:Chapter 04
00:32:23.274 : en:Chapter 05
00:40:41.522 : en:Chapter 06
00:49:52.572 : en:Chapter 07
00:57:21.980 : en:Chapter 08
01:06:59.015 : en:Chapter 09
01:13:39.164 : en:Chapter 10
01:21:54.242 : en:Chapter 11
Скриншоты:




Побег с планеты Земля на NoNaMe Club

Время раздачи: Обычно с 19:00 до 00:00 :спит:
[NNM-Club.ru]_Pobeg.2013.D.BDRip.1080p.mkv.torrent
 Торрент: Платиновая раздача  Зарегистрирован
 
Скачать


Примагнититься
 Зарегистрирован:   31 Мар 2013 10:18:04
 Размер:   7,64 GB  (
 Рейтинг:   4,8 (Голосов: 81)
 Поблагодарили:   362
 Проверка:   Оформление проверено модератором 31 Мар 2013 11:13:41
Как cкачать  ·  Как раздать  ·  Правильно оформить  ·  Поднять ратио!  

_________________
Внимание! Временно отсутствую на своих раздачах. Просьба понять и простить. )
LemOn_donnet
Стаж: 7 лет 3 мес.
Сообщений: 99
Ratio: 21,205
100%
Откуда: ДНР Zugres
nnm-club.gif
Спасибо
Топик был перенесен из форума Зарубежные Мультфильмы (HD, UHD, UHD-LQ) в форум Архив Мультфильмов

Причина переноса: http://nnm-club.me/forum/viewtopic.php?p=9873224#9873224

Исправил релиз - напиши ЛС denver7979, дав ссылку на релиз.
Если нет ответа 24 часа - нажми на кнопку "Обратить внимание модераторов".
Показать сообщения:   
Начать новую тему   Ответить на тему    Торрент-трекер NNM-Club -> Архив торрентов -> Архив Мультфильмов Часовой пояс: GMT + 3
Страница 1 из 1