Классический форум-трекер
canvas not supported
Нас вместе: 4 076 949

Приключения Винни Пуха / The Many Adventures of Winnie the Pooh (1977) BDRip


 
 
RSS
Начать новую тему   Ответить на тему    Торрент-трекер NNM-Club -> Мультфильмы -> Зарубежные Мультфильмы для детей
Автор Сообщение
WYGD! ®
Стаж: 6 лет 7 мес.
Сообщений: 64
Ratio: 59,216
Поблагодарили: 5202
100%
pirates.png
Приключения Винни Пуха / The Many Adventures of Winnie the Pooh (1977) от R.G. Shadoof
Год выпуска: 1977
Производство: США
Жанр: мультфильм, мюзикл, фэнтези, семейный
Перевод: Дублированный (лицензия) + Многоголосый закадровый ("Карусель")
Субтитры: Отсутствуют

Релиз группы: R.G. Shadoof
Автор рипа : What You Gonna Do

Режиссер: Джон Лоунсбери, Вольфганг Райтерман
Роли озвучивали: Себастьян Кабот, Джуниос Мэтьюз, Барбара Ладди, Ховард Моррис, Джон Фидлер, Ральф Райт, Хэл Смит, Клинт Ховард, Брюс Рейтерман, Джон Уолмсли


Описание: Кто такой Винни Пух, знают все. Этот мультфильм производства компании Уолта Диснея основан на оригинальных иллюстрациях четырехтомного собрания о Винни Пухе Эрнеста Шепарда. Познакомьтесь с Винни Пухом, каким его видят англоязычные ценители и который, конечно, отличается от русской версии Бориса Заходера.

Исходник: Приключения Винни Пуха / The Many Adventures of Winnie the Pooh (1977) Blu-ray 1080p AVC DTS-HD 5.1[/u]

Продолжительность:01:13:59
Качество видео: BDRip
Видеокодек: XviD
Битрейт видео: ~2026 kbps
Размер кадра: 720x432
Аудио #1: Русский; 48 kHz, AC3 Dolby Digital, 3/2 (L,C,R,l,r) + LFE ch, ~384 kbps
Аудио #2: Русский; 48 kHz, AC3 Dolby Digital, 3/2 (L,C,R,l,r) + LFE ch, ~384 kbps
Код: выделить все
Формат                                   : AVI
Формат/Информация                        : Audio Video Interleave
Размер файла                             : 1,45 Гбайт
Продолжительность                        : 1 ч. 13 м.
Общий поток                              : 2810 Кбит/сек
Название фильма                          : The.Many.Adventures.of.Winnie.the.Pooh.RUS.1977.BDRip.XviD.AC3~R.G. Shadoof
Режиссёр                                 : WYGD
Программа кодирования                    : VirtualDubMod 1.5.10.2 (build 2540/release)
Правообладатель                          : R.G.Shadoof
Примечание                               : 02.05.2013

Видео
Идентификатор                            : 0
Формат                                   : MPEG-4 Visual
Профиль формата                          : Advanced Simple@L5
Параметр BVOP формата                    : 1
Параметр QPel формата                    : Нет
Параметр GMC формата                     : Без точки перехода
Параметр матрицы формата                 : Выборочная
Идентификатор кодека                     : XVID
Идентификатор кодека/Подсказка           : XviD
Продолжительность                        : 1 ч. 13 м.
Битрейт                                  : 2028 Кбит/сек
Ширина                                   : 720 пикселей
Высота                                   : 432 пикселя
Соотношение сторон                       : 1,667
Частота кадров                           : 23,976 кадра/сек
Цветовое пространство                    : YUV
Субдискретизация насыщенности            : 4:2:0
Битовая глубина                          : 8 бит
Тип развёртки                            : Прогрессивная
Метод сжатия                             : С потерями
Бит/(Пиксели*Кадры)                      : 0.272
Размер потока                            : 1,05 Гбайт (72%)
Библиотека кодирования                   : XviD 64

Аудио #1
Идентификатор                            : 1
Формат                                   : AC-3
Формат/Информация                        : Audio Coding 3
Расширение режима                        : CM (complete main)
Параметр Endianness формата              : Big
Идентификатор кодека                     : 2000
Продолжительность                        : 1 ч. 13 м.
Вид битрейта                             : Постоянный
Битрейт                                  : 384 Кбит/сек
Каналы                                   : 6 каналов
Расположение каналов                     : Front: L C R, Side: L R, LFE
Частота                                  : 48,0 КГц
Битовая глубина                          : 16 бит
Метод сжатия                             : С потерями
Размер потока                            : 203 Мбайт (14%)
Выравнивание                             : Разделение по промежуткам
Продолжительность промежутка             : 42  мс. (1,00 видеокадр)
Время предзагрузки промежутка            : 500  мс.

Аудио #2
Идентификатор                            : 2
Формат                                   : AC-3
Формат/Информация                        : Audio Coding 3
Расширение режима                        : CM (complete main)
Параметр Endianness формата              : Big
Идентификатор кодека                     : 2000
Продолжительность                        : 1 ч. 13 м.
Вид битрейта                             : Постоянный
Битрейт                                  : 384 Кбит/сек
Каналы                                   : 6 каналов
Расположение каналов                     : Front: L C R, Side: L R, LFE
Частота                                  : 48,0 КГц
Битовая глубина                          : 16 бит
Метод сжатия                             : С потерями
Размер потока                            : 203 Мбайт (14%)
Выравнивание                             : Разделение по промежуткам
Продолжительность промежутка             : 42  мс. (1,00 видеокадр)
Время предзагрузки промежутка            : 500  мс.



Приключения Винни Пуха на NNM-club

Время раздачи: 24/7 (Круглосуточно)
[NNM-Club.me]_[NNM-Club.ru]_The.Many.Adventures.of.Winnie.the.Pooh.RUS.1977.BDRip.XviD.AC3-R.G. Shadoof.avi.torrent
 Торрент: Платиновая раздача  Зарегистрирован
 
Скачать


Примагнититься
 Зарегистрирован:   27 Фев 2018 00:32:47
 Размер:   1,45 GB  (
 Рейтинг:   4,9 (Голосов: 96)
 Поблагодарили:   422
 Проверка:   Оформление проверено модератором 27 Фев 2018 00:35:48
Как cкачать  ·  Как раздать  ·  Правильно оформить  ·  Поднять ратио!  
CatalystHD
Стаж: 7 лет 3 мес.
Сообщений: 39
Ratio: 26,321
Поблагодарили: 553
100%
ukraine.gif
WYGD! писал(а):
Приключения Винни Пуха на NNM-club

Ну и занесло же...
Inusia
Стаж: 7 лет 8 мес.
Сообщений: 6
Ratio: 3,07
54.29%
Господа, поддержите раздачу, плз !:)
Art!P
Стаж: 8 лет 6 мес.
Сообщений: 307
Ratio: 44,879
100%
Поддерживаю

_________________
Тот кто всё время утверждает что он не дурак, вызывает подозрения по этому поводу.
CANNABI5
Стаж: 8 лет 6 мес.
Сообщений: 101
Ratio: 252,882
Раздал: 63,76 TB
Поблагодарили: 71
100%
pirates.png
Это был самый любимый мульт на кассете в детстве) спасибо) забрал)

_________________
Windows 10(x64) LTSC
SmokieBlahBlah
| Gigabyte RX 470 G1 Gaming | Intlel core i5 4430 | Gigabyte MSI Z97 Gaming 3 | 16GB HyperX | Corsair VS650 650W
karatel
Стаж: 1 год 7 мес.
Сообщений: 10
Ratio: 0,665
vietnam.gif
шикарный мульт, странно то, что ещё нет патриотов старого ОТЭЧЕСТВЕННОГО Винни. лесом пусть идут.
очень добрый и детский мульт.
Serik Bekov
Стаж: 9 лет 3 мес.
Сообщений: 1201
Ratio: 7,378
100%
Откуда: Алматы (из Темиртау)
kazakhstan.gif
karatel писал(а): Перейти к сообщению
шикарный мульт, странно то, что ещё нет патриотов старого ОТЭЧЕСТВЕННОГО Винни. лесом пусть идут.
очень добрый и детский мульт.

Никто еще ничего не сказал, а вы уже столько людей оскорбили. И для вас слова Отечество и патриот, как я вижу уничижительные и оскорбительные.

_________________
Если мяса с ножа ты не ел ни куска,
Если руки сложа, наблюдал свысока,
И в борьбу не вступил с подлецом, палачом,
Значит, в жизни ты был ни при чем, ни при чем.
Василий1979
Стаж: 8 лет 8 мес.
Сообщений: 328
Ratio: 3,545
100%
russia.gif
И чо? Винни прямо вот Пух? И Пятачок - Пятачок, а не Свин...или как там его перевели, "благодаря" отечественным копирастам....

karatel писал(а): Перейти к сообщению
шикарный мульт, странно то, что ещё нет патриотов старого ОТЭЧЕСТВЕННОГО Винни..

Эк иносранческого педриотика бомбануло :смех:
Trenobol
Стаж: 7 лет
Сообщений: 399
Ratio: 61,57
Раздал: 39,24 TB
Поблагодарили: 14750
100%
pirates.png
Смотрел в 90-х...не подумал бы что он 70-х годов, думал так же 90-е)
Показать сообщения:   
Начать новую тему   Ответить на тему    Торрент-трекер NNM-Club -> Мультфильмы -> Зарубежные Мультфильмы для детей Часовой пояс: GMT + 3
Страница 1 из 1