Классический форум-трекер
canvas not supported
Нас вместе: 4 077 706

Blue Oyster Cult - Agents Of Fortune (1976) 2001 Reissue [DSD 2.0, 5.1 1bit/2822,4kHz |SACD-R]<Progressive Rock/Psychedelic Rock>


 
 
RSS
Начать новую тему   Ответить на тему    Торрент-трекер NNM-Club -> HD Audio и Многоканальная Музыка -> SACD-R
Автор Сообщение
gigelmesh ®
Стаж: 7 лет
Сообщений: 575
Ratio: 93,73
Поблагодарили: 27104
100%
Blue Oyster Cult - Agents Of Fortune (1976)
Жанр: Progressive Rock/Psychedelic Rock
Страна: US
Год выпуска альбома/диска: 1976/2001
Label: Columbia
Catalog#: CS 85479
Аудио кодек: DSD 2.0, 5.1
Тип рипа: SACD-R image (Iso) + FLAC 2.0, 24/88.2 + 5.1, 24/88.2 (image+.cue)
Битрейт аудио: 2,8224 MHz
Продолжительность: 00:40:06
Наличие сканов: да
За представленный материал спасибо: macroMaggot
Треклист:
01. This Ain't The Summer Of Love (2:23)
02. True Confessions (2:57)
03. (Don't Fear) The Reaper (5:08)
04. E.T.I. (Extra Terrestrial Intelligence) (3:43)
05. The Revenge Of Vera Gemini (3:52)
06. Sinful Love (3:29)
07. Tattoo Vampire (2:41)
08. Morning Final (4:30)
09. Tenderloin (3:40)
10. Debbie Denise (4:13)
11. Fire Of Unknown Origin (3:30)

Код:

Общее
Полное имя                               : D:\MEDIA\AUDIO\Blue Oyster Cult - Agents Of Fortune (1976) [SACD]\2.0\Blue Oyster Cult - (1976) - Agents Of Fortune 2.0.cue
Размер файла                             : 1,01 Кбайт

Общее
Полное имя                               : D:\MEDIA\AUDIO\Blue Oyster Cult - Agents Of Fortune (1976) [SACD]\2.0\Blue Oyster Cult - (1976) - Agents Of Fortune 2.0.flac
Формат                                   : FLAC
Формат/Информация                        : Free Lossless Audio Codec
Размер файла                             : 774 Мбайт
Продолжительность                        : 40 м.
Режим общего битрейта                    : Переменный
Общий поток                              : 2698 Кбит/сек
Альбом                                   : Agents Of Fortune
Трек/Всего                               : 11
Исполнитель                              : Blue Oyster Cult
Жанр                                     : Progressive Rock, Psychedelic Rock
Дата записи                              : 1976
Обложка                                  : Yes
Тип обложки                              : Cover (front)
MIME-тип обложки                         : image/jpeg
Примечание                               : by macroMaggot
cuesheet                                 : REM GENRE Progressive Rock, Psychedelic Rock / REM DATE 1976 / REM COMMENT by macroMaggot / PERFORMER "Blue Oyster Cult" / TITLE "Agents Of Fortune" / FILE "Blue Oyster Cult - (1976) - Agents Of Fortune 2.0.flac" WAVE /   TRACK 01 AUDIO /     TITLE "This Ain't The Summer Of Love" /     INDEX 01 00:00:00 /   TRACK 02 AUDIO /     TITLE "True Confessions" /     INDEX 01 02:22:47 /   TRACK 03 AUDIO /     TITLE "(Don't Fear) The Reaper" /     INDEX 01 05:19:27 /   TRACK 04 AUDIO /     TITLE "E.T.I. (Extra Terrestrial Intelligence)" /     INDEX 01 10:27:58 /   TRACK 05 AUDIO /     TITLE "The Revenge Of Vera Gemini" /     INDEX 01 14:10:52 /   TRACK 06 AUDIO /     TITLE "Sinful Love" /     INDEX 01 18:02:60 /   TRACK 07 AUDIO /     TITLE "Tattoo Vampire" /     INDEX 01 21:32:16 /   TRACK 08 AUDIO /     TITLE "Morning Final" /     INDEX 01 24:13:19 /   TRACK 09 AUDIO /     TITLE "Tenderloin" /     INDEX 01 28:43:48 /   TRACK 10 AUDIO /     TITLE "Debbie Denise" /     INDEX 01 32:23:17 /   TRACK 11 AUDIO /     TITLE "Fire Of Unknown Origin" /     INDEX 01 36:36:38

Аудио
Формат                                   : FLAC
Формат/Информация                        : Free Lossless Audio Codec
Продолжительность                        : 40 м.
Вид битрейта                             : Переменный
Битрейт                                  : 2697 Кбит/сек
Каналы                                   : 2 канала
Частота                                  : 88,2 КГц
Битовая глубина                          : 24 бит
Размер потока                            : 774 Мбайт (100%)
Библиотека кодирования                   : libFLAC 1.2.1 (UTC 2007-09-17)
Код:

Общее
Полное имя                               : D:\MEDIA\AUDIO\Blue Oyster Cult - Agents Of Fortune (1976) [SACD]\5.1\Blue Oyster Cult - (1976) - Agents Of Fortune 5.1.cue
Размер файла                             : 1,01 Кбайт

Общее
Полное имя                               : D:\MEDIA\AUDIO\Blue Oyster Cult - Agents Of Fortune (1976) [SACD]\5.1\Blue Oyster Cult - (1976) - Agents Of Fortune 5.1.flac
Формат                                   : FLAC
Формат/Информация                        : Free Lossless Audio Codec
Размер файла                             : 2,11 Гбайт
Продолжительность                        : 39 м.
Режим общего битрейта                    : Переменный
Общий поток                              : 7541 Кбит/сек
Альбом                                   : Agents Of Fortune
Трек/Всего                               : 11
Исполнитель                              : Blue Oyster Cult
Жанр                                     : Progressive Rock, Psychedelic Rock
Дата записи                              : 1976
Обложка                                  : Yes
Тип обложки                              : Cover (front)
MIME-тип обложки                         : image/jpeg
Примечание                               : by macroMaggot
cuesheet                                 : REM GENRE Progressive Rock, Psychedelic Rock / REM DATE 1976 / REM COMMENT by macroMaggot / PERFORMER "Blue Oyster Cult" / TITLE "Agents Of Fortune" / FILE "Blue Oyster Cult - (1976) - Agents Of Fortune 5.1.flac" WAVE /   TRACK 01 AUDIO /     TITLE "This Ain't The Summer Of Love" /     INDEX 01 00:00:00 /   TRACK 02 AUDIO /     TITLE "True Confessions" /     INDEX 01 02:23:20 /   TRACK 03 AUDIO /     TITLE "(Don't Fear) The Reaper" /     INDEX 01 05:19:43 /   TRACK 04 AUDIO /     TITLE "E.T.I. (Extra Terrestrial Intelligence)" /     INDEX 01 10:26:16 /   TRACK 05 AUDIO /     TITLE "The Revenge Of Vera Gemini" /     INDEX 01 14:09:11 /   TRACK 06 AUDIO /     TITLE "Sinful Love" /     INDEX 01 17:59:23 /   TRACK 07 AUDIO /     TITLE "Tattoo Vampire" /     INDEX 01 21:28:37 /   TRACK 08 AUDIO /     TITLE "Morning Final" /     INDEX 01 24:09:25 /   TRACK 09 AUDIO /     TITLE "Tenderloin" /     INDEX 01 28:35:74 /   TRACK 10 AUDIO /     TITLE "Debbie Denise" /     INDEX 01 32:14:74 /   TRACK 11 AUDIO /     TITLE "Fire Of Unknown Origin" /     INDEX 01 36:28:71

Аудио
Формат                                   : FLAC
Формат/Информация                        : Free Lossless Audio Codec
Продолжительность                        : 39 м.
Вид битрейта                             : Переменный
Битрейт                                  : 7540 Кбит/сек
Каналы                                   : 6 каналов
Частота                                  : 88,2 КГц
Битовая глубина                          : 24 бит
Размер потока                            : 2,11 Гбайт (100%)
Библиотека кодирования                   : libFLAC 1.2.1 (UTC 2007-09-17)

Что такое SACD-R, и как его слушать
Время раздачи: с 08:00 до 24:00
[NNM-Club.me]_Blue Oyster Cult - Agents Of Fortune (1976) [SACD].torrent
 Торрент: Платиновая раздача  Зарегистрирован
 
Скачать


Примагнититься
 Зарегистрирован:   01 Дек 2013 09:39:25
 Размер:   6,42 GB  (
 Рейтинг:   4,8 (Голосов: 25)
 Поблагодарили:   81
 Проверка:   Оформление проверено модератором 03 Дек 2013 16:15:01
Как cкачать  ·  Как раздать  ·  Правильно оформить  ·  Поднять ратио!  
motosvyatoy
Стаж: 9 лет 3 мес.
Сообщений: 26
Ratio: 0,725
100%
ukraine.gif
а что это делает в разделе ps3 ?
Reservvoprosov
Стаж: 1 год
Сообщений: 23
Ratio: 5,247
93.75%
Цитата:
(Don't Fear) The Reaper

Впервые услышал в фильме Хэллоуин 2007. Очень понравилась.(Спасибо Шазааму :))
Показать сообщения:   
Начать новую тему   Ответить на тему    Торрент-трекер NNM-Club -> HD Audio и Многоканальная Музыка -> SACD-R Часовой пояс: GMT + 3
Страница 1 из 1