Классический форум-трекер
canvas not supported
Нас вместе: 4 094 187

Снукер. Чемпионат мира в Шеффилде, Англия. Финал (2014) HDTVRip [H.264/1080p-LQ]


 
 
RSS
Начать новую тему   Ответить на тему    Торрент-трекер NNM-Club -> Спорт и активный отдых -> Бильярд
Автор Сообщение
krapiva44 ®
Стаж: 7 лет 11 мес.
Сообщений: 48
Ratio: 106,331
Поблагодарили: 403
97.24%
Снукер. Чемпионат мира в Шеффилде, Англия. Финал (2014) HDTVRip [H.264/1080p-LQ]
Режиссер / Телекомпания: Eurosport HD
Год выпуска: 2014
Жанр: Документальный, Телепередача, Спорт

Описание:
Завершение сезона 2013-2014. Финальный матч чемпионата мира - до 18-и побед

Участники: Ронни О'Салливан; Марк Селби

Продолжительность: 09:13:38
Качество видео: HDTVRip

Видеокодек: MPEG-4 AVC/H.264
Битрейт видео: ~4536 Кбит/сек
Размер кадра: 1920x1080
Аудиокодек: MP2, (2.0)
Битрейт аудио: 128 Кбит/сек
Общее
Уникальный идентификатор : 221983878792397876139168107495552334047 (0xA7008A391928B97781FC7810004638DF)
Полное имя : F:\Bit Reliz\WCh 2014 Sheffield\World.Championship.2014.Final.1920x1080.Eurosport HD.mkv
Формат : Matroska
Версия формата : Version 4 / Version 2
Размер файла : 18,4 Гбайт
Продолжительность : 9 ч. 13 м.
Режим общего битрейта : Переменный
Общий поток : 4758 Кбит/сек
Дата кодирования : UTC 2014-05-07 12:48:21
Программа кодирования : mkvmerge v6.9.1 ('Blue Panther') 64bit built on Apr 18 2014 18:23:38
Библиотека кодирования : libebml v1.3.0 + libmatroska v1.4.1

Видео
Идентификатор : 1
Формат : AVC
Формат/Информация : Advanced Video Codec
Профиль формата : Baseline@L4.0
Параметр CABAC формата : Нет
Параметр ReFrames формата : 1 кадр
Параметр GOP формата : M=1, N=12
Идентификатор кодека : V_MPEG4/ISO/AVC
Продолжительность : 9 ч. 13 м.
Вид битрейта : Переменный
Битрейт : 4536 Кбит/сек
Максимальный битрейт : 6601 Кбит/сек
Ширина : 1920 пикселей
Высота : 1080 пикселей
Соотношение сторон : 16:9
Режим частоты кадров : Постоянный
Частота кадров : 25,000 кадров/сек
Частота кадров в оригинале : 24,000 кадра/сек
Цветовое пространство : YUV
Субдискретизация насыщенности : 4:2:0
Битовая глубина : 8 бит
Тип развёртки : Прогрессивная
Бит/(Пиксели*Кадры) : 0.087
Размер потока : 17,5 Гбайт (95%)
Default : Да
Forced : Нет

Аудио
Идентификатор : 2
Формат : MPEG Audio
Версия формата : Version 1
Профиль формата : Layer 2
Идентификатор кодека : A_MPEG/L2
Идентификатор кодека/Подсказка : MP2
Продолжительность : 9 ч. 13 м.
Вид битрейта : Постоянный
Битрейт : 128 Кбит/сек
Каналы : 2 канала
Частота : 44,1 КГц
Метод сжатия : С потерями
Размер потока : 507 Мбайт (3%)
Язык : Russian
Default : Да
Forced : Нет
Скриншоты:


Время раздачи: 24/7 (круглосуточно)
[NNM-Club.me]_World.Championship.2014.Final.1920x1080.Eurosport HD.mkv.torrent
 Торрент: Платиновая раздача  Зарегистрирован
 
Скачать


Примагнититься
 Зарегистрирован:   07 Май 2014 19:06:04
 Размер:   18,4 GB  (
 Рейтинг:   4,8 (Голосов: 24)
 Поблагодарили:   61
 Проверка:   Оформление проверено модератором 10 Май 2014 09:48:49
Как cкачать  ·  Как раздать  ·  Правильно оформить  ·  Поднять ратио!  
Demic
Стаж: 9 лет 11 мес.
Сообщений: 508
Ratio: 4,488
100%
Откуда: Санкт-Петербург
russia.gif
Несколько раз пытался по телеку посмотреть - так ничего и не понял - забил шар, достал, поставил опять ... :)

_________________
Win7-64, i7-3.4
Asus GTX 1060 Strix OC, 8гб память
Unicum1
Стаж: 5 лет 7 мес.
Сообщений: 1
0%
На данный момент эта раздача - единственная на трекере, где есть сиды.

Выкладывайте, пожалуйста, больше снукера и оставайтесь на раздаче подольше.

Добавлено спустя 1 час 10 минут 31 секунду:

Скорость, конечно, жесть. :шок:
serg210966
Стаж: 9 лет 3 мес.
Сообщений: 187
Ratio: 7,474
Поблагодарили: 176
100%
Откуда: Юг России
russia.gif
Качаю, поддержу!
Спасибо за релиз!
Ureek
Стаж: 7 лет 9 мес.
Сообщений: 6
Ratio: 14,851
100%
спасибо еще раз!

буду крайне благодарен за чемпионаты 2015 года .

всего наилучшего!
mode_m
Стаж: 6 лет 2 мес.
Сообщений: 7
Ratio: 1,733
100%
спасибо есть возможность посмотреть спокойно!
maxunique
 
Стаж: 4 года
Сообщений: 134
Ratio: 51,594
Поблагодарили: 6
100%
> Несколько раз пытался по телеку посмотреть - так ничего и не понял - забил шар, достал, поставил опять ...

я сначала тоже не понимал, но когда разберешься с правилам игра и вправду завораживает

страсти кипят нешуточные, там тебе и мастерство, и проверка нервов, и тактика, и везение

да и вообще все игроки интересные дружелюбные люди, и не пытаются на камеру в глаз дать
Показать сообщения:   
Начать новую тему   Ответить на тему    Торрент-трекер NNM-Club -> Спорт и активный отдых -> Бильярд Часовой пояс: GMT + 3
Страница 1 из 1