Классический форум-трекер
canvas not supported
Нас вместе: 4 079 176

VA - I Love Disco 80's Vol.1-8 (2005-2013) [FLAC|Lossless]<Italo-Disco, Hi NRG, Synth-pop>


 
 
RSS
Начать новую тему   Ответить на тему    Торрент-трекер NNM-Club -> Pop -> Disco, Italo-Disco, Euro-Disco, Hi-NRG (Lossless)
Автор Сообщение
Delavar24 ®
Стаж: 10 лет 3 мес.
Сообщений: 1463
Ratio: 340,501
Раздал: 21,36 TB
Поблагодарили: 61677
100%
Откуда: 67RUS
ussr.gif
VA - I Love Disco 80's Vol.1-8 (2005-2013)
Жанр: Italo-Disco, Hi NRG, Synth-pop
Страна-производитель диска: Spain
Год издания: 2005-2013
Издатель (лейбл): Blanco Y Negro Music
Аудиокодек: FLAC (*.flac)
Тип рипа: image+.cue
Битрейт аудио: lossless
Продолжительность: 19:29:23
Источник (релизер): Stanics, Pol Alex, 风中劲草
Наличие сканов в содержимом раздачи: да

Трек лист:
Номер по каталогу: MXCD 1561 CB
Продолжительность: 02:14:06
Треклист:

CD 1
01. Jermaine Jackson & Pia Zadora - When The Rain Begins To Fall (6:07)
02. The Twins - Face To Face (5:01)
03. Den Harrow - A Taste Of Love (7:15)
04. Fun Fun - Baila Bolero (Remix) (7:01)
05. Nicole Mc Cloud - Do You Want Me Love (4:50)
06. Breakfast Club - Never Be The Same (6:48)
07. Future World Orchestra - I'm Not Afraid Of The Future (4:43)
08. Melissa Manchester - Thief Of Hearts (6:10)
09. Stephanie - One Love To Give (7:29)
10. Taylor Dayne - Prove Your Love (7:30)
11. Atlanta - Something More Than Funky (6:07)

CD 2
01. Bad Boys Blue - Don't Walk Away, Susanne (7:11)
02. Stefano Pulga - Take Me Higher (5:37)
03. Wax - Bridge To Your Heart (5:15)
04. Gene Ramone - Romantic Face (4:54)
05. Boney M. Feat. Bobby Farrell - Happy Song (6:42)
06. Bizzy & Co - Take A Chance (5:27)
07. Glamour Station - Ev'ry Body Does It (5:27)
08. Scotch - Take Me Up (5:12)
09. Miko Mission - How Old Are You (7:17)
10. 1000 Ohm - The Claim (4:52)
11. Boytronic - I Will Survive (7:10)
Код:

Exact Audio Copy V0.99 prebeta 4 from 23. January 2008

Отчёт EAC об извлечении, выполненном 7. июня 2008, 2:38

Various / I Love Disco 80's Vol. 1 (CD1)

Дисковод: PLEXTOR DVDR   PX-810UF   Adapter: 2  ID: 0

Режим чтения                 : Достоверность
Использование точного потока : Да
Отключение кэша аудио        : Да
Использование указателей C2  : Нет

Коррекция смещения при чтении                     : 667
Способность читать области Lead-in и Lead-out     : Нет
Заполнение пропущенных сэмплов тишиной            : Да
Удаление блоков с тишиной в начале и конце        : Нет
При вычислениях CRC использовались нулевые сэмплы : Нет
Интерфейс                                         : Встроенный Win32-интерфейс для Win NT/2000

Выходной формат : Внутренние WAV-операции
Формат сэмплов  : 44.100 Гц; 16 бит; стерео

TOC извлечённого CD

     Трек |   Старт  | Длительность | Начальный сектор | Конечный сектор
    ---------------------------------------------------------------------
       1  |  0:00.00 |    6:07.00   |           0      |      27524
       2  |  6:07.00 |    5:01.00   |       27525      |      50099
       3  | 11:08.00 |    7:14.74   |       50100      |      82723
       4  | 18:22.74 |    7:01.01   |       82724      |     114299
       5  | 25:24.00 |    4:50.18   |      114300      |     136067
       6  | 30:14.18 |    6:48.00   |      136068      |     166667
       7  | 37:02.18 |    4:43.02   |      166668      |     187894
       8  | 41:45.20 |    6:09.47   |      187895      |     215616
       9  | 47:54.67 |    7:28.52   |      215617      |     249268
      10  | 55:23.44 |    7:30.05   |      249269      |     283023
      11  | 62:53.49 |    6:07.35   |      283024      |     310583

Характеристики диапазона извлечения и сообщения об ошибках

Выбранный диапазон

     Имя файла Z:\Temp\Various - I Love Disco 80's Vol. 1 (CD1).wav

     Пиковый уровень 100.0 %
     Качество диапазона 100.0 %
     CRC теста E9E3038E
     CRC копии E9E3038E
     Копирование... OK

Ошибок не произошло

AccurateRip: сводка

Трек  1  нет в базе данных
Трек  2  нет в базе данных
Трек  3  нет в базе данных
Трек  4  нет в базе данных
Трек  5  нет в базе данных
Трек  6  нет в базе данных
Трек  7  нет в базе данных
Трек  8  нет в базе данных
Трек  9  нет в базе данных
Трек 10  нет в базе данных
Трек 11  нет в базе данных

Ни одного трека нет в базе AccurateRip

Конец отчёта
Код:

-----------------------

DON'T MODIFY THIS FILE

-----------------------

PERFORMER: auCDtect Task Manager, ver. 1.5.1RC6 build 1.5.1.7
Copyright (c) 2008-2010 y-soft. All rights reserved
http://y-soft.org

ANALYZER: auCDtect: CD records authenticity detector, version 0.8.2
Copyright (c) 2004 Oleg Berngardt. All rights reserved.
Copyright (c) 2004 Alexander Djourik. All rights reserved.

FILE: Various - I Love Disco 80's Vol. 1 (CD1).flac
  Size: 506545373 Hash: 5C59855A7EA89E1F1580510F3F4B4944 Accuracy: -m0
  Conclusion: CDDA 100%
  Signature: D260FDCD7CE753673CDBBE83E8324BF5D2F60925

Код:

REM GENRE Disco
REM DATE 2005
REM DISCID 97102D0B
REM COMMENT "ExactAudioCopy v0.99pb4"
PERFORMER "Various"
TITLE "I Love Disco 80's Vol. 1 (CD1)"
FILE "Various - I Love Disco 80's Vol. 1 (CD1).flac" WAVE
  TRACK 01 AUDIO
    TITLE "When The Rain Begins To Fall"
    PERFORMER "Jermaine Jackson & Pia Zadora"
    INDEX 01 00:00:00
  TRACK 02 AUDIO
    TITLE "Face To Face"
    PERFORMER "The Twins"
    INDEX 00 06:05:00
    INDEX 01 06:07:00
  TRACK 03 AUDIO
    TITLE "A Taste Of Love"
    PERFORMER "Den Harrow"
    INDEX 00 11:06:00
    INDEX 01 11:08:00
  TRACK 04 AUDIO
    TITLE "Baila Bolero (Remix)"
    PERFORMER "Fun Fun"
    INDEX 00 18:20:74
    INDEX 01 18:22:74
  TRACK 05 AUDIO
    TITLE "Do You Want Me Love"
    PERFORMER "Nicole Mc Cloud"
    INDEX 00 25:21:74
    INDEX 01 25:24:00
  TRACK 06 AUDIO
    TITLE "Never Be The Same"
    PERFORMER "Breakfast Club"
    INDEX 00 30:12:18
    INDEX 01 30:14:18
  TRACK 07 AUDIO
    TITLE "I'm Not Afraid Of The Future"
    PERFORMER "Future World Orchestra"
    INDEX 00 37:00:18
    INDEX 01 37:02:18
  TRACK 08 AUDIO
    TITLE "Thief Of Hearts"
    PERFORMER "Melissa Manchester"
    INDEX 01 41:45:20
  TRACK 09 AUDIO
    TITLE "One Love To Give"
    PERFORMER "Stephanie"
    INDEX 00 47:52:67
    INDEX 01 47:54:67
  TRACK 10 AUDIO
    TITLE "Prove Your Love"
    PERFORMER "Taylor Dayne"
    INDEX 00 55:21:44
    INDEX 01 55:23:44
  TRACK 11 AUDIO
    TITLE "Something More Than Funky"
    PERFORMER "Atlanta"
    INDEX 00 62:51:49
    INDEX 01 62:53:49
Код:
Exact Audio Copy V0.99 prebeta 4 from 23. January 2008

Отчёт EAC об извлечении, выполненном 7. июня 2008, 3:04

Various / I Love Disco 80's Vol. 1 (CD2)

Дисковод: PLEXTOR DVDR   PX-810UF   Adapter: 2  ID: 0

Режим чтения                 : Достоверность
Использование точного потока : Да
Отключение кэша аудио        : Да
Использование указателей C2  : Нет

Коррекция смещения при чтении                     : 667
Способность читать области Lead-in и Lead-out     : Нет
Заполнение пропущенных сэмплов тишиной            : Да
Удаление блоков с тишиной в начале и конце        : Нет
При вычислениях CRC использовались нулевые сэмплы : Нет
Интерфейс                                         : Встроенный Win32-интерфейс для Win NT/2000

Выходной формат : Внутренние WAV-операции
Формат сэмплов  : 44.100 Гц; 16 бит; стерео

TOC извлечённого CD

     Трек |   Старт  | Длительность | Начальный сектор | Конечный сектор
    ---------------------------------------------------------------------
       1  |  0:00.00 |    7:11.00   |           0      |      32324
       2  |  7:11.00 |    5:37.20   |       32325      |      57619
       3  | 12:48.20 |    5:15.17   |       57620      |      81261
       4  | 18:03.37 |    4:54.14   |       81262      |     103325
       5  | 22:57.51 |    6:42.00   |      103326      |     133475
       6  | 29:39.51 |    5:27.00   |      133476      |     158000
       7  | 35:06.51 |    5:27.28   |      158001      |     182553
       8  | 40:34.04 |    5:12.00   |      182554      |     205953
       9  | 45:46.04 |    7:17.00   |      205954      |     238728
      10  | 53:03.04 |    4:52.00   |      238729      |     260628
      11  | 57:55.04 |    7:10.00   |      260629      |     292878

Характеристики диапазона извлечения и сообщения об ошибках

Выбранный диапазон

     Имя файла Z:\Temp\Various - I Love Disco 80's Vol. 1 (CD2).wav

     Пиковый уровень 100.0 %
     Качество диапазона 100.0 %
     CRC теста C6EF4A1B
     CRC копии C6EF4A1B
     Копирование... OK

Ошибок не произошло

AccurateRip: сводка

Трек  1  нет в базе данных
Трек  2  нет в базе данных
Трек  3  нет в базе данных
Трек  4  нет в базе данных
Трек  5  нет в базе данных
Трек  6  нет в базе данных
Трек  7  нет в базе данных
Трек  8  нет в базе данных
Трек  9  нет в базе данных
Трек 10  нет в базе данных
Трек 11  нет в базе данных

Ни одного трека нет в базе AccurateRip

Конец отчёта
Код:
-----------------------

DON'T MODIFY THIS FILE

-----------------------

PERFORMER: auCDtect Task Manager, ver. 1.5.1RC6 build 1.5.1.7
Copyright (c) 2008-2010 y-soft. All rights reserved
http://y-soft.org

ANALYZER: auCDtect: CD records authenticity detector, version 0.8.2
Copyright (c) 2004 Oleg Berngardt. All rights reserved.
Copyright (c) 2004 Alexander Djourik. All rights reserved.

FILE: Various - I Love Disco 80's Vol. 1 (CD2).flac
  Size: 462508404 Hash: 8FBE48C519C126A62D91ABFCF8CD017F Accuracy: -m0
  Conclusion: CDDA 100%
  Signature: 9013824822EF3F5674F1DC767C51233AB6FE4CFF
Код:
REM GENRE Disco
REM DATE 2005
REM DISCID A20F410B
REM COMMENT "ExactAudioCopy v0.99pb4"
PERFORMER "Various"
TITLE "I Love Disco 80's Vol. 1 (CD2)"
FILE "Various - I Love Disco 80's Vol. 1 (CD2).flac" WAVE
  TRACK 01 AUDIO
    TITLE "Don't Walk Away, Susanne"
    PERFORMER "Bad Boys Blue"
    INDEX 01 00:00:00
  TRACK 02 AUDIO
    TITLE "Take Me Higher"
    PERFORMER "Stefano Pulga"
    INDEX 00 07:09:00
    INDEX 01 07:11:00
  TRACK 03 AUDIO
    TITLE "Bridge To Your Heart"
    PERFORMER "Wax"
    INDEX 00 12:46:20
    INDEX 01 12:48:20
  TRACK 04 AUDIO
    TITLE "Romantic Face"
    PERFORMER "Gene Ramone"
    INDEX 00 18:01:37
    INDEX 01 18:03:37
  TRACK 05 AUDIO
    TITLE "Happy Song"
    PERFORMER "Boney M. Feat. Bobby Farrell"
    INDEX 00 22:55:51
    INDEX 01 22:57:51
  TRACK 06 AUDIO
    TITLE "Take A Chance"
    PERFORMER "Bizzy & Co"
    INDEX 00 29:37:51
    INDEX 01 29:39:51
  TRACK 07 AUDIO
    TITLE "Ev'ry Body Does It"
    PERFORMER "Glamour Station"
    INDEX 00 35:04:51
    INDEX 01 35:06:51
  TRACK 08 AUDIO
    TITLE "Take Me Up"
    PERFORMER "Scotch"
    INDEX 00 40:32:04
    INDEX 01 40:34:04
  TRACK 09 AUDIO
    TITLE "How Old Are You"
    PERFORMER "Miko Mission"
    INDEX 01 45:46:04
  TRACK 10 AUDIO
    TITLE "The Claim"
    PERFORMER "1000 Ohm"
    INDEX 00 53:01:04
    INDEX 01 53:03:04
  TRACK 11 AUDIO
    TITLE "I Will Survive"
    PERFORMER "Boytronic"
    INDEX 00 57:53:04
    INDEX 01 57:55:04
Номер по каталогу: MXCD 1636 CB
Продолжительность: 02:17:30

CD 1
01. Donna Summer - She Works Hard For The Money (6:02)
02. Michael Sembello - Maniac (5:56)
03. Maria Vidal - Body Rock (6:29)
04. E.G. Daily - Say It, Say It (6:48)
05. Al Corley - Square Rooms (8:05)
06. Fox The Fox - Precious Little Diamond (7:26)
07. Bandolero - Paris Latino (5:13)
08. Stephanie - Ouragan (7:04)
09. Murray Head - One Night In Bangkok (5:03)
10. Future World Orchestra - Desire (3:21)
11. Do Piano - Again (7:36)

CD 2
01. Spagna - I Wanna Be Your Wife (5:34)
02. F.R. David - Sahara Night (6:06)
03. John Christian - Ebony Eyes (5:50)
04. Jakie Quartz - A La Vie, A L'Amour (6:32)
05. L.I.F.E. - It Happens All The Time (6:00)
06. Miko Mission - The World Is You (7:52)
07. Bad Boys Blue - You're A Woman (5:22)
08. Valerie Dore - It's So Easy (6:31)
09. Night Society - Hold Me Tight (Tonight) (6:11)
10. Rocky M - Fly With Me To Wonderland (6:02)
11. Pamela Nightingale - I'll Never Fall In Love Again (6:30)
Код:
Exact Audio Copy V0.99 prebeta 4 from 23. January 2008

Отчёт EAC об извлечении, выполненном 7. июня 2008, 2:00

Various / I Love Disco 80's Vol. 2 (CD1)

Дисковод: PLEXTOR DVDR   PX-810UF   Adapter: 2  ID: 0

Режим чтения                 : Достоверность
Использование точного потока : Да
Отключение кэша аудио        : Да
Использование указателей C2  : Нет

Коррекция смещения при чтении                     : 667
Способность читать области Lead-in и Lead-out     : Нет
Заполнение пропущенных сэмплов тишиной            : Да
Удаление блоков с тишиной в начале и конце        : Нет
При вычислениях CRC использовались нулевые сэмплы : Нет
Интерфейс                                         : Встроенный Win32-интерфейс для Win NT/2000

Выходной формат : Внутренние WAV-операции
Формат сэмплов  : 44.100 Гц; 16 бит; стерео

TOC извлечённого CD

     Трек |   Старт  | Длительность | Начальный сектор | Конечный сектор
    ---------------------------------------------------------------------
       1  |  0:00.00 |    6:01.74   |           0      |      27148
       2  |  6:01.74 |    5:55.64   |       27149      |      53837
       3  | 11:57.63 |    6:28.73   |       53838      |      83010
       4  | 18:26.61 |    6:48.03   |       83011      |     113613
       5  | 25:14.64 |    8:04.45   |      113614      |     149958
       6  | 33:19.34 |    7:25.49   |      149959      |     183382
       7  | 40:45.08 |    5:12.52   |      183383      |     206834
       8  | 45:57.60 |    7:03.68   |      206835      |     238627
       9  | 53:01.53 |    5:02.48   |      238628      |     261325
      10  | 58:04.26 |    3:20.45   |      261326      |     276370
      11  | 61:24.71 |    7:35.59   |      276371      |     310554

Характеристики диапазона извлечения и сообщения об ошибках

Выбранный диапазон

     Имя файла Z:\Temp\Various - I Love Disco 80's Vol. 2 (CD1).wav

     Пиковый уровень 100.0 %
     Качество диапазона 100.0 %
     CRC теста CA415F62
     CRC копии CA415F62
     Копирование... OK

Ошибок не произошло

AccurateRip: сводка

Трек  1  нет в базе данных
Трек  2  нет в базе данных
Трек  3  нет в базе данных
Трек  4  нет в базе данных
Трек  5  нет в базе данных
Трек  6  нет в базе данных
Трек  7  нет в базе данных
Трек  8  нет в базе данных
Трек  9  нет в базе данных
Трек 10  нет в базе данных
Трек 11  нет в базе данных

Ни одного трека нет в базе AccurateRip

Конец отчёта
Код:
-----------------------

DON'T MODIFY THIS FILE

-----------------------

PERFORMER: auCDtect Task Manager, ver. 1.5.1RC6 build 1.5.1.7
Copyright (c) 2008-2010 y-soft. All rights reserved
http://y-soft.org

ANALYZER: auCDtect: CD records authenticity detector, version 0.8.2
Copyright (c) 2004 Oleg Berngardt. All rights reserved.
Copyright (c) 2004 Alexander Djourik. All rights reserved.

FILE: Various - I Love Disco 80's Vol. 2 (CD1).flac
  Size: 487925169 Hash: A2526CA7A415F9CB8A10FDC6BCCC9616 Accuracy: -m0
  Conclusion: CDDA 100%
  Signature: 5737A34741E5FB01ABA00B8F7BBF48DC00E95F53
REM GENRE Disco
REM DATE 2006
REM DISCID 9C102C0B
REM COMMENT "ExactAudioCopy v0.99pb4"
PERFORMER "Various"
TITLE "I Love Disco 80's Vol. 2 (CD1)"
FILE "Various - I Love Disco 80's Vol. 2 (CD1).flac" WAVE
TRACK 01 AUDIO
TITLE "She Works Hard For The Money"
PERFORMER "Donna Summer"
INDEX 01 00:00:00
TRACK 02 AUDIO
TITLE "Maniac"
PERFORMER "Michael Sembello"
INDEX 00 05:59:74
INDEX 01 06:01:74
TRACK 03 AUDIO
TITLE "Body Rock"
PERFORMER "Maria Vidal"
INDEX 00 11:55:63
INDEX 01 11:57:63
TRACK 04 AUDIO
TITLE "Say It, Say It"
PERFORMER "E.G. Daily"
INDEX 00 18:24:61
INDEX 01 18:26:61
TRACK 05 AUDIO
TITLE "Square Rooms"
PERFORMER "Al Corley"
INDEX 00 25:12:64
INDEX 01 25:14:64
TRACK 06 AUDIO
TITLE "Precious Little Diamond"
PERFORMER "Fox The Fox"
INDEX 00 33:17:34
INDEX 01 33:19:34
TRACK 07 AUDIO
TITLE "Paris Latino"
PERFORMER "Bandolero"
INDEX 00 40:43:08
INDEX 01 40:45:08
TRACK 08 AUDIO
TITLE "Ouragan"
PERFORMER "Stephanie"
INDEX 00 45:55:60
INDEX 01 45:57:60
TRACK 09 AUDIO
TITLE "One Night In Bangkok"
PERFORMER "Murray Head"
INDEX 00 52:59:53
INDEX 01 53:01:53
TRACK 10 AUDIO
TITLE "Desire"
PERFORMER "Future World Orchestra"
INDEX 00 58:02:26
INDEX 01 58:04:26
TRACK 11 AUDIO
TITLE "Again"
PERFORMER "Do Piano"
INDEX 00 61:22:71
INDEX 01 61:24:71
Код:
Код:
Exact Audio Copy V0.99 prebeta 4 from 23. January 2008

Отчёт EAC об извлечении, выполненном 7. июня 2008, 9:41

Various / I Love Disco 80's Vol. 2 (CD2)

Дисковод: PLEXTOR DVDR   PX-810UF   Adapter: 2  ID: 0

Режим чтения                 : Достоверность
Использование точного потока : Да
Отключение кэша аудио        : Да
Использование указателей C2  : Нет

Коррекция смещения при чтении                     : 667
Способность читать области Lead-in и Lead-out     : Нет
Заполнение пропущенных сэмплов тишиной            : Да
Удаление блоков с тишиной в начале и конце        : Нет
При вычислениях CRC использовались нулевые сэмплы : Нет
Интерфейс                                         : Встроенный Win32-интерфейс для Win NT/2000

Выходной формат : Внутренние WAV-операции
Формат сэмплов  : 44.100 Гц; 16 бит; стерео

TOC извлечённого CD

     Трек |   Старт  | Длительность | Начальный сектор | Конечный сектор
    ---------------------------------------------------------------------
       1  |  0:00.00 |    5:33.72   |           0      |      25046
       2  |  5:33.72 |    6:06.30   |       25047      |      52526
       3  | 11:40.27 |    5:49.51   |       52527      |      78752
       4  | 17:30.03 |    6:31.71   |       78753      |     108148
       5  | 24:01.74 |    5:59.74   |      108149      |     135147
       6  | 30:01.73 |    7:51.42   |      135148      |     170514
       7  | 37:53.40 |    5:22.37   |      170515      |     194701
       8  | 43:16.02 |    6:30.66   |      194702      |     224017
       9  | 49:46.68 |    6:11.13   |      224018      |     251855
      10  | 55:58.06 |    6:02.03   |      251856      |     279008
      11  | 62:00.09 |    6:30.06   |      279009      |     308264

Характеристики диапазона извлечения и сообщения об ошибках

Выбранный диапазон

     Имя файла Z:\Temp\Various - I Love Disco 80's Vol. 2 (CD2).wav

     Пиковый уровень 100.0 %
     Качество диапазона 100.0 %
     CRC теста DFE38A6E
     CRC копии DFE38A6E
     Копирование... OK

Ошибок не произошло

AccurateRip: сводка

Трек  1  нет в базе данных
Трек  2  нет в базе данных
Трек  3  нет в базе данных
Трек  4  нет в базе данных
Трек  5  нет в базе данных
Трек  6  нет в базе данных
Трек  7  нет в базе данных
Трек  8  нет в базе данных
Трек  9  нет в базе данных
Трек 10  нет в базе данных
Трек 11  нет в базе данных

Ни одного трека нет в базе AccurateRip

Конец отчёта
Код:
-----------------------

DON'T MODIFY THIS FILE

-----------------------

PERFORMER: auCDtect Task Manager, ver. 1.5.1RC6 build 1.5.1.7
Copyright (c) 2008-2010 y-soft. All rights reserved
http://y-soft.org

ANALYZER: auCDtect: CD records authenticity detector, version 0.8.2
Copyright (c) 2004 Oleg Berngardt. All rights reserved.
Copyright (c) 2004 Alexander Djourik. All rights reserved.

FILE: Various - I Love Disco 80's Vol. 2 (CD2).flac
  Size: 523231105 Hash: 3BC0A594ED6795F20AAD2B23D7DE1B2A Accuracy: -m0
  Conclusion: CDDA 100%
  Signature: 940E0F0945581DA1D1BCAFD826195A7E0DCFEFCE

Код:
REM GENRE Disco
REM DATE 2006
REM DISCID 93100E0B
REM COMMENT "ExactAudioCopy v0.99pb4"
PERFORMER "Various"
TITLE "I Love Disco 80's Vol. 2 (CD2)"
FILE "Various - I Love Disco 80's Vol. 2 (CD2).flac" WAVE
  TRACK 01 AUDIO
    TITLE "I Wanna Be Your Wife"
    PERFORMER "Spagna"
    INDEX 01 00:00:00
  TRACK 02 AUDIO
    TITLE "Sahara Night"
    PERFORMER "F.R. David"
    INDEX 00 05:31:72
    INDEX 01 05:33:72
  TRACK 03 AUDIO
    TITLE "Ebony Eyes"
    PERFORMER "John Christian"
    INDEX 00 11:38:27
    INDEX 01 11:40:27
  TRACK 04 AUDIO
    TITLE "A La Vie, A L'Amour"
    PERFORMER "Jakie Quartz"
    INDEX 00 17:28:03
    INDEX 01 17:30:03
  TRACK 05 AUDIO
    TITLE "It Happens All The Time"
    PERFORMER "L.I.F.E."
    INDEX 00 23:59:74
    INDEX 01 24:01:74
  TRACK 06 AUDIO
    TITLE "The World Is You"
    PERFORMER "Miko Mission"
    INDEX 00 29:59:73
    INDEX 01 30:01:73
  TRACK 07 AUDIO
    TITLE "You're A Woman"
    PERFORMER "Bad Boys Blue"
    INDEX 00 37:51:40
    INDEX 01 37:53:40
  TRACK 08 AUDIO
    TITLE "It's So Easy"
    PERFORMER "Valerie Dore"
    INDEX 00 43:14:02
    INDEX 01 43:16:02
  TRACK 09 AUDIO
    TITLE "Hold Me Tight (Tonight)"
    PERFORMER "Night Society"
    INDEX 00 49:44:68
    INDEX 01 49:46:68
  TRACK 10 AUDIO
    TITLE "Fly With Me To Wonderland"
    PERFORMER "Rocky M"
    INDEX 00 55:56:06
    INDEX 01 55:58:06
  TRACK 11 AUDIO
    TITLE "I'll Never Fall In Love Again"
    PERFORMER "Pamela Nightingale"
    INDEX 00 61:58:09
    INDEX 01 62:00:09
Номер по каталогу: MXCD 1703 CB
Продолжительность: 02:29:40

CD 1
01. Alphaville - Big In Japan (7:21)
02. Secret Service - Flash In The Night (6:10)
03. Shooting Party - I Go To Pieces (5:55)
04. Marlene Ricci - Tonight (5:09)
05. Carlos Perez - Las Manos Quietas (7:19)
06. Self Service - Special Night (5:40)
07. London Boys - Harlem Desire (8:24)
08. Silent Circle - Oh, Don't Lose Your Heart Tonight (5:51)
09. Valerie Dore - Get Closer (6:11)
10. Menage - Memory (7:10)
11. Vanilla - Imagination (Calypso Nights) (6:46)

CD 2

01. Bronski Beat - Why ? (7:46)
02. Imagination - New Dimension (Electro Mix) (9:25)
03. Patrick Cowley - Tech-No-Logical World (7:45)
04. Pamala Stanley - Coming Out Of Hiding (6:12)
05. Toni Basil - Over My Head (5:02)
06. Lili & Sussie - Candy Love (6:37)
07. Prime Time - I Can't Get Enough (6:47)
08. Club House - Superstition Medley With Good Times (6:25)
09. Men Without Hats - Safety Dance (4:30)
10. Monyaka - Goh Deh Yaka (Go To The Top) (6:35)
11. Tempo Rubato - Don't Stop The Classics (10:38)
Код:
Exact Audio Copy V0.99 prebeta 4 from 23. January 2008

Отчёт EAC об извлечении, выполненном 7. июня 2008, 11:39

Various / I Love Disco 80's Vol. 3 (CD1)

Дисковод: PLEXTOR DVDR   PX-810UF   Adapter: 2  ID: 0

Режим чтения                 : Достоверность
Использование точного потока : Да
Отключение кэша аудио        : Да
Использование указателей C2  : Нет

Коррекция смещения при чтении                     : 667
Способность читать области Lead-in и Lead-out     : Нет
Заполнение пропущенных сэмплов тишиной            : Да
Удаление блоков с тишиной в начале и конце        : Нет
При вычислениях CRC использовались нулевые сэмплы : Нет
Интерфейс                                         : Встроенный Win32-интерфейс для Win NT/2000

Выходной формат : Внутренние WAV-операции
Формат сэмплов  : 44.100 Гц; 16 бит; стерео

TOC извлечённого CD

     Трек |   Старт  | Длительность | Начальный сектор | Конечный сектор
    ---------------------------------------------------------------------
       1  |  0:00.00 |    7:20.57   |           0      |      33056
       2  |  7:20.57 |    6:10.11   |       33057      |      60817
       3  | 13:30.68 |    5:54.62   |       60818      |      87429
       4  | 19:25.55 |    5:09.23   |       87430      |     110627
       5  | 24:35.03 |    7:19.31   |      110628      |     143583
       6  | 31:54.34 |    5:39.63   |      143584      |     169071
       7  | 37:34.22 |    8:24.27   |      169072      |     206898
       8  | 45:58.49 |    5:50.51   |      206899      |     233199
       9  | 51:49.25 |    6:11.05   |      233200      |     261029
      10  | 58:00.30 |    7:10.36   |      261030      |     293315
      11  | 65:10.66 |    6:46.24   |      293316      |     323789

Характеристики диапазона извлечения и сообщения об ошибках

Выбранный диапазон

     Имя файла Z:\Temp\Various - I Love Disco 80's Vol. 3 (CD1).wav

     Пиковый уровень 100.0 %
     Качество диапазона 99.9 %
     CRC теста D9FE3648
     CRC копии D9FE3648
     Копирование... OK

Ошибок не произошло

AccurateRip: сводка

Трек  1  нет в базе данных
Трек  2  нет в базе данных
Трек  3  нет в базе данных
Трек  4  нет в базе данных
Трек  5  нет в базе данных
Трек  6  нет в базе данных
Трек  7  нет в базе данных
Трек  8  нет в базе данных
Трек  9  нет в базе данных
Трек 10  нет в базе данных
Трек 11  нет в базе данных

Ни одного трека нет в базе AccurateRip

Конец отчёта
Код:
-----------------------

DON'T MODIFY THIS FILE

-----------------------

PERFORMER: auCDtect Task Manager, ver. 1.5.1RC6 build 1.5.1.7
Copyright (c) 2008-2010 y-soft. All rights reserved
http://y-soft.org

ANALYZER: auCDtect: CD records authenticity detector, version 0.8.2
Copyright (c) 2004 Oleg Berngardt. All rights reserved.
Copyright (c) 2004 Alexander Djourik. All rights reserved.

FILE: Various - I Love Disco 80's Vol. 3 (CD1).flac
  Size: 526326739 Hash: 2A4C59D9D37C84B43FADA3FA7550CC47 Accuracy: -m0
  Conclusion: CDDA 100%
  Signature: 376380C8B595AC656C3964B668A873FD82C98CBF
Код:
REM GENRE Disco
REM DATE 2007
REM DISCID 8E10DD0B
REM COMMENT "ExactAudioCopy v0.99pb4"
PERFORMER "Various"
TITLE "I Love Disco 80's Vol. 3 (CD1)"
FILE "Various - I Love Disco 80's Vol. 3 (CD1).flac" WAVE
  TRACK 01 AUDIO
    TITLE "Big In Japan"
    PERFORMER "Alphaville"
    INDEX 01 00:00:00
  TRACK 02 AUDIO
    TITLE "Flash In The Night"
    PERFORMER "Secret Service"
    INDEX 01 07:20:57
  TRACK 03 AUDIO
    TITLE "I Go To Pieces"
    PERFORMER "Shooting Party"
    INDEX 01 13:30:68
  TRACK 04 AUDIO
    TITLE "Tonight"
    PERFORMER "Marlene Ricci"
    INDEX 01 19:25:55
  TRACK 05 AUDIO
    TITLE "Las Manos Quietas"
    PERFORMER "Carlos Perez"
    INDEX 01 24:35:03
  TRACK 06 AUDIO
    TITLE "Special Night"
    PERFORMER "Self Service"
    INDEX 01 31:54:34
  TRACK 07 AUDIO
    TITLE "Harlem Desire"
    PERFORMER "London Boys"
    INDEX 01 37:34:22
  TRACK 08 AUDIO
    TITLE "Oh, Don't Lose Your Heart Tonight"
    PERFORMER "Silent Circle"
    INDEX 01 45:58:49
  TRACK 09 AUDIO
    TITLE "Get Closer"
    PERFORMER "Valerie Dore"
    INDEX 01 51:49:25
  TRACK 10 AUDIO
    TITLE "Memory"
    PERFORMER "Menage"
    INDEX 01 58:00:30
  TRACK 11 AUDIO
    TITLE "Imagination (Calypso Nights)"
    PERFORMER "Vanilla"
    INDEX 01 65:10:66
Код:
Exact Audio Copy V0.99 prebeta 4 from 23. January 2008

Отчёт EAC об извлечении, выполненном 7. июня 2008, 12:45

Various / I Love Disco 80's Vol. 3 (CD2)

Дисковод: PLEXTOR DVDR   PX-810UF   Adapter: 2  ID: 0

Режим чтения                 : Достоверность
Использование точного потока : Да
Отключение кэша аудио        : Да
Использование указателей C2  : Нет

Коррекция смещения при чтении                     : 667
Способность читать области Lead-in и Lead-out     : Нет
Заполнение пропущенных сэмплов тишиной            : Да
Удаление блоков с тишиной в начале и конце        : Нет
При вычислениях CRC использовались нулевые сэмплы : Нет
Интерфейс                                         : Встроенный Win32-интерфейс для Win NT/2000

Выходной формат : Внутренние WAV-операции
Формат сэмплов  : 44.100 Гц; 16 бит; стерео

TOC извлечённого CD

     Трек |   Старт  | Длительность | Начальный сектор | Конечный сектор
    ---------------------------------------------------------------------
       1  |  0:00.00 |    7:46.31   |           0      |      34980
       2  |  7:46.31 |    9:24.47   |       34981      |      77327
       3  | 17:11.03 |    7:45.29   |       77328      |     112231
       4  | 24:56.32 |    6:12.16   |      112232      |     140147
       5  | 31:08.48 |    5:01.66   |      140148      |     162788
       6  | 36:10.39 |    6:37.21   |      162789      |     192584
       7  | 42:47.60 |    6:47.14   |      192585      |     223123
       8  | 49:34.74 |    6:24.61   |      223124      |     251984
       9  | 55:59.60 |    4:30.27   |      251985      |     272261
      10  | 60:30.12 |    6:34.46   |      272262      |     301857
      11  | 67:04.58 |   10:38.08   |      301858      |     349715

Характеристики диапазона извлечения и сообщения об ошибках

Выбранный диапазон

     Имя файла Z:\Temp\Various - I Love Disco 80's Vol. 3 (CD2).wav

     Пиковый уровень 100.0 %
     Качество диапазона 99.9 %
     CRC теста 44CDD5DD
     CRC копии 44CDD5DD
     Копирование... OK

Ошибок не произошло

AccurateRip: сводка

Трек  1  нет в базе данных
Трек  2  нет в базе данных
Трек  3  нет в базе данных
Трек  4  нет в базе данных
Трек  5  нет в базе данных
Трек  6  нет в базе данных
Трек  7  нет в базе данных
Трек  8  нет в базе данных
Трек  9  нет в базе данных
Трек 10  нет в базе данных
Трек 11  нет в базе данных

Ни одного трека нет в базе AccurateRip

Конец отчёта
Код:
-----------------------

DON'T MODIFY THIS FILE

-----------------------

PERFORMER: auCDtect Task Manager, ver. 1.5.1RC6 build 1.5.1.7
Copyright (c) 2008-2010 y-soft. All rights reserved
http://y-soft.org

ANALYZER: auCDtect: CD records authenticity detector, version 0.8.2
Copyright (c) 2004 Oleg Berngardt. All rights reserved.
Copyright (c) 2004 Alexander Djourik. All rights reserved.

FILE: Various - I Love Disco 80's Vol. 3 (CD2).flac
  Size: 572868030 Hash: 19C0D88C67C70D110160F5FCC58E1805 Accuracy: -m0
  Conclusion: CDDA 100%
  Signature: BCE55DF69806B9426FB49794D662F15E86E8190A
Код:
REM GENRE Disco
REM DATE 2007
REM DISCID A212360B
REM COMMENT "ExactAudioCopy v0.99pb4"
PERFORMER "Various"
TITLE "I Love Disco 80's Vol. 3 (CD2)"
FILE "Various - I Love Disco 80's Vol. 3 (CD2).flac" WAVE
  TRACK 01 AUDIO
    TITLE "Why ?"
    PERFORMER "Bronski Beat"
    INDEX 01 00:00:00
  TRACK 02 AUDIO
    TITLE "New Dimension (Electro Mix)"
    PERFORMER "Imagination"
    INDEX 01 07:46:31
  TRACK 03 AUDIO
    TITLE "Tech-No-Logical World"
    PERFORMER "Patrick Cowley"
    INDEX 01 17:11:03
  TRACK 04 AUDIO
    TITLE "Coming Out Of Hiding"
    PERFORMER "Pamala Stanley"
    INDEX 01 24:56:32
  TRACK 05 AUDIO
    TITLE "Over My Head"
    PERFORMER "Toni Basil"
    INDEX 01 31:08:48
  TRACK 06 AUDIO
    TITLE "Candy Love"
    PERFORMER "Lili & Sussie"
    INDEX 01 36:10:39
  TRACK 07 AUDIO
    TITLE "I Can't Get Enough"
    PERFORMER "Prime Time"
    INDEX 01 42:47:60
  TRACK 08 AUDIO
    TITLE "Superstition Medley With Good Times"
    PERFORMER "Club House"
    INDEX 01 49:34:74
  TRACK 09 AUDIO
    TITLE "Safety Dance"
    PERFORMER "Men Without Hats"
    INDEX 01 55:59:60
  TRACK 10 AUDIO
    TITLE "Goh Deh Yaka (Go To The Top)"
    PERFORMER "Monyaka"
    INDEX 01 60:30:12
  TRACK 11 AUDIO
    TITLE "Don't Stop The Classics"
    PERFORMER "Tempo Rubato"
    INDEX 01 67:04:58
Номер по каталогу: MXCD 1742 CB
Продолжительность: 02:33:52

CD 1
01. Lime - Come And Get Your Love (Remix) (8:46)
02. Real Life - Send Me An Angel (5:44)
03. Shannon - Give Me The Musc (Medley Let The Music Play & Give Me Tonight) (6:56)
04. Baumann - Strangers In The Night (4:57)
05. Billy Ocean - Carribbean Queen (No More Love On The Run) (8:12)
06. Ivan - Baila (5:41)
07. Irene Cara - Why Me? (7:06)
08. Miro Miroe - Nights Of Arabia (6:51)
09. Indeep - When Boys Talk (5:56)
10. Lydia Murdock - Superstar (9:09)
11. Baiser - Summer Breeze (8:42)

CD 2
01. Ryan Simmons - Lucky Guy (Special Dj Mix) (8:19)
02. Suzy Q - Computer Music (5:43)
03. Les McKeown - Love's Is Just A Breath Away (5:48)
04. Boney M - Young, Free And Single (7:52)
05. Stephanie Biddle - Let Me! (Dub Mix) (6:14)
06. Sylvester - Don't Stop (Remix) (8:29)
07. Selena - Shotgun (8:05)
08. Hearts On Fire - Hearts On Fire (6:48)
09. Paul Rein - Hold Back Your Love (Energy Mix) (5:43)
10. Vanilla - Paradise Me Amore (6:38)
11. Bonnie Bianco - The Heart Is A Lonely Hunter (US Dance Mix) (6:13)
Код:
Exact Audio Copy V0.99 prebeta 4 from 23. January 2008

Отчёт EAC об извлечении, выполненном 7. июня 2008, 19:49

Various / I Love Disco 80's Vol. 4 (CD1)

Дисковод: PLEXTOR DVDR   PX-810UF   Adapter: 2  ID: 0

Режим чтения                 : Достоверность
Использование точного потока : Да
Отключение кэша аудио        : Да
Использование указателей C2  : Нет

Коррекция смещения при чтении                     : 667
Способность читать области Lead-in и Lead-out     : Нет
Заполнение пропущенных сэмплов тишиной            : Да
Удаление блоков с тишиной в начале и конце        : Нет
При вычислениях CRC использовались нулевые сэмплы : Нет
Интерфейс                                         : Встроенный Win32-интерфейс для Win NT/2000

Выходной формат : Внутренние WAV-операции
Формат сэмплов  : 44.100 Гц; 16 бит; стерео

TOC извлечённого CD

     Трек |   Старт  | Длительность | Начальный сектор | Конечный сектор
    ---------------------------------------------------------------------
       1  |  0:00.00 |    8:45.52   |           0      |      39426
       2  |  8:45.52 |    5:44.07   |       39427      |      65233
       3  | 14:29.59 |    6:56.27   |       65234      |      96460
       4  | 21:26.11 |    4:57.06   |       96461      |     118741
       5  | 26:23.17 |    8:12.07   |      118742      |     155648
       6  | 34:35.24 |    5:41.11   |      155649      |     181234
       7  | 40:16.35 |    7:06.07   |      181235      |     213191
       8  | 47:22.42 |    6:50.65   |      213192      |     244006
       9  | 54:13.32 |    5:56.21   |      244007      |     270727
      10  | 60:09.53 |    9:08.70   |      270728      |     311897
      11  | 69:18.48 |    8:41.46   |      311898      |     351018

Характеристики диапазона извлечения и сообщения об ошибках

Выбранный диапазон

     Имя файла Z:\Temp\Various - I Love Disco 80's Vol. 4 (CD1).wav

     Пиковый уровень 100.0 %
     Качество диапазона 100.0 %
     CRC теста 53AD2BC0
     CRC копии 53AD2BC0
     Копирование... OK

Ошибок не произошло

AccurateRip: сводка

Трек  1  нет в базе данных
Трек  2  нет в базе данных
Трек  3  нет в базе данных
Трек  4  нет в базе данных
Трек  5  нет в базе данных
Трек  6  нет в базе данных
Трек  7  нет в базе данных
Трек  8  нет в базе данных
Трек  9  нет в базе данных
Трек 10  нет в базе данных
Трек 11  нет в базе данных

Ни одного трека нет в базе AccurateRip

Конец отчёта
Код:
-----------------------

DON'T MODIFY THIS FILE

-----------------------

PERFORMER: auCDtect Task Manager, ver. 1.5.1RC6 build 1.5.1.7
Copyright (c) 2008-2010 y-soft. All rights reserved
http://y-soft.org

ANALYZER: auCDtect: CD records authenticity detector, version 0.8.2
Copyright (c) 2004 Oleg Berngardt. All rights reserved.
Copyright (c) 2004 Alexander Djourik. All rights reserved.

FILE: Various - I Love Disco 80's Vol. 4 (CD1).flac
  Size: 561124830 Hash: 60C428D5422CD28A06515D24208C2FA7 Accuracy: -m0
  Conclusion: CDDA 100%
  Signature: A516EEEB36825AD657908ED512953A7AB5856C94
Код:
REM GENRE Disco
REM DATE 2007
REM DISCID 9C12480B
REM COMMENT "ExactAudioCopy v0.99pb4"
PERFORMER "Various"
TITLE "I Love Disco 80's Vol. 4 (CD1)"
FILE "Various - I Love Disco 80's Vol. 4 (CD1).flac" WAVE
  TRACK 01 AUDIO
    TITLE "Come And Get Your Love (Remix)"
    PERFORMER "Lime"
    FLAGS DCP
    INDEX 01 00:00:00
  TRACK 02 AUDIO
    TITLE "Send Me An Angel"
    PERFORMER "Real Life"
    FLAGS DCP
    INDEX 00 08:43:52
    INDEX 01 08:45:52
  TRACK 03 AUDIO
    TITLE "Give Me The Musc (Medley Let The Music Play & Give Me Tonight)"
    PERFORMER "Shannon"
    FLAGS DCP
    INDEX 00 14:27:59
    INDEX 01 14:29:59
  TRACK 04 AUDIO
    TITLE "Strangers In The Night"
    PERFORMER "Baumann"
    FLAGS DCP
    INDEX 00 21:24:11
    INDEX 01 21:26:11
  TRACK 05 AUDIO
    TITLE "Carribbean Queen (No More Love On The Run)"
    PERFORMER "Billy Ocean"
    FLAGS DCP
    INDEX 00 26:21:17
    INDEX 01 26:23:17
  TRACK 06 AUDIO
    TITLE "Baila"
    PERFORMER "Ivan"
    FLAGS DCP
    INDEX 00 34:33:24
    INDEX 01 34:35:24
  TRACK 07 AUDIO
    TITLE "Why Me?"
    PERFORMER "Irene Cara"
    FLAGS DCP
    INDEX 00 40:14:35
    INDEX 01 40:16:35
  TRACK 08 AUDIO
    TITLE "Nights Of Arabia"
    PERFORMER "Miro Miroe"
    FLAGS DCP
    INDEX 00 47:20:42
    INDEX 01 47:22:42
  TRACK 09 AUDIO
    TITLE "When Boys Talk"
    PERFORMER "Indeep"
    FLAGS DCP
    INDEX 00 54:11:32
    INDEX 01 54:13:32
  TRACK 10 AUDIO
    TITLE "Superstar"
    PERFORMER "Lydia Murdock"
    FLAGS DCP
    INDEX 00 60:07:53
    INDEX 01 60:09:53
  TRACK 11 AUDIO
    TITLE "Summer Breeze"
    PERFORMER "Baiser"
    FLAGS DCP
    INDEX 00 69:16:48
    INDEX 01 69:18:48
Код:
Exact Audio Copy V0.99 prebeta 4 from 23. January 2008

Отчёт EAC об извлечении, выполненном 8. июня 2008, 3:57

Various / I Love Disco 80's Vol. 4 (CD2)

Дисковод: PLEXTOR DVDR   PX-810UF   Adapter: 2  ID: 0

Режим чтения                 : Достоверность
Использование точного потока : Да
Отключение кэша аудио        : Да
Использование указателей C2  : Нет

Коррекция смещения при чтении                     : 667
Способность читать области Lead-in и Lead-out     : Нет
Заполнение пропущенных сэмплов тишиной            : Да
Удаление блоков с тишиной в начале и конце        : Нет
При вычислениях CRC использовались нулевые сэмплы : Нет
Интерфейс                                         : Встроенный Win32-интерфейс для Win NT/2000

Выходной формат : Внутренние WAV-операции
Формат сэмплов  : 44.100 Гц; 16 бит; стерео

TOC извлечённого CD

     Трек |   Старт  | Длительность | Начальный сектор | Конечный сектор
    ---------------------------------------------------------------------
       1  |  0:00.00 |    8:19.08   |           0      |      37432
       2  |  8:19.08 |    5:43.27   |       37433      |      63184
       3  | 14:02.35 |    5:48.28   |       63185      |      89312
       4  | 19:50.63 |    7:52.08   |       89313      |     124720
       5  | 27:42.71 |    6:13.50   |      124721      |     152745
       6  | 33:56.46 |    8:29.24   |      152746      |     190944
       7  | 42:25.70 |    8:05.02   |      190945      |     227321
       8  | 50:30.72 |    6:47.39   |      227322      |     257885
       9  | 57:18.36 |    5:42.61   |      257886      |     283596
      10  | 63:01.22 |    6:38.17   |      283597      |     313463
      11  | 69:39.39 |    6:12.68   |      313464      |     341431

Характеристики диапазона извлечения и сообщения об ошибках

Выбранный диапазон

     Имя файла Z:\Temp\Various - I Love Disco 80's Vol. 4 (CD2).wav

     Пиковый уровень 100.0 %
     Качество диапазона 99.9 %
     CRC теста 3E9F6849
     CRC копии 3E9F6849
     Копирование... OK

Ошибок не произошло

AccurateRip: сводка

Трек  1  нет в базе данных
Трек  2  нет в базе данных
Трек  3  нет в базе данных
Трек  4  нет в базе данных
Трек  5  нет в базе данных
Трек  6  нет в базе данных
Трек  7  нет в базе данных
Трек  8  нет в базе данных
Трек  9  нет в базе данных
Трек 10  нет в базе данных
Трек 11  нет в базе данных

Ни одного трека нет в базе AccurateRip

Конец отчёта
Код:
-----------------------

DON'T MODIFY THIS FILE

-----------------------

PERFORMER: auCDtect Task Manager, ver. 1.5.1RC6 build 1.5.1.7
Copyright (c) 2008-2010 y-soft. All rights reserved
http://y-soft.org

ANALYZER: auCDtect: CD records authenticity detector, version 0.8.2
Copyright (c) 2004 Oleg Berngardt. All rights reserved.
Copyright (c) 2004 Alexander Djourik. All rights reserved.

FILE: Various - I Love Disco 80's Vol. 4 (CD2).flac
  Size: 575050193 Hash: E4566EADF604B19598F7FFDDB43D6D82 Accuracy: -m0
  Conclusion: CDDA 100%
  Signature: A7533E5CBCF4E383A573427412DAF724E7F83A3B
Код:
REM GENRE Disco
REM DATE 2007
REM DISCID 8B11C80B
REM COMMENT "ExactAudioCopy v0.99pb4"
PERFORMER "Various"
TITLE "I Love Disco 80's Vol. 4 (CD2)"
FILE "Various - I Love Disco 80's Vol. 4 (CD2).flac" WAVE
  TRACK 01 AUDIO
    TITLE "Lucky Guy (Special Dj Mix)"
    PERFORMER "Ryan Simmons"
    INDEX 01 00:00:00
  TRACK 02 AUDIO
    TITLE "Computer Music"
    PERFORMER "Suzy Q"
    INDEX 01 08:19:08
  TRACK 03 AUDIO
    TITLE "Love's Is Just A Breath Away"
    PERFORMER "Les McKeown"
    INDEX 01 14:02:35
  TRACK 04 AUDIO
    TITLE "Young, Free And Single"
    PERFORMER "Boney M"
    INDEX 01 19:50:63
  TRACK 05 AUDIO
    TITLE "Let Me! (Dub Mix)"
    PERFORMER "Stephanie Biddle"
    INDEX 01 27:42:71
  TRACK 06 AUDIO
    TITLE "Don't Stop (Remix)"
    PERFORMER "Sylvester"
    INDEX 01 33:56:46
  TRACK 07 AUDIO
    TITLE "Shotgun"
    PERFORMER "Selena"
    INDEX 01 42:25:70
  TRACK 08 AUDIO
    TITLE "Hearts On Fire"
    PERFORMER "Hearts On Fire"
    INDEX 01 50:30:72
  TRACK 09 AUDIO
    TITLE "Hold Back Your Love (Energy Mix)"
    PERFORMER "Paul Rein"
    INDEX 01 57:18:36
  TRACK 10 AUDIO
    TITLE "Paradise Me Amore"
    PERFORMER "Vanilla"
    INDEX 01 63:01:22
  TRACK 11 AUDIO
    TITLE "The Heart Is A Lonely Hunter (US Dance Mix)"
    PERFORMER "Bonnie Bianco"
    INDEX 01 69:39:39
Номер по каталогу: MXCD 1851 CB
Продолжительность: 02:26:27

CD 1
01. Ray Parker Jr. - Ghostbusters (6:10)
02. Cyndi Lauper - Girls Just Want To Have Fun (6:06)
03. Culture Club - It's A Miracle (9:10)
04. De Blanc - Hush (4:33)
05. Wham ! - Last Christmas (6:45)
06. Gazebo - Masterpiece (9:40)
07. Fancy - Flames Of Love (5:21)
08. Sandra - Everlasting Love (7:19)
09. Big Ben Tribe - Heroes (6:53)
10. Mandy Smith - I Just Can't Wait (7:17)
11. Ofra Haza - Galbi (7:25)

CD 2
01. Third World - One More Time (7:13)
02. Miami Sound Machine - Dr.Beat (6:29)
03. Azul Y Negro - Me Estoy Volviendo Loco (6:08)
04. Zara-Thustra - Magic Nights (8:35)
05. Hazell Dean - Love Pains (6:27)
06. C.C.Catch - Are You Man Enough (6:04)
07. David Lyme - Bambina (5:30)
08. Green Ice - A Happier Time (7:08)
09. Monte Kristo - The Girl Of Lucifer (5:32)
10. Alan Cook - Do You Want To Stay (5:30)
11. Daydream - In The Night (5:13)
Код:
Exact Audio Copy V0.99 prebeta 5 from 4. May 2009

Отчёт EAC об извлечении, выполненном 19. января 2010, 15:29

Various / I Love Disco 80's Vol.5 CD 1

Дисковод: Optiarc DVD RW AD-5200A   Adapter: 0  ID: 0

Режим чтения                 : Достоверность
Использование точного потока : Да
Отключение кэша аудио        : Да
Использование указателей C2  : Нет

Коррекция смещения при чтении                     : 48
Способность читать области Lead-in и Lead-out     : Нет
Заполнение пропущенных сэмплов тишиной            : Да
Удаление блоков с тишиной в начале и конце        : Нет
При вычислениях CRC использовались нулевые сэмплы : Да
Интерфейс                                         : Установленный внешний ASPI-интерфейс

Выходной формат : Внутренние WAV-операции
Формат сэмплов  : 44.100 Гц; 16 бит; стерео

TOC извлечённого CD

     Трек |   Старт  | Длительность | Начальный сектор | Конечный сектор
    ---------------------------------------------------------------------
       1  |  0:00.00 |    6:09.40   |           0      |      27714
       2  |  6:09.40 |    6:06.00   |       27715      |      55164
       3  | 12:15.40 |    9:10.00   |       55165      |      96414
       4  | 21:25.40 |    4:33.00   |       96415      |     116889
       5  | 25:58.40 |    6:45.00   |      116890      |     147264
       6  | 32:43.40 |    9:40.00   |      147265      |     190764
       7  | 42:23.40 |    5:20.58   |      190765      |     214822
       8  | 47:44.23 |    7:19.00   |      214823      |     247747
       9  | 55:03.23 |    6:52.54   |      247748      |     278701
      10  | 61:56.02 |    7:17.00   |      278702      |     311476
      11  | 69:13.02 |    7:25.00   |      311477      |     344851

Характеристики диапазона извлечения и сообщения об ошибках

Выбранный диапазон

     Имя файла G:\All\Music\I Love Disco 80's Vol.5 CD 1\Various - I Love Disco 80's Vol.5 CD 1.wav

     Пиковый уровень 100.0 %
     Качество диапазона 100.0 %
     CRC теста 28B1A354
     CRC копии 28B1A354
     Копирование... OK

Ошибок не произошло

AccurateRip: сводка

Трек  1  нет в базе данных
Трек  2  нет в базе данных
Трек  3  нет в базе данных
Трек  4  нет в базе данных
Трек  5  нет в базе данных
Трек  6  нет в базе данных
Трек  7  нет в базе данных
Трек  8  нет в базе данных
Трек  9  нет в базе данных
Трек 10  нет в базе данных
Трек 11  нет в базе данных

Ни одного трека нет в базе AccurateRip

Конец отчёта
Код:
-----------------------

DON'T MODIFY THIS FILE

-----------------------

PERFORMER: auCDtect Task Manager, ver. 1.5.1RC6 build 1.5.1.7
Copyright (c) 2008-2010 y-soft. All rights reserved
http://y-soft.org

ANALYZER: auCDtect: CD records authenticity detector, version 0.8.2
Copyright (c) 2004 Oleg Berngardt. All rights reserved.
Copyright (c) 2004 Alexander Djourik. All rights reserved.

FILE: Various - I Love Disco 80's Vol.5 CD 1.flac
  Size: 551757972 Hash: 318108555E9D182A7B2820257AF8668D Accuracy: -m0
  Conclusion: CDDA 100%
  Signature: 7DDE137D3E5451362BF5E9E5C69C1E517B69186D
Код:
REM GENRE Disco
REM DATE 2008
REM DISCID A411F60B
REM COMMENT "ExactAudioCopy v0.99pb5"
PERFORMER "Various"
TITLE "I Love Disco 80's Vol.5 CD 1"
FILE "Various - I Love Disco 80's Vol.5 CD 1.flac" WAVE
  TRACK 01 AUDIO
    TITLE "Ghostbusters"
    PERFORMER "Ray Parker Jr."
    INDEX 01 00:00:00
  TRACK 02 AUDIO
    TITLE "Girls Just Want To Have Fun"
    PERFORMER "Cyndi  Lauper"
    INDEX 01 06:09:40
  TRACK 03 AUDIO
    TITLE "It's A Miracle"
    PERFORMER "Culture Club"
    INDEX 01 12:15:40
  TRACK 04 AUDIO
    TITLE "Hush"
    PERFORMER "De Blanc"
    INDEX 01 21:25:40
  TRACK 05 AUDIO
    TITLE "Last Christmas"
    PERFORMER "Wham!"
    INDEX 01 25:58:40
  TRACK 06 AUDIO
    TITLE "Masterpiece"
    PERFORMER "Gazebo"
    INDEX 01 32:43:40
  TRACK 07 AUDIO
    TITLE "Flames Of Love"
    PERFORMER "Fancy"
    INDEX 01 42:23:40
  TRACK 08 AUDIO
    TITLE "Everlasting Love"
    PERFORMER "Sandra"
    INDEX 01 47:44:23
  TRACK 09 AUDIO
    TITLE "Heroes"
    PERFORMER "Big Ben Tribe"
    INDEX 01 55:03:23
  TRACK 10 AUDIO
    TITLE "I Just Can't Wait"
    PERFORMER "Mandy Smith"
    INDEX 01 61:56:02
  TRACK 11 AUDIO
    TITLE "Galbi"
    PERFORMER "Ofra Haza"
    INDEX 01 69:13:02
Код:
Exact Audio Copy V0.99 prebeta 5 from 4. May 2009

Отчёт EAC об извлечении, выполненном 19. января 2010, 18:06

Various / I Love Disco 80's Vol.5 CD 2

Дисковод: Optiarc DVD RW AD-5200A   Adapter: 0  ID: 0

Режим чтения                 : Достоверность
Использование точного потока : Да
Отключение кэша аудио        : Да
Использование указателей C2  : Нет

Коррекция смещения при чтении                     : 48
Способность читать области Lead-in и Lead-out     : Нет
Заполнение пропущенных сэмплов тишиной            : Да
Удаление блоков с тишиной в начале и конце        : Нет
При вычислениях CRC использовались нулевые сэмплы : Да
Интерфейс                                         : Установленный внешний ASPI-интерфейс

Выходной формат : Внутренние WAV-операции
Формат сэмплов  : 44.100 Гц; 16 бит; стерео

TOC извлечённого CD

     Трек |   Старт  | Длительность | Начальный сектор | Конечный сектор
    ---------------------------------------------------------------------
       1  |  0:00.00 |    7:13.16   |           0      |      32490
       2  |  7:13.16 |    6:29.00   |       32491      |      61665
       3  | 13:42.16 |    6:08.28   |       61666      |      89293
       4  | 19:50.44 |    8:34.73   |       89294      |     127916
       5  | 28:25.42 |    6:26.72   |      127917      |     156938
       6  | 34:52.39 |    6:04.17   |      156939      |     184255
       7  | 40:56.56 |    5:30.01   |      184256      |     209006
       8  | 46:26.57 |    7:08.05   |      209007      |     241111
       9  | 53:34.62 |    5:31.74   |      241112      |     266010
      10  | 59:06.61 |    5:30.00   |      266011      |     290760
      11  | 64:36.61 |    5:13.05   |      290761      |     314240

Характеристики диапазона извлечения и сообщения об ошибках

Выбранный диапазон

     Имя файла G:\All\Music\I Love Disco 80's Vol.5 CD 2\Various - I Love Disco 80's Vol.5 CD 2.wav

     Пиковый уровень 100.0 %
     Качество диапазона 100.0 %
     CRC теста 87E1736A
     CRC копии 87E1736A
     Копирование... OK

Ошибок не произошло

AccurateRip: сводка

Трек  1  нет в базе данных
Трек  2  нет в базе данных
Трек  3  нет в базе данных
Трек  4  нет в базе данных
Трек  5  нет в базе данных
Трек  6  нет в базе данных
Трек  7  нет в базе данных
Трек  8  нет в базе данных
Трек  9  нет в базе данных
Трек 10  нет в базе данных
Трек 11  нет в базе данных

Ни одного трека нет в базе AccurateRip

Конец отчёта
Код:
-----------------------

DON'T MODIFY THIS FILE

-----------------------

PERFORMER: auCDtect Task Manager, ver. 1.5.1RC6 build 1.5.1.7
Copyright (c) 2008-2010 y-soft. All rights reserved
http://y-soft.org

ANALYZER: auCDtect: CD records authenticity detector, version 0.8.2
Copyright (c) 2004 Oleg Berngardt. All rights reserved.
Copyright (c) 2004 Alexander Djourik. All rights reserved.

FILE: Various - I Love Disco 80's Vol.5 CD 2.flac
  Size: 525833747 Hash: 286AAC26BDAEA5BF2CEAB295FFD83FC9 Accuracy: -m0
  Conclusion: CDDA 100%
  Signature: 56D6A8DA0BACE286919D19DD378D91D7ED44530C
Код:
REM GENRE Disco
REM DATE 2008
REM DISCID AD105D0B
REM COMMENT "ExactAudioCopy v0.99pb5"
PERFORMER "Various"
TITLE "I Love Disco 80's Vol.5 CD 2"
FILE "Various - I Love Disco 80's Vol.5 CD 2.flac" WAVE
  TRACK 01 AUDIO
    TITLE "One More Time"
    PERFORMER "Third World"
    INDEX 01 00:00:00
  TRACK 02 AUDIO
    TITLE "Dr.Beat"
    PERFORMER "Miami Sound Machine"
    INDEX 01 07:13:16
  TRACK 03 AUDIO
    TITLE "Me Estoy Volviendo Loco"
    PERFORMER "Azul Y Negro"
    INDEX 01 13:42:16
  TRACK 04 AUDIO
    TITLE "Magic Nights"
    PERFORMER "Zara-Thustra"
    INDEX 01 19:50:44
  TRACK 05 AUDIO
    TITLE "Love Pains"
    PERFORMER "Hazell Dean"
    INDEX 01 28:25:42
  TRACK 06 AUDIO
    TITLE "Are You Man Enough"
    PERFORMER "C.C.Catch"
    INDEX 01 34:52:39
  TRACK 07 AUDIO
    TITLE "Bambina"
    PERFORMER "David Lyme"
    INDEX 01 40:56:56
  TRACK 08 AUDIO
    TITLE "A Happier Time"
    PERFORMER "Green Ice"
    INDEX 01 46:26:57
  TRACK 09 AUDIO
    TITLE "The Girl Of Lucifer"
    PERFORMER "Monte Kristo"
    INDEX 01 53:34:62
  TRACK 10 AUDIO
    TITLE "Do You Want To Stay"
    PERFORMER "Alan Cook"
    INDEX 01 59:06:61
  TRACK 11 AUDIO
    TITLE "In The Night"
    PERFORMER "Daydream"
    INDEX 01 64:36:61
Номер по каталогу: MXCD 2113 CB
Продолжительность: 02:25:09

CD 1
01. Alphaville - Forever Young (6:08)
02. The Human League - Don't You Want Me (ARP Mix) (5:55)
03. Daryl Hall & John Oates - Out Of Touch 7:36
04. Samantha Fox - I Surrender (To The Spirit Of The Night) (6:35)
05. Nick Kamen - Each Time You Break My Heart (6:53)
06. E.G.Daily - Mind Over Matter (Remix) (7:03)
07. Mory Kante - Ye Ke Ye Ke (6:19)
08. London Boys - I'm Gonna Give My Heart (8:10)
09. Costas Charitodiplomenos - Lost In The Night (6:47)
10. Valerie Dore - King Arthur (5:44)
11. Den Harrow - Mad Desire (Remix) (6:02)

CD 2
01. Rick Astley - Take Me To Your Heart (6:58)
02. Eighth Wonder - Cross My Heart (7:06)
03. Baltimora - Key Key Karimba (6:00)
04. Kim Wilde - You Keep Me Hangin' On (9:04)
05. France Joli - Party Lights (5:25)
06. Kasso - Baby Doll (Remix) (7:32)
07. Gary Low - Forever, Tonight And All My Life (7:10)
08. Eartha Kitt - Where Is My Man (6:25)
09. Break Machine - Street Dance (6:28)
10. Azul Y Negro - Fu-Man-Chu (4:53)
11. Roni Griffith - Love Is The Drug (4:55)
Код:
Exact Audio Copy V0.99 prebeta 5 from 4. May 2009

Отчёт EAC об извлечении, выполненном 13. марта 2011, 22:33

Various / I Love Disco 80's Vol.6 CD 1

Дисковод: PIONEER DVD-RW  DVR-107D   Adapter: 3  ID: 0

Режим чтения                 : Достоверность
Использование точного потока : Да
Отключение кэша аудио        : Да
Использование указателей C2  : Нет

Коррекция смещения при чтении                     : 48
Способность читать области Lead-in и Lead-out     : Нет
Заполнение пропущенных сэмплов тишиной            : Да
Удаление блоков с тишиной в начале и конце        : Нет
При вычислениях CRC использовались нулевые сэмплы : Да
Интерфейс                                         : Встроенный Win32-интерфейс для Win NT/2000

Выходной формат : Внутренние WAV-операции
Формат сэмплов  : 44.100 Гц; 16 бит; стерео

TOC извлечённого CD

     Трек |   Старт  | Длительность | Начальный сектор | Конечный сектор
    ---------------------------------------------------------------------
       1  |  0:00.00 |    6:08.13   |           0      |      27612
       2  |  6:08.13 |    5:55.37   |       27613      |      54274
       3  | 12:03.50 |    7:36.29   |       54275      |      88503
       4  | 19:40.04 |    6:34.58   |       88504      |     118111
       5  | 26:14.62 |    6:53.05   |      118112      |     149091
       6  | 33:07.67 |    7:02.38   |      149092      |     180779
       7  | 40:10.30 |    6:19.06   |      180780      |     209210
       8  | 46:29.36 |    8:10.12   |      209211      |     245972
       9  | 54:39.48 |    6:46.67   |      245973      |     276489
      10  | 61:26.40 |    5:43.69   |      276490      |     302283
      11  | 67:10.34 |    6:02.11   |      302284      |     329444

Характеристики диапазона извлечения и сообщения об ошибках

Выбранный диапазон

     Имя файла D:\All\Music\Various - I Love Disco 80's Vol.6\Various - I Love Disco 80's Vol.6 CD 1\Various - I Love Disco 80's Vol.6 CD 1.wav

     Пиковый уровень 100.0 %
     Качество диапазона 100.0 %
     CRC теста AEAEF268
     CRC копии AEAEF268
     Копирование... OK

Ошибок не произошло

AccurateRip: сводка

Трек  1  нет в базе данных
Трек  2  нет в базе данных
Трек  3  нет в базе данных
Трек  4  нет в базе данных
Трек  5  нет в базе данных
Трек  6  нет в базе данных
Трек  7  нет в базе данных
Трек  8  нет в базе данных
Трек  9  нет в базе данных
Трек 10  нет в базе данных
Трек 11  нет в базе данных

Ни одного трека нет в базе AccurateRip

Конец отчёта
Код:
-----------------------

DON'T MODIFY THIS FILE

-----------------------

PERFORMER: auCDtect Task Manager, ver. 1.5.1RC6 build 1.5.1.7
Copyright (c) 2008-2010 y-soft. All rights reserved
http://y-soft.org

ANALYZER: auCDtect: CD records authenticity detector, version 0.8.2
Copyright (c) 2004 Oleg Berngardt. All rights reserved.
Copyright (c) 2004 Alexander Djourik. All rights reserved.

FILE: Various - I Love Disco 80's Vol.6 CD 1.flac
  Size: 550066759 Hash: 8A3E6088820D7B5CD576FB1C629AFC24 Accuracy: -m0
  Conclusion: CDDA 100%
  Signature: 1FCBD6A970E3C791CF7E12DAAE12D16B8E7616F8
Код:
REM GENRE Italo-Disco
REM DATE 2010
REM DISCID A011280B
REM COMMENT "ExactAudioCopy v0.99pb5"
PERFORMER "Various"
TITLE "I Love Disco 80's Vol.6 CD 1"
FILE "Various - I Love Disco 80's Vol.6 CD 1.flac" WAVE
  TRACK 01 AUDIO
    TITLE "Forever Young"
    PERFORMER "Alphaville"
    INDEX 01 00:00:00
  TRACK 02 AUDIO
    TITLE "Don't You Want Me (ARP Mix)"
    PERFORMER "The Human League"
    INDEX 01 06:08:13
  TRACK 03 AUDIO
    TITLE "Out Of Touch"
    PERFORMER "Daryl Hall & John Oates"
    INDEX 01 12:03:50
  TRACK 04 AUDIO
    TITLE "I Surrender (To The Spirit Of The Night)"
    PERFORMER "Samantha Fox"
    INDEX 01 19:40:04
  TRACK 05 AUDIO
    TITLE "Each Time You Break  My Heart "
    PERFORMER "Nick Kamen"
    INDEX 01 26:14:62
  TRACK 06 AUDIO
    TITLE "Mind Over Matter (Remix)"
    PERFORMER "E.G.Daily"
    INDEX 01 33:07:67
  TRACK 07 AUDIO
    TITLE "Yeke Yeke"
    PERFORMER "Mory Kante"
    INDEX 01 40:10:30
  TRACK 08 AUDIO
    TITLE "I'm Gonna Give My Heart"
    PERFORMER "London Boys"
    INDEX 01 46:29:36
  TRACK 09 AUDIO
    TITLE "Lost In The Night"
    PERFORMER "Costas Charitodiplomenos"
    INDEX 01 54:39:48
  TRACK 10 AUDIO
    TITLE "King Arthur"
    PERFORMER "Valerie Dore"
    INDEX 01 61:26:40
  TRACK 11 AUDIO
    TITLE "Mad Desire (Remix)"
    PERFORMER "Den Harrow"
    INDEX 01 67:10:34
Код:
Exact Audio Copy V0.99 prebeta 5 from 4. May 2009

Отчёт EAC об извлечении, выполненном 13. марта 2011, 22:55

Various / I Love Disco 80's Vol.6 CD 2

Дисковод: PIONEER DVD-RW  DVR-107D   Adapter: 3  ID: 0

Режим чтения                 : Достоверность
Использование точного потока : Да
Отключение кэша аудио        : Да
Использование указателей C2  : Нет

Коррекция смещения при чтении                     : 48
Способность читать области Lead-in и Lead-out     : Нет
Заполнение пропущенных сэмплов тишиной            : Да
Удаление блоков с тишиной в начале и конце        : Нет
При вычислениях CRC использовались нулевые сэмплы : Да
Интерфейс                                         : Встроенный Win32-интерфейс для Win NT/2000

Выходной формат : Внутренние WAV-операции
Формат сэмплов  : 44.100 Гц; 16 бит; стерео

TOC извлечённого CD

     Трек |   Старт  | Длительность | Начальный сектор | Конечный сектор
    ---------------------------------------------------------------------
       1  |  0:00.00 |    6:57.68   |           0      |      31342
       2  |  6:57.68 |    7:06.06   |       31343      |      63298
       3  | 14:03.74 |    5:59.60   |       63299      |      90283
       4  | 20:03.59 |    9:03.40   |       90284      |     131048
       5  | 29:07.24 |    5:25.27   |      131049      |     155450
       6  | 34:32.51 |    7:32.04   |      155451      |     189354
       7  | 42:04.55 |    7:10.30   |      189355      |     221634
       8  | 49:15.10 |    6:25.00   |      221635      |     250509
       9  | 55:40.10 |    6:28.02   |      250510      |     279611
      10  | 62:08.12 |    4:53.37   |      279612      |     301623
      11  | 67:01.49 |    4:55.16   |      301624      |     323764

Характеристики диапазона извлечения и сообщения об ошибках

Выбранный диапазон

     Имя файла D:\All\Music\Various - I Love Disco 80's Vol.6\Various - I Love Disco 80's Vol.6 CD 2\Various - I Love Disco 80's Vol.6 CD 2.wav

     Пиковый уровень 99.9 %
     Качество диапазона 99.9 %
     CRC теста E0DBEF34
     CRC копии E0DBEF34
     Копирование... OK

Ошибок не произошло

AccurateRip: сводка

Трек  1  нет в базе данных
Трек  2  нет в базе данных
Трек  3  нет в базе данных
Трек  4  нет в базе данных
Трек  5  нет в базе данных
Трек  6  нет в базе данных
Трек  7  нет в базе данных
Трек  8  нет в базе данных
Трек  9  нет в базе данных
Трек 10  нет в базе данных
Трек 11  нет в базе данных

Ни одного трека нет в базе AccurateRip

Конец отчёта
Код:
-----------------------

DON'T MODIFY THIS FILE

-----------------------

PERFORMER: auCDtect Task Manager, ver. 1.5.1RC6 build 1.5.1.7
Copyright (c) 2008-2010 y-soft. All rights reserved
http://y-soft.org

ANALYZER: auCDtect: CD records authenticity detector, version 0.8.2
Copyright (c) 2004 Oleg Berngardt. All rights reserved.
Copyright (c) 2004 Alexander Djourik. All rights reserved.

FILE: Various - I Love Disco 80's Vol.6 CD 2.flac
  Size: 529602555 Hash: 66D09FA3A63E67F9EF54F3563832A8FF Accuracy: -m0
  Conclusion: CDDA 100%
  Signature: 5FDC5F383BED14A0D3D7319C3AAE47D40495C1F0
Код:
REM GENRE Italo-Disco
REM DATE 2010
REM DISCID 9310DC0B
REM COMMENT "ExactAudioCopy v0.99pb5"
PERFORMER "Various"
TITLE "I Love Disco 80's Vol.6 CD 2"
FILE "Various - I Love Disco 80's Vol.6 CD 2.flac" WAVE
  TRACK 01 AUDIO
    TITLE "Take Me To Your Heart"
    PERFORMER "Rick Astley"
    INDEX 01 00:00:00
  TRACK 02 AUDIO
    TITLE "Cross My Heart"
    PERFORMER "Eighth Wonder"
    INDEX 01 06:57:68
  TRACK 03 AUDIO
    TITLE "Key Key Karimba"
    PERFORMER "Baltimora"
    INDEX 01 14:03:74
  TRACK 04 AUDIO
    TITLE "You Keep Me Hangin' On"
    PERFORMER "Kim Wilde"
    INDEX 01 20:03:59
  TRACK 05 AUDIO
    TITLE "Party Lights"
    PERFORMER "France Joli"
    INDEX 01 29:07:24
  TRACK 06 AUDIO
    TITLE "Baby Doll (Remix)"
    PERFORMER "Kasso"
    INDEX 01 34:32:51
  TRACK 07 AUDIO
    TITLE "Forever, Tonight And All My Life "
    PERFORMER "Gary Low"
    INDEX 01 42:04:55
  TRACK 08 AUDIO
    TITLE "Where Is My Man"
    PERFORMER "Eartha Kitt"
    INDEX 01 49:15:10
  TRACK 09 AUDIO
    TITLE "Street Dance"
    PERFORMER "Break Machine"
    INDEX 01 55:40:10
  TRACK 10 AUDIO
    TITLE "Fu-Man-Chu"
    PERFORMER "Azul Y Negro"
    INDEX 01 62:08:12
  TRACK 11 AUDIO
    TITLE "Love Is The Drug"
    PERFORMER "Roni Griffith"
    INDEX 01 67:01:49
Номер по каталогу: MXCD 2267
Продолжительность: 02:29:50
Треклист:

CD1

01. Eurythmics - Here comes the rain again (5:00)
02. A-ha - The Sun Always Shines On T.V. (Extended Version) (8:26)
03. Time Bandits - Endless Road (Re-mixed Version) (7:15)
04. Laura Branigan - The Lucky One (Jack White Mix) 95:04)
05. Jermaine Jackson - Dynamite (12' Version) (7:46)
06. Jacks Project - Shy Shy Sugarman (12' Version) (5:18)
07. Valerie Claire - Shoot Me Gino (Shotgun Version) (5:46)
08. Jackie Rawe - I Believe In Dreams (Club Mix) (7:21)
09. Lucio David - Close to me (Remix) (7:07)
10. Patty Ryan - I Don't Wanna Lose You Tonight (12' Extended) (6:52)
11. Amanda Scott - Lies (12' Version) (8:29)

CD2
01. Falco - Vienna Calling (The Metternich Arrival-Mix) (7:38)
02. Peter Schilling - The Different Story (World Of Lust And Crime) (Long Version) (6:41)
03. Gilbert Montagné - Just For Tonight (12' Version) (5:21)
04. Silent Circle - Moonlight Affair (12' Version) (6:00)
05. Alan Fox - Please Don't Go (Dance Remix) (5:28)
06. Diux - Comet (Dub Mix) (6:03)
07. Tasha - Don't Let Go (Dance Version) (6:52)
08. Miquel Brown - Megamix (10:10)
09. Wild Mary - No One Knows (Vocal / Extended Mix) (6:36)
10. Cherry - Magic Holiday (Riviera Mix) (7:19)
11. Angie Gold - Eat You Up (12' Version) (6:40)
Код:
Exact Audio Copy V1.0 beta 3 from 29. August 2011

EAC extraction logfile from 5. July 2013, 12:32

VA / I Love Disco 80's Vol.7 - CD 1

Used drive  : TSSTcorpCDDVDW SH-224BB   Adapter: 4  ID: 1

Read mode               : Secure
Utilize accurate stream : Yes
Defeat audio cache      : Yes
Make use of C2 pointers : No

Read offset correction                      : 6
Overread into Lead-In and Lead-Out          : No
Fill up missing offset samples with silence : Yes
Delete leading and trailing silent blocks   : No
Null samples used in CRC calculations       : Yes
Used interface                              : Native Win32 interface for Win NT & 2000

Used output format              : User Defined Encoder
Selected bitrate                : 1024 kBit/s
Quality                         : High
Add ID3 tag                     : No
Command line compressor         : D:\EAC---强版\Exact Audio Copy\FLAC\FLAC.EXE
Additional command line options : -6 -V -T "ARTIST=%artist%" -T "TITLE=%title%" -T "ALBUM=%albumtitle%" -T "DATE=%year%" -T "TRACKNUMBER=%tracknr%" -T "GENRE=%genre%" -T "COMMENT=%comment%" -T "BAND=%albuminterpret%" -T "ALBUMARTIST=%albuminterpret%" -T "COMPOSER=%composer%" %haslyrics%--tag-from-file=LYRICS="%lyricsfile%"%haslyrics% -T "DISCNUMBER=%cdnumber%" -T "TOTALDISCS=%totalcds%" -T "TOTALTRACKS=%numtracks%" %hascover%--picture="%coverfile%"%hascover% %source% -o %dest%

TOC of the extracted CD

     Track |   Start  |  Length  | Start sector | End sector
    ---------------------------------------------------------
        1  |  0:00.00 |  5:00.43 |         0    |    22542
        2  |  5:00.43 |  8:26.20 |     22543    |    60512
        3  | 13:26.63 |  7:16.56 |     60513    |    93268
        4  | 20:43.44 |  5:08.01 |     93269    |   116369
        5  | 25:51.45 |  7:46.08 |    116370    |   151327
        6  | 33:37.53 |  5:18.22 |    151328    |   175199
        7  | 38:56.00 |  5:43.26 |    175200    |   200950
        8  | 44:39.26 |  7:16.58 |    200951    |   233708
        9  | 51:56.09 |  7:07.42 |    233709    |   265775
       10  | 59:03.51 |  6:52.39 |    265776    |   296714
       11  | 65:56.15 |  8:29.24 |    296715    |   334913

Range status and errors

Selected range

     Filename E:\VA - I Love Disco 80's Vol.7 - CD 1.wav

     Peak level 99.8 %
     Extraction speed 8.1 X
     Range quality 100.0 %
     Copy CRC BC3BA027
     Copy OK

No errors occurred

End of status report
Код:
-----------------------

DON'T MODIFY THIS FILE

-----------------------

PERFORMER: auCDtect Task Manager, ver. 1.5.1RC6 build 1.5.1.7
Copyright (c) 2008-2010 y-soft. All rights reserved
http://y-soft.org

ANALYZER: auCDtect: CD records authenticity detector, version 0.8.2
Copyright (c) 2004 Oleg Berngardt. All rights reserved.
Copyright (c) 2004 Alexander Djourik. All rights reserved.

FILE: VA - I Love Disco 80's Vol.7 - CD 1.flac
  Size: 549332980 Hash: 6F9102C94F5E6BE01EED610661CC7393 Accuracy: -m0
  Conclusion: CDDA 99%
  Signature: 34E744A3D78AF28F87FD31E8A825EB60E8003A6B

Код:
REM GENRE "Italo-Disco, Synth-pop "
REM DATE 2012
REM DISCID 9511710B
REM COMMENT "ExactAudioCopy v1.0b3"
PERFORMER "VA"
TITLE "I Love Disco 80's Vol.7 - CD 1"
FILE "VA - I Love Disco 80's Vol.7 - CD 1.flac" WAVE
  TRACK 01 AUDIO
    TITLE "Here comes the rain again"
    PERFORMER "Eurythmics"
    INDEX 01 00:00:00
  TRACK 02 AUDIO
    TITLE "The Sun Always Shines On T.V. (Extended Version)"
    PERFORMER "A-ha"
    INDEX 01 05:00:43
  TRACK 03 AUDIO
    TITLE "Endless Road (Re-mixed Version)"
    PERFORMER "Time Bandits"
    INDEX 01 13:26:63
  TRACK 04 AUDIO
    TITLE "The Lucky One (Jack White Mix)"
    PERFORMER "Laura Branigan"
    INDEX 01 20:43:44
  TRACK 05 AUDIO
    TITLE "Dynamite (12' Version)"
    PERFORMER "Jermaine Jackson"
    INDEX 01 25:51:45
  TRACK 06 AUDIO
    TITLE "Shy Shy Sugarman (12' Version)"
    PERFORMER "Jacks Project"
    INDEX 01 33:37:53
  TRACK 07 AUDIO
    TITLE "Shoot Me Gino (Shotgun Version)"
    PERFORMER "Valerie Claire"
    INDEX 01 38:56:00
  TRACK 08 AUDIO
    TITLE "I Believe In Dreams (Club Mix)"
    PERFORMER "Jackie Rawe"
    INDEX 01 44:39:26
  TRACK 09 AUDIO
    TITLE "Close to me (Remix)"
    PERFORMER "Lucio David "
    INDEX 01 51:56:09
  TRACK 10 AUDIO
    TITLE "I Don't Wanna Lose You Tonight (12' Extended)"
    PERFORMER "Patty Ryan"
    INDEX 01 59:03:51
  TRACK 11 AUDIO
    TITLE "Lies (12' Version)"
    PERFORMER "Amanda Scott"
    INDEX 01 65:56:15
Код:
Exact Audio Copy V1.0 beta 3 from 29. August 2011

EAC extraction logfile from 5. July 2013, 12:56

VA / I Love Disco 80's Vol.7 - CD 2

Used drive  : TSSTcorpCDDVDW SH-224BB   Adapter: 4  ID: 1

Read mode               : Secure
Utilize accurate stream : Yes
Defeat audio cache      : Yes
Make use of C2 pointers : No

Read offset correction                      : 6
Overread into Lead-In and Lead-Out          : No
Fill up missing offset samples with silence : Yes
Delete leading and trailing silent blocks   : No
Null samples used in CRC calculations       : Yes
Used interface                              : Native Win32 interface for Win NT & 2000

Used output format              : User Defined Encoder
Selected bitrate                : 1024 kBit/s
Quality                         : High
Add ID3 tag                     : No
Command line compressor         : D:\EAC---强版\Exact Audio Copy\FLAC\FLAC.EXE
Additional command line options : -6 -V -T "ARTIST=%artist%" -T "TITLE=%title%" -T "ALBUM=%albumtitle%" -T "DATE=%year%" -T "TRACKNUMBER=%tracknr%" -T "GENRE=%genre%" -T "COMMENT=%comment%" -T "BAND=%albuminterpret%" -T "ALBUMARTIST=%albuminterpret%" -T "COMPOSER=%composer%" %haslyrics%--tag-from-file=LYRICS="%lyricsfile%"%haslyrics% -T "DISCNUMBER=%cdnumber%" -T "TOTALDISCS=%totalcds%" -T "TOTALTRACKS=%numtracks%" %hascover%--picture="%coverfile%"%hascover% %source% -o %dest%

TOC of the extracted CD

     Track |   Start  |  Length  | Start sector | End sector
    ---------------------------------------------------------
        1  |  0:00.00 |  7:38.08 |         0    |    34357
        2  |  7:38.08 |  6:41.45 |     34358    |    64477
        3  | 14:19.53 |  5:21.39 |     64478    |    88591
        4  | 19:41.17 |  6:19.38 |     88592    |   117054
        5  | 26:00.55 |  5:28.61 |    117055    |   141715
        6  | 31:29.41 |  6:03.43 |    141716    |   168983
        7  | 37:33.09 |  7:06.24 |    168984    |   200957
        8  | 44:39.33 | 10:09.09 |    200958    |   246641
        9  | 54:48.42 |  6:36.49 |    246642    |   276390
       10  | 61:25.16 |  7:19.08 |    276391    |   309323
       11  | 68:44.24 |  6:40.45 |    309324    |   339368

Range status and errors

Selected range

     Filename E:\VA - I Love Disco 80's Vol.7 - CD 2.wav

     Peak level 100.0 %
     Extraction speed 8.2 X
     Range quality 100.0 %
     Copy CRC 7C481F0E
     Copy OK

No errors occurred

End of status report
Код:
-----------------------

DON'T MODIFY THIS FILE

-----------------------

PERFORMER: auCDtect Task Manager, ver. 1.5.1RC6 build 1.5.1.7
Copyright (c) 2008-2010 y-soft. All rights reserved
http://y-soft.org

ANALYZER: auCDtect: CD records authenticity detector, version 0.8.2
Copyright (c) 2004 Oleg Berngardt. All rights reserved.
Copyright (c) 2004 Alexander Djourik. All rights reserved.

FILE: VA - I Love Disco 80's Vol.7 - CD 2.flac
  Size: 568577276 Hash: 884528F9C25CF9EA8F0FA556725E9679 Accuracy: -m0
  Conclusion: CDDA 100%
  Signature: 8805339B9E436AFB65E9A1BA4F9EC132F42A2463

Код:
REM GENRE "Italo-Disco, Synth-pop"
REM DATE 2012
REM DISCID 9B11AC0B
REM COMMENT "ExactAudioCopy v1.0b3"
PERFORMER "VA"
TITLE "I Love Disco 80's Vol.7 - CD 2"
FILE "VA - I Love Disco 80's Vol.7 - CD 2.flac" WAVE
  TRACK 01 AUDIO
    TITLE "Vienna Calling (The Metternich Arrival-Mix)"
    PERFORMER "Falco"
    FLAGS DCP
    INDEX 01 00:00:00
  TRACK 02 AUDIO
    TITLE "The Different Story (World Of Lust And Crime) (Long Version)"
    PERFORMER "Peter Schilling"
    FLAGS DCP
    INDEX 01 07:38:08
  TRACK 03 AUDIO
    TITLE "Just For Tonight (12' Version)"
    PERFORMER "Gilbert MontagnЁ¦"
    FLAGS DCP
    INDEX 01 14:19:53
  TRACK 04 AUDIO
    TITLE "Moonlight Affair (12' Version)"
    PERFORMER "Silent Circle"
    FLAGS DCP
    INDEX 01 19:41:17
  TRACK 05 AUDIO
    TITLE "Please Don't Go (Dance Remix)"
    PERFORMER "Alan Fox "
    FLAGS DCP
    INDEX 01 26:00:55
  TRACK 06 AUDIO
    TITLE "Comet (Dub Mix)"
    PERFORMER "Diux"
    FLAGS DCP
    INDEX 01 31:29:41
  TRACK 07 AUDIO
    TITLE "Don't Let Go (Dance Version)"
    PERFORMER "Tasha"
    FLAGS DCP
    INDEX 01 37:33:09
  TRACK 08 AUDIO
    TITLE "Megamix"
    PERFORMER "Miquel Brown"
    FLAGS DCP
    INDEX 01 44:39:33
  TRACK 09 AUDIO
    TITLE "No One Knows (Vocal / Extended Mix)"
    PERFORMER "Wild Mary"
    FLAGS DCP
    INDEX 01 54:48:42
  TRACK 10 AUDIO
    TITLE "Magic Holiday (Riviera Mix)"
    PERFORMER "Cherry"
    FLAGS DCP
    INDEX 01 61:25:16
  TRACK 11 AUDIO
    TITLE "Eat You Up (12' Version)"
    PERFORMER "Angie Gold"
    FLAGS DCP
    INDEX 01 68:44:24
Номер по каталогу: MXCD 2489
Продолжительность: 02:35:45
Треклист:

CD 1
01. Irene Cara – Flashdance...What A Feeling (Remix) (7:10)
02. Hall & Oates – Maneater (5:57)
03. Laid Back – White Horse (U.S. Mix) (5:44)
04. Kajagoogoo – Too Shy (Midnight Mix) (5:43)
05. Paul Hardcastle – 19 (Destruction Mix) (7:05)
06. Go West – We Close Our Eyes (6:42)
07. Rondo Veneziano – Casanova (3:08)
08. Debbie Harry – In Love With Love (London Mix) (7:15)
09. Whitney Houston - I Wanna Dance With Somebody (Who Loves Me) (8:31)
10. New Edition – Once In A Lifetime Groove (6:48)
11. Time Bandits – Dancing On A String (5:44)
12. Night Force – Hold The Night (5:20)

CD2
01. Lime – Your Love (7:16)
02. Freeez – I Dub U (7:40)
03. Camaro's Gang - Move A Little Closer (6:08)
04. Shannon – Do You Wanna Get Away (Dub Mix) (6:03)
05. John Rocca – I Want It To Be Real (7:51)
06. Jeanie Tracy – Don't Leave Me This Way (6:20)
07. Jellybean – Just A Mirage (Remix) (5:45)
08. Bad Boys Blue – Lovers In The Sand (5:50)
09. Jules – You And Me (6:07)
10. Broken Dreams – Broken Dreams (6:38)
11. Shy Rose – I Cry For You (U.S. Remix) (5:31)
12. Taffy – I Love My Radio (Chicago House Mix №2) (6:17)
Код:
Exact Audio Copy V1.0 beta 3 from 29. August 2011

EAC extraction logfile from 29. June 2013, 17:25

VA / I Love Disco 80's Vol. 8 - CD1

Used drive  : TSSTcorpCDDVDW SH-224BB   Adapter: 4  ID: 1

Read mode               : Secure
Utilize accurate stream : Yes
Defeat audio cache      : Yes
Make use of C2 pointers : No

Read offset correction                      : 6
Overread into Lead-In and Lead-Out          : No
Fill up missing offset samples with silence : Yes
Delete leading and trailing silent blocks   : No
Null samples used in CRC calculations       : Yes
Used interface                              : Native Win32 interface for Win NT & 2000

Used output format              : User Defined Encoder
Selected bitrate                : 1024 kBit/s
Quality                         : High
Add ID3 tag                     : No
Command line compressor         : D:\EAC---强版\Exact Audio Copy\FLAC\FLAC.EXE
Additional command line options : -6 -V -T "ARTIST=%artist%" -T "TITLE=%title%" -T "ALBUM=%albumtitle%" -T "DATE=%year%" -T "TRACKNUMBER=%tracknr%" -T "GENRE=%genre%" -T "COMMENT=%comment%" -T "BAND=%albuminterpret%" -T "ALBUMARTIST=%albuminterpret%" -T "COMPOSER=%composer%" %haslyrics%--tag-from-file=LYRICS="%lyricsfile%"%haslyrics% -T "DISCNUMBER=%cdnumber%" -T "TOTALDISCS=%totalcds%" -T "TOTALTRACKS=%numtracks%" %hascover%--picture="%coverfile%"%hascover% %source% -o %dest%

TOC of the extracted CD

     Track |   Start  |  Length  | Start sector | End sector
    ---------------------------------------------------------
        1  |  0:00.00 |  7:10.04 |         0    |    32253
        2  |  7:10.04 |  5:57.32 |     32254    |    59060
        3  | 13:07.36 |  5:44.33 |     59061    |    84893
        4  | 18:51.69 |  5:43.67 |     84894    |   110685
        5  | 24:35.61 |  7:05.55 |    110686    |   142615
        6  | 31:41.41 |  6:42.17 |    142616    |   172782
        7  | 38:23.58 |  3:08.13 |    172783    |   186895
        8  | 41:31.71 |  7:15.64 |    186896    |   219584
        9  | 48:47.60 |  8:31.66 |    219585    |   257975
       10  | 57:19.51 |  6:48.28 |    257976    |   288603
       11  | 64:08.04 |  5:44.46 |    288604    |   314449
       12  | 69:52.50 |  5:20.70 |    314450    |   338519

Range status and errors

Selected range

     Filename E:\VA - I Love Disco 80's Vol. 8 - CD1.wav

     Peak level 100.0 %
     Extraction speed 8.2 X
     Range quality 100.0 %
     Copy CRC 0A89C505
     Copy OK

No errors occurred

End of status report
Код:
-----------------------

DON'T MODIFY THIS FILE

-----------------------

PERFORMER: auCDtect Task Manager, ver. 1.5.1RC6 build 1.5.1.7
Copyright (c) 2008-2010 y-soft. All rights reserved
http://y-soft.org

ANALYZER: auCDtect: CD records authenticity detector, version 0.8.2
Copyright (c) 2004 Oleg Berngardt. All rights reserved.
Copyright (c) 2004 Alexander Djourik. All rights reserved.

FILE: VA - I Love Disco 80's Vol. 8 - CD1.flac
  Size: 549931007 Hash: E8DF6CBF50C01BF5D504124E648EE1AE Accuracy: -m0
  Conclusion: CDDA 100%
  Signature: 0C2DCF1BBDBA6F6FF9ADAED5F0A57ACAD2A94F0D

Код:
REM GENRE Disco
REM DATE 2013
REM DISCID AB11A10C
REM COMMENT "ExactAudioCopy v1.0b3"
PERFORMER "VA"
TITLE "I Love Disco 80's Vol. 8 - CD1"
FILE "VA - I Love Disco 80's Vol. 8 - CD1.flac" WAVE
  TRACK 01 AUDIO
    TITLE "Flashdance...What A Feeling (Remix)"
    PERFORMER "Irene Cara"
    FLAGS DCP
    INDEX 01 00:00:00
  TRACK 02 AUDIO
    TITLE "Maneater"
    PERFORMER "Hall & Oates"
    FLAGS DCP
    INDEX 01 07:10:04
  TRACK 03 AUDIO
    TITLE "White Horse (U.S. Mix)"
    PERFORMER "Laid Back"
    FLAGS DCP
    INDEX 01 13:07:36
  TRACK 04 AUDIO
    TITLE "Too Shy (Midnight Mix)"
    PERFORMER "Kajagoogoo"
    FLAGS DCP
    INDEX 01 18:51:69
  TRACK 05 AUDIO
    TITLE "19 (Destruction Mix)"
    PERFORMER "Paul Hardcastle"
    FLAGS DCP
    INDEX 01 24:35:61
  TRACK 06 AUDIO
    TITLE "We Close Our Eyes"
    PERFORMER "Go West"
    FLAGS DCP
    INDEX 01 31:41:41
  TRACK 07 AUDIO
    TITLE "Casanova"
    PERFORMER "Rondo Veneziano"
    FLAGS DCP
    INDEX 01 38:23:58
  TRACK 08 AUDIO
    TITLE "In Love With Love (London Mix)"
    PERFORMER "Debbie Harry"
    FLAGS DCP
    INDEX 01 41:31:71
  TRACK 09 AUDIO
    TITLE "I Wanna Dance With Somebody (Who Loves Me)"
    PERFORMER "Whitney Houston"
    FLAGS DCP
    INDEX 01 48:47:60
  TRACK 10 AUDIO
    TITLE "Once In A Lifetime Groove"
    PERFORMER "New Edition"
    FLAGS DCP
    INDEX 01 57:19:51
  TRACK 11 AUDIO
    TITLE "Dancing On A String"
    PERFORMER "Time Bandits"
    FLAGS DCP
    INDEX 01 64:08:04
  TRACK 12 AUDIO
    TITLE "Hold The Night"
    PERFORMER "Night Force"
    FLAGS DCP
    INDEX 01 69:52:50
Код:
Exact Audio Copy V1.0 beta 3 from 29. August 2011

EAC extraction logfile from 29. June 2013, 17:44

VA / I Love Disco 80's Vol. 8 - CD2

Used drive  : TSSTcorpCDDVDW SH-224BB   Adapter: 4  ID: 1

Read mode               : Secure
Utilize accurate stream : Yes
Defeat audio cache      : Yes
Make use of C2 pointers : No

Read offset correction                      : 6
Overread into Lead-In and Lead-Out          : No
Fill up missing offset samples with silence : Yes
Delete leading and trailing silent blocks   : No
Null samples used in CRC calculations       : Yes
Used interface                              : Native Win32 interface for Win NT & 2000

Used output format              : User Defined Encoder
Selected bitrate                : 1024 kBit/s
Quality                         : High
Add ID3 tag                     : No
Command line compressor         : D:\EAC---强版\Exact Audio Copy\FLAC\FLAC.EXE
Additional command line options : -6 -V -T "ARTIST=%artist%" -T "TITLE=%title%" -T "ALBUM=%albumtitle%" -T "DATE=%year%" -T "TRACKNUMBER=%tracknr%" -T "GENRE=%genre%" -T "COMMENT=%comment%" -T "BAND=%albuminterpret%" -T "ALBUMARTIST=%albuminterpret%" -T "COMPOSER=%composer%" %haslyrics%--tag-from-file=LYRICS="%lyricsfile%"%haslyrics% -T "DISCNUMBER=%cdnumber%" -T "TOTALDISCS=%totalcds%" -T "TOTALTRACKS=%numtracks%" %hascover%--picture="%coverfile%"%hascover% %source% -o %dest%

TOC of the extracted CD

     Track |   Start  |  Length  | Start sector | End sector
    ---------------------------------------------------------
        1  |  0:00.00 |  7:16.19 |         0    |    32718
        2  |  7:16.19 |  7:41.00 |     32719    |    67293
        3  | 14:57.19 |  6:08.26 |     67294    |    94919
        4  | 21:05.45 |  6:04.03 |     94920    |   122222
        5  | 27:09.48 |  7:51.19 |    122223    |   157566
        6  | 35:00.67 |  6:20.31 |    157567    |   186097
        7  | 41:21.23 |  5:45.50 |    186098    |   212022
        8  | 47:06.73 |  5:50.31 |    212023    |   238303
        9  | 52:57.29 |  6:07.33 |    238304    |   265861
       10  | 59:04.62 |  6:38.09 |    265862    |   295720
       11  | 65:42.71 |  5:31.43 |    295721    |   320588
       12  | 71:14.39 |  6:17.50 |    320589    |   348913

Range status and errors

Selected range

     Filename E:\VA - I Love Disco 80's Vol. 8 - CD2.wav

     Peak level 100.0 %
     Extraction speed 8.4 X
     Range quality 100.0 %
     Copy CRC 71D2E3A0
     Copy OK

No errors occurred

End of status report
Код:
-----------------------

DON'T MODIFY THIS FILE

-----------------------

PERFORMER: auCDtect Task Manager, ver. 1.5.1RC6 build 1.5.1.7
Copyright (c) 2008-2010 y-soft. All rights reserved
http://y-soft.org

ANALYZER: auCDtect: CD records authenticity detector, version 0.8.2
Copyright (c) 2004 Oleg Berngardt. All rights reserved.
Copyright (c) 2004 Alexander Djourik. All rights reserved.

FILE: VA - I Love Disco 80's Vol. 8 - CD2.flac
  Size: 583939540 Hash: 63F96D56EC2BA246788A14D74D2EAE33 Accuracy: -m0
  Conclusion: CDDA 100%
  Signature: A01376C4AA552D7CD946BD1D88D8446F6A171833

Код:
REM GENRE Disco
REM DATE 2013
REM DISCID BD122C0C
REM COMMENT "ExactAudioCopy v1.0b3"
PERFORMER "VA"
TITLE "I Love Disco 80's Vol. 8 - CD2"
FILE "VA - I Love Disco 80's Vol. 8 - CD2.flac" WAVE
  TRACK 01 AUDIO
    TITLE "Your Love"
    PERFORMER "Lime"
    FLAGS DCP
    INDEX 01 00:00:00
  TRACK 02 AUDIO
    TITLE "I Dub U"
    PERFORMER "Freeez"
    FLAGS DCP
    INDEX 01 07:16:19
  TRACK 03 AUDIO
    TITLE "Move A Little Closer"
    PERFORMER "Camaro's Gang"
    FLAGS DCP
    INDEX 01 14:57:19
  TRACK 04 AUDIO
    TITLE "Do You Wanna Get Away (Dub Mix)"
    PERFORMER "Shannon"
    FLAGS DCP
    INDEX 01 21:05:45
  TRACK 05 AUDIO
    TITLE "I Want It To Be Real"
    PERFORMER "John Rocca"
    FLAGS DCP
    INDEX 01 27:09:48
  TRACK 06 AUDIO
    TITLE "Don't Leave Me This Way"
    PERFORMER "Jeanie Tracy"
    FLAGS DCP
    INDEX 01 35:00:67
  TRACK 07 AUDIO
    TITLE "Just A Mirage (Remix)"
    PERFORMER "Jellybean"
    FLAGS DCP
    INDEX 01 41:21:23
  TRACK 08 AUDIO
    TITLE "Lovers In The Sand"
    PERFORMER "Bad Boys Blue"
    FLAGS DCP
    INDEX 01 47:06:73
  TRACK 09 AUDIO
    TITLE "You And Me"
    PERFORMER "Jules"
    FLAGS DCP
    INDEX 01 52:57:29
  TRACK 10 AUDIO
    TITLE "Broken Dreams"
    PERFORMER "Broken Dreams"
    FLAGS DCP
    INDEX 01 59:04:62
  TRACK 11 AUDIO
    TITLE "I Cry For You (U.S. Remix)"
    PERFORMER "Shy Rose"
    FLAGS DCP
    INDEX 01 65:42:71
  TRACK 12 AUDIO
    TITLE "I Love My Radio (Chicago House Mix Ўн2)"
    PERFORMER "Taffy"
    FLAGS DCP
    INDEX 01 71:14:39
Время раздачи: с 17:00 до 1:00, до 10-ти скачавших



Поглощение/вытеснение
Только с согласия релизера

J_Man
[NNM-Club.ru]_I Love Disco 80's.torrent
 Торрент: Платиновая раздача  Зарегистрирован
 
Скачать


 Зарегистрирован:   11 Июл 2013 18:44:49
 Размер:   8,19 GB  (
 Рейтинг:   4,9 (Голосов: 125)
 Поблагодарили:   436
 Проверка:   Оформление проверено модератором 11 Июл 2013 18:49:50
Как cкачать  ·  Как раздать  ·  Правильно оформить  ·  Поднять ратио!  
Загрузка...
Sergey.va​dretsky​
Стаж: 8 лет 6 мес.
Сообщений: 244
Ratio: 130,162
100%
Откуда: Москва
russia.gif
Delavar24 ®
Огромное Вам спасибо!!!
Бесценный релиз!!!
:респект: :клево: :выпивают: :приветствую:
bulka69
Стаж: 9 лет 5 мес.
Сообщений: 17
Ratio: 21,106
100%
В первом диске в первом треке прыгает громкость, за сборники огромное спасибо, молодость .....
Delavar24 ®
Стаж: 10 лет 3 мес.
Сообщений: 1463
Ratio: 340,501
Раздал: 21,36 TB
Поблагодарили: 61677
100%
Откуда: 67RUS
ussr.gif
Релиз обновлен!!!
Добавлены сборники №7, 8
Просьба перекачать торрент-файл!!!

P.S. Остальные файлы остались без изменений!!!
Weddnessday
Покровитель талантов
 
Стаж: 7 лет 10 мес.
Сообщений: 940
Ratio: 27,069
Раздал: 22,25 TB
Поблагодарили: 4042
100%
Откуда: Сургут
russia.gif
Delavar24
Ну и ладушки... Сборник преотличненький! Забираю слушать в машину... :да:
Раздачу, естественно, поддерживаю.
МитстерВ
Стаж: 8 лет
Сообщений: 39
Ratio: 13,674
Раздал: 4,843 TB
Поблагодарили: 139
100%
Откуда: Из Сибири
russia.gif
Благодарю!
lapis21
Стаж: 8 лет 9 мес.
Сообщений: 6
Ratio: 10,772
100%
Откуда: Одинцово
russia.gif
Вау! Отлично. Огромная благодарность.
AIBastrakov
Стаж: 4 года 9 мес.
Сообщений: 3
Ratio: 36,347
21.71%
Откуда: #RF-Russia Forever
ussr.gif
На все времена. Спасибо.
dmitri24660
Стаж: 5 лет 6 мес.
Сообщений: 128
Ratio: 4,513
100%
russia.gif
СПАСИБО :респект: :клево: :стеб:
mariiel12
Стаж: 4 года 3 мес.
Сообщений: 7
Ratio: 4,713
100%
Откуда: Йошкар Ола
russia.gif
От души спасибо ! :приветствую:
vustintsev
Стаж: 10 лет 6 мес.
Сообщений: 52
Ratio: 2,014
100%
На раздаче никого!!!Жаль до слез!!!Помогите кто нибудь люди добрые!!!
Показать сообщения:   
Начать новую тему   Ответить на тему    Торрент-трекер NNM-Club -> Pop -> Disco, Italo-Disco, Euro-Disco, Hi-NRG (Lossless) Часовой пояс: GMT + 3
Страница 1 из 1