Классический форум-трекер
canvas not supported
Нас вместе: 4 076 653

VA - Millenium Sunshine 2 (2013) DVD5


 
 
RSS
Начать новую тему   Ответить на тему    Торрент-трекер NNM-Club -> Архив торрентов -> Архив Музыкального Видео
Автор Сообщение
exis19 ®
Стаж: 9 лет 2 мес.
Сообщений: 154
Ratio: 10,773
Поблагодарили: 7982
100%
VA - Millenium Sunshine 2 (2013) DVD5
Оригинальное название: Millenium Sunshine Sunshine
Год выпуска: 2013
Жанр: Рор

Треклист:

01 Shaft - Sway
02 Pachanga - Loco
03 Passion Fruit - The Rigga Ding Dong Song
04 Captain Jack - Iko Iko
05 Loft - Summer Summer
06 Samim – Heater
07 Prima Donna Ft Linda Scott - Why Haven't I Told You
08 David Tavare Ft 2 Eivissa - Hot Summer Night
09 Amr Diab - Nour El Ein (Habiby)
10 Aswad - Shine
11 Bob - Wooly Bully
12 Helena Paparizou - Mambo
13 Soul II Soul Ft Caron Wheeler- Back To Life
14 La Bouche - Bolingo
15 Darling - Let Kiss
16 Shaft - Mambo Italiano
17 Carrapicho - Tic Tic Tac
18 Bellini - Brazil
19 Estrella - La Fiesta Loca
20 Antique - Opa Opa
21 Lumidee Ft Shaggy - Feel Like Makin' Love
Title: Millenium Sunshine 2
Size: 4.33 Gb ( 4 538 816,00 KBytes ) - DVD-5
Enabled regions: 1, 2, 3, 4, 5, 6, 7, 8

VTS_01 :
Play Length: 01:13:45
Video: PAL 4:3 (720x576) VBR
Audio:
English (LinearPCM, 2 ch)

VTS_02 :
Play Length: 00:00:05
Video: PAL 4:3 (720x576) VBR
Audio:
English (LinearPCM, 2 ch)

* Menus Information *

VIDEO_TS Menu
Video:
PAL 4:3 (720x576) VBR
English Language Unit :
Title Menu

VTS_01 Menu
Video:
PAL 4:3 (720x576) VBR
Audio:
Not specified (LinearPCM, 2 ch)
English Language Unit :
Root Menu

VTS_02 Menu
Video:
PAL 4:3 (720x576) VBR
English Language Unit :
Root Menu
General
Complete name : C:\Millenium Sunshine 2\VIDEO_TS\VTS_01_1.VOB
Format : MPEG-PS
File size : 1 024 MiB
Duration : 17mn 45s
Overall bit rate mode : Variable
Overall bit rate : 8 062 Kbps

Video
ID : 224 (0xE0)
Format : MPEG Video
Format version : Version 2
Format profile : Main@Main
Format settings, BVOP : Yes
Format settings, Matrix : Custom
Format settings, GOP : M=3, N=12
Duration : 17mn 45s
Bit rate mode : Variable
Bit rate : 6 365 Kbps
Maximum bit rate : 7 800 Kbps
Width : 720 pixels
Height : 576 pixels
Display aspect ratio : 4:3
Frame rate : 25.000 fps
Standard : PAL
Color space : YUV
Chroma subsampling : 4:2:0
Bit depth : 8 bits
Scan type : Interlaced
Scan order : Top Field First
Compression mode : Lossy
Bits/(Pixel*Frame) : 0.614
Time code of first frame : 00:00:04:07
Time code source : Group of pictures header
Stream size : 808 MiB (79%)

Audio
ID : 189 (0xBD)-160 (0xA0)
Format : PCM
Format settings, Endianness : Big
Format settings, Sign : Signed
Muxing mode : DVD-Video
Duration : 17mn 45s
Bit rate mode : Constant
Bit rate : 1 536 Kbps
Channel(s) : 2 channels
Sampling rate : 48.0 KHz
Bit depth : 16 bits
Delay relative to video : -80ms
Stream size : 195 MiB (19%)

Menu
Продолжительность: 01:13:45

Видеокодек: MPEG-2
Битрейт видео: ~6 365 kbps
Размер кадра: 720x576 (PAL 4:3), 25.00fps
Качество видео: DVD5
Аудиокодек: LPCM
Битрейт аудио: 2ch stereo, 1536kbps Скриншоты:



[NNM-Club.ru]_millenium_sunshine_2.torrent
 Торрент:   Зарегистрирован
 
Зарегистрируйтесь и скачайте торрент!
12 KB

Примагнититься
 Зарегистрирован:   05 Июн 2013 13:14:05
 Размер:   4,33 GB  (
 Рейтинг:   4,6 (Голосов: 25)
 Поблагодарили:   68
 Проверка:   Оформление проверено модератором 05 Июн 2013 16:53:18
Как cкачать  ·  Как раздать  ·  Правильно оформить  ·  Поднять ратио!  
exis19 ®
Стаж: 9 лет 2 мес.
Сообщений: 154
Ratio: 10,773
Поблагодарили: 7982
100%
Превью - Millenium Sunshine 2 https://www.youtube.com/watch?v=ekb5h1v6vLI&feature=youtu.be
Топик был перенесен из форума Музыкальные клипы в форум Архив Музыкального Видео

Причина переноса: Отсутствие сидов более трех месяцев.

Исправил релиз - напиши ЛС ALLic, дав ссылку на релиз.
Если нет ответа 24 часа - нажми на кнопку "Обратить внимание модераторов".
vivarasistanc
Стаж: 7 лет 2 мес.
Сообщений: 3
Ratio: 14,949
0%
PLEASE SEEDS!
Показать сообщения:   
Начать новую тему   Ответить на тему    Торрент-трекер NNM-Club -> Архив торрентов -> Архив Музыкального Видео Часовой пояс: GMT + 3
Страница 1 из 1