Классический форум-трекер
canvas not supported
Нас вместе: 4 064 941

Гарри Поттер и Партия Ленина / Гарри Поттер и Орден Феникса / Harry Potter and the Order of the Phoenix (2009) DVDRip


 
 
RSS
Начать новую тему   Ответить на тему    Торрент-трекер NNM-Club -> Остальное
Автор Сообщение
Argonchik ®
Сталкер
 
Стаж: 11 лет 1 мес.
Сообщений: 1514
Ratio: 22,274
Раздал: 20,38 TB
Поблагодарили: 11607
100%
Откуда: Москва
russia.gif
Гарри Поттер и Партия Ленина / Гарри Поттер и Орден Феникса / Harry Potter and the Order of the Phoenix (2009) DVDRip
Год выпуска: 2009
Жанр: Комедия, Фэнтези

Описание:
Гарри задолбало сидеть дома с назойливыми Дурслями. Он хочет поскорее отправиться на пятый учебный год в свою школу Хогвартс. К тому же, Гарри асболютно уверен, что, возродившись, лорд ДартМорт начнет действовать. Незамедлительно после событий на турнире Смерти В.И.Ленин созывает всех своих борцов против повелителя Ситхов в организацию, носящую грозное имя "Партия Ленина". И Гарри, явственно, не мог обойти ее стороной...

ПЕРЕВОД СТУДИИ "ГРЕМЛИН", А НЕ ДМИТРИЙ ГОБЛИН ПУЧКОВ

Режиссер: Дэвид Йейтс
Актеры: Даниэл Редклифф, Эмма Уотсон, Руперт Гринт, Алан Рикман, Робби Колтрейн, Майкл Гэмбон, Брендан Глисон, Мэгги Смит, Фиона Шоу, Дэвид Тьюлис и др.

Продолжительность: 02:09:04
Перевод: Двухголосый закадровый
Язык: Русский
Автор перевода: СТУДИЯ "ГРЕМЛИН"

Видеокодек: DivX 3
Битрейт видео: ~23.976 fps 1490 kbps avg
Размер кадра: 720x416
Качество видео: DVDRip
Битрейт аудио: MP3 48000Hz stereo 128Kbps
Код: выделить все
Общее
Полное имя                               : /Harry.Potter.And.The.Party.Of.Lenin.avi
Формат                                   : AVI
Формат/Информация                        : Audio Video Interleave
Размер файла                             : 1,46 Гбайт
Продолжительность                        : 2 ч. 9 м.
Общий поток                              : 1625 Кбит/сек
Программа кодирования                    : VirtualDubMod 1.5.4.1 (build 2178/release)
Библиотека кодирования                   : VirtualDubMod build 2178/release

Видео
Идентификатор                            : 0
Формат                                   : MPEG-4 Visual
Профиль формата                          : Advanced Simple@L5
Настройки формата                        : Custom Matrix
Параметр BVOP формата                    : Нет
Параметр QPel формата                    : Нет
Параметр GMC формата                     : Без точки перехода
Параметр матрицы формата                 : Выборочная
Идентификатор кодека                     : XVID
Идентификатор кодека/Подсказка           : XviD
Продолжительность                        : 2 ч. 9 м.
Битрейт                                  : 1490 Кбит/сек
Ширина                                   : 720 пикселей
Высота                                   : 416 пикселей
Соотношение сторон                       : 1,731
Частота кадров                           : 23,976 (24000/1001) кадра/сек
Цветовое пространство                    : YUV
Субдискретизация насыщенности            : 4:2:0
Битовая глубина                          : 8 бит
Тип развёртки                            : Прогрессивная
Метод сжатия                             : С потерями
Бит/(Пиксели*Кадры)                      : 0.207
Размер потока                            : 1,34 Гбайт (92%)
Библиотека кодирования                   : XviD 1.2.1 (UTC 2008-12-04)

Аудио
Идентификатор                            : 1
Формат                                   : MPEG Audio
Версия формата                           : Version 1
Профиль формата                          : Layer 3
Настройки формата                        : Joint stereo / MS Stereo
Идентификатор кодека                     : 55
Идентификатор кодека/Подсказка           : MP3
Продолжительность                        : 2 ч. 9 м.
Вид битрейта                             : Постоянный
Битрейт                                  : 128 Кбит/сек
Каналы                                   : 2 канала
Частота                                  : 48,0 КГц
Частота кадров                           : 41,667 кадра/сек (1152 SPF)
Метод сжатия                             : С потерями
Размер потока                            : 118 Мбайт (8%)
Выравнивание                             : Соединение по промежуткам
Продолжительность промежутка             : 83  мс. (2,00 видеокадра)
Время предзагрузки промежутка            : 504  мс.
Библиотека кодирования                   : LAME3.98r
Настройки программы                      : -m j -V 4 -q 2 -lowpass 17 -b 128

Время раздачи: 24/7 - круглосуточно
[NNM-Club.ru]_Harry.Potter.And.The.Party.Of.Lenin.avi.torrent
 Торрент: Платиновая раздача  Зарегистрирован
 
Скачать


Примагнититься
 Зарегистрирован:   07 Дек 2018 10:16:12
 Размер:   1,46 GB  (
 Рейтинг:   3,9 (Голосов: 56)
 Поблагодарили:   155
 Проверка:   Оформление проверено модератором 07 Дек 2018 10:22:03
Как cкачать  ·  Как раздать  ·  Правильно оформить  ·  Поднять ратио!  
ers_nnm
Стаж: 10 лет 8 мес.
Сообщений: 42
Ratio: 10,874
Поблагодарили: 304
100%
Откуда: 101 км от "нер​езиновой&​quot;​
russia.gif
А почему не партия Пу....? :)
Magavnik666
Стаж: 9 лет 4 мес.
Сообщений: 5
Ratio: 0,763
Поблагодарили: 7
100%
Откуда: Israel
israel.gif
А по тому что на Пу - По
anton123anton
Стаж: 10 лет 7 мес.
Сообщений: 64
Ratio: 1,437
100%
angola.gif
to Magavnik666

а всякие там Ицхаки Рабины, Нетаньяхи, Швондеры и Шмулики - Авно, Жо и вапще НА...
ChakNunchak
Стаж: 10 лет 11 мес.
Сообщений: 166
Ratio: 4,359
Поблагодарили: 474
100%
russia.gif
Кто нибудь в курсе, почему старые раздачи в новинках стоят?
Ahtircev
Стаж: 9 лет 2 мес.
Сообщений: 154
Ratio: 14,066
Поблагодарили: 1
100%
ussr.gif
ChakNunchak писал(а): Перейти к сообщению
Кто нибудь в курсе, почему старые раздачи в новинках стоят?
Такое ощущение , что кто то крутанул барабан как в ЛОТО и выкладывает что попало :D

_________________
БОГ ОДИН - провайдеры разные ....
uam_pib
Стаж: 6 лет 8 мес.
Сообщений: 94
Ratio: 1691,456
100%
ussr.gif
ChakNunchak писал(а): Перейти к сообщению
Кто нибудь в курсе, почему старые раздачи в новинках стоят?

Наверное, из-за DHT
Включаем DHT в древних раздачах (Обновлено)
Moorre
Uploaders 200+
 
Стаж: 9 лет 1 мес.
Сообщений: 309
Ratio: 28K
Раздал: 239,7 TB
Поблагодарили: 1414
100%
Откуда: Москва
russia.gif

_________________
Download = 30 Mbit, Upload = 30 Mbit
Использую uT MAC 1.8.7 43796
Ugo927
Стаж: 7 лет 6 мес.
Сообщений: 251
Ratio: 0,802
100%
Цитата:
Двое в комнате.
Я и Гарри Поттер - фотографией на белой стене.
Товарищ Поттер, я вам докладываю,
по фабрикам дымным, по землям, покрытым жнивьём,
вашим, товарищ, Поттер именем думаем, дышим, и живем!

Владимир Маяковский «Разговор с товарищем Поттером»

Гарри Поттер жив! Я счастлива
ChakNunchak
Стаж: 10 лет 11 мес.
Сообщений: 166
Ratio: 4,359
Поблагодарили: 474
100%
russia.gif
uam_pib писал(а): Перейти к сообщению
ChakNunchak писал(а): Перейти к сообщению
Кто нибудь в курсе, почему старые раздачи в новинках стоят?

Наверное, из-за DHT
Включаем DHT в древних раздачах (Обновлено)


Благодарю за содержательный ответ! :клево:
Показать сообщения:   
Начать новую тему   Ответить на тему    Торрент-трекер NNM-Club -> Остальное Часовой пояс: GMT + 3
Страница 1 из 1