Классический форум-трекер
canvas not supported
Нас вместе: 4 076 694

Тарзан / Tarzan (1999) BDRip [H.264/1080p]


 
 
RSS
Начать новую тему   Ответить на тему    Торрент-трекер NNM-Club -> Мультфильмы -> Зарубежные Мультфильмы для детей
Автор Сообщение
romul7731 ®
Стаж: 9 лет 2 мес.
Сообщений: 203
Ratio: 26,959
Раздал: 25,12 TB
Поблагодарили: 21258
100%
Откуда: Донбасс
ussr.gif
Тарзан / Tarzan (1999) BDRip [H.264/1080p]
Русское название: Тарзан
Оригинальное название: Tarzan
Год выпуска: 1999
Жанр: Приключения, сказка, семейный
Перевод: Дублированный


Дата мировой премьеры: 17 июня 1999
Дата российской премьеры: 12 мая 2001, «Каскад»
Дата выхода DVD/Blu-Ray релиза: 27 марта 2012, «Уолт Дисней Компани СНГ»

Режиссер: Крис Бак / Chris Buck, Кевин Лима / Kevin Lima
Персонажи: Брайан Блессид, Гленн Клоуз, Минни Драйвер, Тони Голдуин, Найджел Хоторн, Лэнс Хенриксен, Уэйн Найт, Алекс Д. Линц, Рози О’Доннелл, Бет Андерсон

Описание фильма:
Тарзан вырос среди горилл, в таинственных джунглях, где не ступала нога человека. Враждебное царство диких животных долго не хотело признавать хрупкого мальчика.
Вскоре на глазах у всех слабый малыш превратился в храброго юношу и стал быстрее пантеры, сильнее тигра, зорче орла. Но когда Тарзан становится настоящим королем джунглей, происходит неожиданная встреча, которая полностью меняет его жизнь…

Продолжительность: 01:28:25
Качество видео: BDRip

Видеокодек: MPEG-4 AVC/H.264
Битрейт видео: ~7500 Кбит/сек
Размер кадра: 1920х1080
Аудио: Русский (AC3, 6 ch, 640 Кбит/сек, 48,0 КГц) - Дубляж
Аудио: Русский (AC3, 6 ch, 384 Кбит/сек, 48,0 КГц) - А. Гаврилов
Аудио: Русский (AC3, 6 ch, 448 Кбит/сек, 48,0 КГц) - Ю. Живов
Аудио: Английский (AC3, 6 ch, 640 Кбит/сек, 48,0 КГц)
Субтитры: Русские, английские
D:\Мульти\Tarzan.1999.BluRay.1080p.Rus.Eng.x264-CHD.mkv
General
Unique ID : 243098484121679917747504167430913453945 (0xB6E310A3DF93AA909C0C899005D6EF79)
Complete name : D:\Мульти\Tarzan.1999.BluRay.1080p.Rus.Eng.x264-CHD.mkv
Format : Matroska
File size : 5.97 GiB
Duration : 1h 31mn
Overall bit rate : 9 298 Kbps
Movie name : ~Sahaa~
Encoded date : UTC 2012-03-23 14:29:43
Writing application : mkvmerge v4.0.0 ('The Stars were mine') сборка от Jun 6 2010 16:18:42
Writing library : libebml v1.0.0 + libmatroska v1.0.0
Video #1
ID : 1
Format : AVC
Format/Info : Advanced Video Codec
Format profile : High@L4.1
Format settings, CABAC : Yes
Format settings, ReFrames : 4 frames
Codec ID : V_MPEG4/ISO/AVC
Duration : 1h 31mn
Bit rate : 7 001 Kbps
Nominal bit rate : 7 500 Kbps
Width : 1 920 pixels
Height : 1 080 pixels
Display aspect ratio : 16:9
Frame rate : 23.976 fps
Color space : YUV
Chroma subsampling : 4:2:0
Bit depth : 8 bits
Scan type : Progressive
Bits/(Pixel*Frame) : 0.141
Stream size : 4.49 GiB (75%)
Title : Tarzan.1999
Writing library : x264 core 120 r2146 bcd41db
Encoding settings : cabac=1 / ref=4 / deblock=1:-2:-2 / analyse=0x3:0x113 / me=umh / subme=10 / psy=1 / psy_rd=1.00:0.00 / mixed_ref=1 / me_range=32 / chroma_me=1 / trellis=2 / 8x8dct=1 / cqm=0 / deadzone=21,11 / fast_pskip=0 / chroma_qp_offset=-1 / threads=8 / sliced_threads=0 / nr=0 / decimate=1 / interlaced=0 / bluray_compat=0 / constrained_intra=0 / bframes=5 / b_pyramid=2 / b_adapt=2 / b_bias=0 / direct=3 / weightb=1 / open_gop=0 / weightp=2 / keyint=250 / keyint_min=23 / scenecut=40 / intra_refresh=0 / rc=2pass / mbtree=0 / bitrate=7500 / ratetol=1.0 / qcomp=0.70 / qpmin=0 / qpmax=69 / qpstep=4 / cplxblur=20.0 / qblur=0.5 / ip_ratio=1.40 / pb_ratio=1.30 / aq=2:1.00
Language : English
Audio #2
ID : 2
Format : AC-3
Format/Info : Audio Coding 3
Mode extension : CM (complete main)
Codec ID : A_AC3
Duration : 1h 31mn
Bit rate mode : Constant
Bit rate : 640 Kbps
Channel(s) : 6 channels
Channel positions : Front: L C R, Side: L R, LFE
Sampling rate : 48.0 KHz
Bit depth : 16 bits
Compression mode : Lossy
Stream size : 420 MiB (7%)
Title : Дубляж
Language : Russian
Audio #3
ID : 3
Format : AC-3
Format/Info : Audio Coding 3
Mode extension : CM (complete main)
Codec ID : A_AC3
Duration : 1h 31mn
Bit rate mode : Constant
Bit rate : 384 Kbps
Channel(s) : 6 channels
Channel positions : Front: L C R, Side: L R, LFE
Sampling rate : 48.0 KHz
Bit depth : 16 bits
Compression mode : Lossy
Stream size : 252 MiB (4%)
Title : А. Гаврилов
Language : Russian
Audio #4
ID : 4
Format : AC-3
Format/Info : Audio Coding 3
Mode extension : CM (complete main)
Codec ID : A_AC3
Duration : 1h 31mn
Bit rate mode : Constant
Bit rate : 448 Kbps
Channel(s) : 6 channels
Channel positions : Front: L C R, Side: L R, LFE
Sampling rate : 48.0 KHz
Bit depth : 16 bits
Compression mode : Lossy
Stream size : 294 MiB (5%)
Title : Ю. Живов
Language : Russian
Audio #5
ID : 5
Format : AC-3
Format/Info : Audio Coding 3
Mode extension : CM (complete main)
Codec ID : A_AC3
Duration : 1h 31mn
Bit rate mode : Constant
Bit rate : 640 Kbps
Channel(s) : 6 channels
Channel positions : Front: L C R, Side: L R, LFE
Sampling rate : 48.0 KHz
Bit depth : 16 bits
Compression mode : Lossy
Stream size : 420 MiB (7%)
Title : Английский
Language : English
Text #6
ID : 6
Format : UTF-8
Codec ID : S_TEXT/UTF8
Codec ID/Info : UTF-8 Plain Text
Title : Русские
Language : Russian
Text #7
ID : 7
Format : UTF-8
Codec ID : S_TEXT/UTF8
Codec ID/Info : UTF-8 Plain Text
Title : Английские
Language : English
Скриншоты:


Тарзан на NNM-club

Время раздачи: 24/7 (до 10 скачавших)
[NNM-Club.ru]_Tarzan.1999.BluRay.1080p.Rus.Eng.x264-CHD.mkv.torrent
 Торрент: Платиновая раздача  Зарегистрирован
 
Скачать


Примагнититься
 Зарегистрирован:   11 Июн 2012 20:04:37
 Размер:   5,97 GB  (
 Рейтинг:   4,9 (Голосов: 34)
 Поблагодарили:   163
 Проверка:   Оформление проверено модератором 12 Июн 2012 19:57:18
Как cкачать  ·  Как раздать  ·  Правильно оформить  ·  Поднять ратио!  
Bich
Стаж: 9 лет 2 мес.
Сообщений: 837
Ratio: 4,283
Поблагодарили: 1189
32.09%
скачал глянул, качество обалденное! респект!
ilgarius
Стаж: 7 лет 6 мес.
Сообщений: 16
Ratio: 162,395
100%
спасибо
leshik76
Стаж: 7 лет 5 мес.
Сообщений: 117
Ratio: 81,287
100%
Откуда: Сан-пит
russia.gif
качество картинки и звука на высоте.посмотрели с удовольствием.единственное переводы раньше смешнее были что у тарзана что у шрека :респект:
OlgaSha
Стаж: 6 лет 8 мес.
Сообщений: 8
Ratio: 0
100%
Очень хорошее качество. Красочные картинки. Спасибо Вам огромное!!!
fomster2008
Стаж: 8 лет 2 мес.
Сообщений: 3
Ratio: 70,834
100%
russia.gif
Спасибо огромное!!Мультфильм супер!!!А геркулес есть?
Barbarian Lord
Стаж: 1 год 5 мес.
Сообщений: 10
Ratio: 17,249
70.45%
ukraine.gif
Скорости нет.
Показать сообщения:   
Начать новую тему   Ответить на тему    Торрент-трекер NNM-Club -> Мультфильмы -> Зарубежные Мультфильмы для детей Часовой пояс: GMT + 3
Страница 1 из 1