Классический форум-трекер
canvas not supported
Нас вместе: 4 104 616

В джазе только девушки / Some Like It Hot (1959) BDRip [576p] iPad


 
 
RSS
Начать новую тему   Ответить на тему    Торрент-трекер NNM-Club -> Аудио и Видео -> Зарубежное видео для устройств Apple
Автор Сообщение
shax87 ®
Стаж: 8 лет 11 мес.
Сообщений: 215
Ratio: 445,815
Раздал: 25,15 TB
Поблагодарили: 17424
100%
Откуда: Санкт-Петербург
russia.gif
В джазе только девушки / Some Like It Hot (1959) BDRip [576p] iPad
Русское название: В джазе только девушки
Оригинальное название: Some Like It Hot
Год: 1959
Страна: США
Жанр: мелодрама, комедия, криминал, приключения, музыка

Продолжительность: 02:01:32
Перевод: Профессиональный дублированный
Оригинальная аудиодорожка: английская
Субтитры: нет
Навигация по главам: есть

Режиссёр: Билли Уайлдер
Сценарий: Билли Уайлдер, И.А.Л. Даймонд, Роберт Тёрен
В ролях: Мэрилин Монро, Тони Кертис, Джек Леммон, Джордж Рафт, Пэт О’Брайен, Джо Э. Браун, Нехемия Персофф, Джоан Шоули, Билли Грэй, Джордж Э. Стоун

Описание: Когда чикагские музыканты Джо и Джерри случайно становятся свидетелями бандитской перестрелки, они в срочном порядке смываются на поезде во Флориду, прикинувшись женщинами. Теперь они — Джозефина и Дафна, новенькие и хорошенькие инструменталистки женского джаз — банда.
До поры до времени их маскировка срабатывает. Но вскоре любвеобильная солистка «западает» на переодетую мужчиной Джозефину, престарелый плейбой влюбляется в Дафну, а босс мафии, разгадав тайну маскарада, решает срочно разделаться со свидетелями…



Качество видео: BDRip
Исходник: Blu-ray disc
Формат: MP4 (контейнер m4v)
Видео: AVC, 1024x576 (16:9) at 23.976 fps, AVC at 3760 kbps avg, 0.266 bit/pixel
Аудио: 48 kHz, AAC, 2ch, 128 Kbps | Русский | Дублированный (Советский дубляж с вставками ОРТ на вырезанные советской цензурой фрагменты)
Аудио: 48 kHz, AAC, 2ch, 128 Kbps | Русский | Многоголосый, закадровый
Аудио: 48 kHz, AAC, 2ch, 128 Kbps | Русский | Многоголосый, закадровый
Аудио: 48 kHz, AAC, 2ch, 128 Kbps | Русский | Многоголосый, закадровый (Blu-ray CEE)
Аудио: 48 kHz, AAC, 2ch, 128 Kbps | Русский | Двухголосый, закадровый
Аудио: 48 kHz, AAC, 2ch, 128 Kbps | Русский | Двухголосый, закадровый (НТВ)
Аудио: 48 kHz, AAC, 2ch, 128 Kbps | Русский | Двухголосый, закадровый (НТВ+)
Аудио: 48 kHz, AAC, 2ch, 128 Kbps | Русский | Одноголосый, закадровый (В. Огородников)
Аудио: 48 kHz, AAC, 2ch, 128 Kbps | Русский | Одноголосый, закадровый (Ю. Живов)
Аудио: 48 kHz, AAC, 2ch, 128 Kbps | Украинский | Двухголосый, закадровый (1+1)
Аудио: 48 kHz, AAC, 2ch, 128 Kbps | Английский | Оригинальный
Общее
Полное имя : F:\Downloads\Some Like It Hot.1959.BDRip.iPad.m4v
Формат : MPEG-4
Профиль формата : Base Media / Version 2
Идентификатор кодека : mp42
Размер файла : 4,43 Гбайт
Продолжительность : 2 ч. 1 м.
Режим общего битрейта : Переменный
Общий поток : 5216 Кбит/сек
Название фильма : В джазе только девушки
Исполнитель : Billy Wilder
Жанр : Comedy
Дата записи : UTC 1959-03-29 07:00:00
Дата кодирования : UTC 2013-09-10 11:14:03
Дата пометки : UTC 2013-09-10 19:25:31
Программа кодирования : HandBrake 0.9.8 2012071700

Видео
Идентификатор : 1
Формат : AVC
Формат/Информация : Advanced Video Codec
Профиль формата : High@L4.0
Параметр CABAC формата : Да
Параметр ReFrames формата : 8 кадров
Идентификатор кодека : avc1
Идентификатор кодека/Информация : Advanced Video Coding
Продолжительность : 2 ч. 1 м.
Вид битрейта : Переменный
Битрейт : 3760 Кбит/сек
Ширина : 1024 пикселя
Высота : 576 пикселей
Соотношение сторон : 16:9
Режим частоты кадров : Переменный
Частота кадров : 23,976 кадра/сек
Минимальная частота кадров : 23,974 кадра/сек
Максимальная частота кадров : 23,981 кадра/сек
Цветовое пространство : YUV
Субдискретизация насыщенности : 4:2:0
Битовая глубина : 8 бит
Тип развёртки : Прогрессивная
Бит/(Пиксели*Кадры) : 0.266
Размер потока : 3,19 Гбайт (72%)
Библиотека кодирования : x264 core 120
Настройки программы : cabac=1 / ref=9 / deblock=1:-1:-1 / analyse=0x3:0x133 / me=umh / subme=9 / psy=1 / psy_rd=1.00:0.15 / mixed_ref=1 / me_range=32 / chroma_me=1 / trellis=2 / 8x8dct=1 / cqm=0 / deadzone=21,11 / fast_pskip=1 / chroma_qp_offset=-3 / threads=6 / sliced_threads=0 / nr=0 / decimate=1 / interlaced=0 / bluray_compat=0 / constrained_intra=0 / bframes=9 / b_pyramid=1 / b_adapt=2 / b_bias=0 / direct=1 / weightb=1 / open_gop=0 / weightp=2 / keyint=240 / keyint_min=24 / scenecut=40 / intra_refresh=0 / rc_lookahead=40 / rc=crf / mbtree=1 / crf=18.0 / qcomp=0.60 / qpmin=3 / qpmax=69 / qpstep=4 / ip_ratio=1.40 / aq=1:0.90
Дата кодирования : UTC 2013-09-10 11:14:03
Дата пометки : UTC 2013-09-10 16:57:48
Основные цвета : BT.709
Характеристики трансфера : BT.709
Коэффициенты матрицы : BT.709

Аудио #1
Идентификатор : 2
Формат : AAC
Формат/Информация : Advanced Audio Codec
Профиль формата : LC
Идентификатор кодека : 40
Продолжительность : 2 ч. 1 м.
Вид битрейта : Переменный
Битрейт : 128 Кбит/сек
Максимальный битрейт : 253 Кбит/сек
Каналы : 2 канала
Расположение каналов : Front: L R
Частота : 48,0 КГц
Метод сжатия : С потерями
Задержка видео : 83 мс.
Размер потока : 111 Мбайт (2%)
Язык : Russian
Дата кодирования : UTC 2013-09-10 11:14:03
Дата пометки : UTC 2013-09-10 16:57:47

Аудио #2
Идентификатор : 3
Формат : AAC
Формат/Информация : Advanced Audio Codec
Профиль формата : LC
Идентификатор кодека : 40
Продолжительность : 2 ч. 1 м.
Вид битрейта : Переменный
Битрейт : 128 Кбит/сек
Максимальный битрейт : 248 Кбит/сек
Каналы : 2 канала
Расположение каналов : Front: L R
Частота : 48,0 КГц
Метод сжатия : С потерями
Задержка видео : 83 мс.
Размер потока : 111 Мбайт (2%)
Язык : Russian
Дата кодирования : UTC 2013-09-10 11:14:03
Дата пометки : UTC 2013-09-10 16:57:47

Аудио #3
Идентификатор : 4
Формат : AAC
Формат/Информация : Advanced Audio Codec
Профиль формата : LC
Идентификатор кодека : 40
Продолжительность : 2 ч. 1 м.
Вид битрейта : Переменный
Битрейт : 128 Кбит/сек
Максимальный битрейт : 258 Кбит/сек
Каналы : 2 канала
Расположение каналов : Front: L R
Частота : 48,0 КГц
Метод сжатия : С потерями
Задержка видео : 83 мс.
Размер потока : 111 Мбайт (2%)
Язык : Russian
Дата кодирования : UTC 2013-09-10 11:14:03
Дата пометки : UTC 2013-09-10 16:57:47

Аудио #4
Идентификатор : 5
Формат : AAC
Формат/Информация : Advanced Audio Codec
Профиль формата : LC
Идентификатор кодека : 40
Продолжительность : 2 ч. 1 м.
Вид битрейта : Переменный
Битрейт : 128 Кбит/сек
Максимальный битрейт : 256 Кбит/сек
Каналы : 2 канала
Расположение каналов : Front: L R
Частота : 48,0 КГц
Метод сжатия : С потерями
Задержка видео : 83 мс.
Размер потока : 111 Мбайт (2%)
Язык : Russian
Дата кодирования : UTC 2013-09-10 11:14:03
Дата пометки : UTC 2013-09-10 16:57:47

Аудио #5
Идентификатор : 6
Формат : AAC
Формат/Информация : Advanced Audio Codec
Профиль формата : LC
Идентификатор кодека : 40
Продолжительность : 2 ч. 1 м.
Вид битрейта : Переменный
Битрейт : 128 Кбит/сек
Максимальный битрейт : 246 Кбит/сек
Каналы : 2 канала
Расположение каналов : Front: L R
Частота : 48,0 КГц
Метод сжатия : С потерями
Задержка видео : 83 мс.
Размер потока : 111 Мбайт (2%)
Язык : Russian
Дата кодирования : UTC 2013-09-10 11:14:03
Дата пометки : UTC 2013-09-10 16:57:47

Аудио #6
Идентификатор : 7
Формат : AAC
Формат/Информация : Advanced Audio Codec
Профиль формата : LC
Идентификатор кодека : 40
Продолжительность : 2 ч. 1 м.
Вид битрейта : Переменный
Битрейт : 128 Кбит/сек
Максимальный битрейт : 253 Кбит/сек
Каналы : 2 канала
Расположение каналов : Front: L R
Частота : 48,0 КГц
Метод сжатия : С потерями
Задержка видео : 83 мс.
Размер потока : 111 Мбайт (2%)
Язык : Russian
Дата кодирования : UTC 2013-09-10 11:14:03
Дата пометки : UTC 2013-09-10 16:57:47

Аудио #7
Идентификатор : 8
Формат : AAC
Формат/Информация : Advanced Audio Codec
Профиль формата : LC
Идентификатор кодека : 40
Продолжительность : 2 ч. 1 м.
Вид битрейта : Переменный
Битрейт : 128 Кбит/сек
Максимальный битрейт : 249 Кбит/сек
Каналы : 2 канала
Расположение каналов : Front: L R
Частота : 48,0 КГц
Метод сжатия : С потерями
Задержка видео : 83 мс.
Размер потока : 111 Мбайт (2%)
Язык : Russian
Дата кодирования : UTC 2013-09-10 11:14:03
Дата пометки : UTC 2013-09-10 16:57:47

Аудио #8
Идентификатор : 9
Формат : AAC
Формат/Информация : Advanced Audio Codec
Профиль формата : LC
Идентификатор кодека : 40
Продолжительность : 2 ч. 1 м.
Вид битрейта : Переменный
Битрейт : 128 Кбит/сек
Максимальный битрейт : 252 Кбит/сек
Каналы : 2 канала
Расположение каналов : Front: L R
Частота : 48,0 КГц
Метод сжатия : С потерями
Задержка видео : 83 мс.
Размер потока : 111 Мбайт (2%)
Язык : Russian
Дата кодирования : UTC 2013-09-10 11:14:03
Дата пометки : UTC 2013-09-10 16:57:47

Аудио #9
Идентификатор : 10
Формат : AAC
Формат/Информация : Advanced Audio Codec
Профиль формата : LC
Идентификатор кодека : 40
Продолжительность : 2 ч. 1 м.
Вид битрейта : Переменный
Битрейт : 128 Кбит/сек
Максимальный битрейт : 249 Кбит/сек
Каналы : 2 канала
Расположение каналов : Front: L R
Частота : 48,0 КГц
Метод сжатия : С потерями
Задержка видео : 83 мс.
Размер потока : 111 Мбайт (2%)
Язык : Russian
Дата кодирования : UTC 2013-09-10 11:14:03
Дата пометки : UTC 2013-09-10 16:57:47

Аудио #10
Идентификатор : 11
Формат : AAC
Формат/Информация : Advanced Audio Codec
Профиль формата : LC
Идентификатор кодека : 40
Продолжительность : 2 ч. 1 м.
Вид битрейта : Переменный
Битрейт : 128 Кбит/сек
Максимальный битрейт : 265 Кбит/сек
Каналы : 2 канала
Расположение каналов : Front: L R
Частота : 48,0 КГц
Метод сжатия : С потерями
Задержка видео : 83 мс.
Размер потока : 111 Мбайт (2%)
Язык : Ukrainian
Дата кодирования : UTC 2013-09-10 11:14:03
Дата пометки : UTC 2013-09-10 16:57:47

Аудио #11
Идентификатор : 12
Формат : AAC
Формат/Информация : Advanced Audio Codec
Профиль формата : LC
Идентификатор кодека : 40
Продолжительность : 2 ч. 1 м.
Вид битрейта : Переменный
Битрейт : 128 Кбит/сек
Максимальный битрейт : 250 Кбит/сек
Каналы : 2 канала
Расположение каналов : Front: L R
Частота : 48,0 КГц
Метод сжатия : С потерями
Задержка видео : 83 мс.
Размер потока : 111 Мбайт (2%)
Язык : English
Дата кодирования : UTC 2013-09-10 11:14:03
Дата пометки : UTC 2013-09-10 16:57:47

Текст
Идентификатор : 14
Формат : Apple text
Идентификатор кодека : text
Продолжительность : 2 ч. 1 м.
Вид битрейта : Переменный
Битрейт : 0 бит/сек
Задержка видео : 83 мс.
Размер потока : 399 байт (0%)
Дата кодирования : UTC 2013-09-10 19:25:31
Дата пометки : UTC 2013-09-10 19:25:31
x264 [info]: frame I:1008 Avg QP:15.80 size:108173
x264 [info]: frame P:33562 Avg QP:18.91 size: 39592
x264 [info]: frame B:140265 Avg QP:21.63 size: 14186
x264 [info]: consecutive B-frames: 1.2% 0.5% 2.7% 15.0% 18.2% 51.3% 7.0% 1.9% 1.3% 0.9%
x264 [info]: mb I I16..4: 13.1% 63.1% 23.8%
x264 [info]: mb P I16..4: 0.4% 10.2% 2.2% P16..4: 36.1% 25.1% 17.0% 2.6% 0.7% skip: 5.8%
x264 [info]: mb B I16..4: 0.0% 1.8% 0.2% B16..8: 47.4% 13.0% 3.7% direct: 8.4% skip:25.5% L0:44.5% L1:42.6% BI:12.9%
x264 [info]: 8x8 transform intra:80.8% inter:59.0%
x264 [info]: coded y,uvDC,uvAC intra: 97.9% 0.1% 0.1% inter: 39.1% 0.0% 0.0%
x264 [info]: i16 v,h,dc,p: 31% 8% 29% 32%
x264 [info]: i8 v,h,dc,ddl,ddr,vr,hd,vl,hu: 11% 9% 9% 9% 13% 13% 13% 11% 12%
x264 [info]: i4 v,h,dc,ddl,ddr,vr,hd,vl,hu: 11% 8% 3% 9% 15% 15% 14% 12% 13%
x264 [info]: i8c dc,h,v,p: 100% 0% 0% 0%
x264 [info]: Weighted P-Frames: Y:16.3% UV:0.1%
x264 [info]: ref P L0: 45.0% 14.2% 15.1% 8.3% 6.0% 4.6% 3.8% 2.5% 0.4% 0.0%
x264 [info]: ref B L0: 75.0% 10.5% 6.2% 3.1% 2.3% 1.9% 1.0%
x264 [info]: ref B L1: 92.0% 8.0%
x264 [info]: kb/s:3760.37
Media Type: Movie
Sort Name: Some Like It Hot
XID: Apple:vendor_id:1959-356
Content ID: 304010936
ScreenWriters: Билли Уайлдер, И.А.Л. Даймонд, Роберт Тёрен
Producers: Билли Уайлдер, И.А.Л. Даймонд, Доан Харрисон
Director: Билли Уайлдер
Cast: Мэрилин Монро, Тони Кертис, Джек Леммон, Джордж Рафт, Пэт О’Брайен, Джо Э. Браун, Нехемия Персофф, Джоан Шоули, Билли Грэй, Джордж Э. Стоун
Long Description: Когда чикагские музыканты Джо и Джерри случайно становятся свидетелями бандитской перестрелки, они в срочном порядке смываются на поезде во Флориду, прикинувшись женщинами. Теперь они — Джозефина и Дафна, новенькие и хорошенькие инструменталистки женского джаз — банда.
До поры до времени их маскировка срабатывает. Но вскоре любвеобильная солистка «западает» на переодетую мужчиной Джозефину, престарелый плейбой влюбляется в Дафну, а босс мафии, разгадав тайну маскарада, решает срочно разделаться со свидетелями…
Description: Когда чикагские музыканты Джо и Джерри случайно становятся свидетелями бандитской перестрелки, они в срочном порядке смываются на поезде во Флориду, прикинувшись женщинами.
Release Date: 1959-03-29T07:00:00Z
Genre: Comedy
Artist: Billy Wilder
Name: В джазе только девушки
Comments: «Marilyn Monroe and her bosom companions»
Скриншоты:

Время раздачи: 24/7
[NNM-Club.me]_Some Like It Hot.1959.BDRip.iPad.m4v.torrent
 Торрент: Платиновая раздача  Зарегистрирован
 
Скачать


Примагнититься
 Зарегистрирован:   10 Сен 2013 22:54:40
 Размер:   4,43 GB  (
 Рейтинг:   4,9 (Голосов: 44)
 Поблагодарили:   127
 Проверка:   Оформление проверено модератором 10 Сен 2013 23:17:22
Как cкачать  ·  Как раздать  ·  Правильно оформить  ·  Поднять ратио!  
pimimot
Стаж: 10 лет 2 мес.
Сообщений: 348
Ratio: 2,568
100%
Откуда: ottuda
afghanistan.gif
Вот бы ОРТ -шный фильм с бегающими ножницами, показывающими отрезанные интеллектуальной советской цензурой, куски.
Viki89
Стаж: 4 года 5 мес.
Сообщений: 49
Ratio: 73,956
Раздал: 506 GB
Поблагодарили: 13
100%
Откуда: Киев
ukraine.gif
pimimot писал(а): Перейти к сообщению
Вот бы ОРТ -шный фильм с бегающими ножницами, показывающими отрезанные интеллектуальной советской цензурой, куски.

+) однозначно лучший! И голос у Монро единственный нормальный на мой взгляд, а не какой-то прокуренной проститутки, как в последнем переводе :задумался:
Aviv_ua
Классик клуба
Стаж: 10 лет 8 мес.
Сообщений: 624
Ratio: 77,11
Раздал: 65,99 TB
Поблагодарили: 7509
100%
Откуда: Апольдо
germany.gif
Не первый раз смотрю, именно этот вариант - рекомендую. Можно найти подходящий вариант однозначно
Показать сообщения:   
Начать новую тему   Ответить на тему    Торрент-трекер NNM-Club -> Аудио и Видео -> Зарубежное видео для устройств Apple Часовой пояс: GMT + 3
Страница 1 из 1