Классический форум-трекер
canvas not supported
Нас вместе: 4 069 074

Веселые и беззаботные / Fun and Fancy Free (1947) BDRip [H.264/720p-LQ]


 
 
RSS
Начать новую тему   Ответить на тему    Торрент-трекер NNM-Club -> Архив торрентов -> Архив Мультфильмов
Автор Сообщение
starklad ®
RG Всё лучшее - детям!
Реставратор Детского, Uploader 100+
 
Стаж: 7 лет 3 мес.
Сообщений: 7900
Ratio: 11K
Поблагодарили: 196366
100%
Откуда: родом из СССР
ussr.gif
Веселые и беззаботные / Fun and Fancy Free (1947) BDRip [H.264/720p-LQ]
Год выпуска: 1947
Жанр: Мультфильм, семейный, музыка
Производство: США | Walt Disney Productions

Описание:
Две музыкальные истории, участниками которых являются персонажи студии «Дисней». Устав от переездов и плохого обращения,
цирковой медвежонок по имени Бонго сбегает в лес. Жизнь в дикой местности оказывается не так уж легка,
но смелый малыш находит самое главное — настоящую любовь. А далее Микки Маус, Дональд Дак и недотепа Гуфи
пускаются в захватывающие приключения, чтобы вернуть процветание обедневшему королевству

Режиссер: Джек Кинни, Гамильтон Ласки
Композитор: Элиот Дэниэл, Пол Дж. Смит, Оливер Уоллес

Премьера (мир): 27 сентября 1947
Релиз на DVD: 18 декабря 2008, «Синема Трейд»



Продолжительность: 01:12:59
Качество видео: BDRip 720p-LQ
Перевод: Дублированный (Невафильм), многоголосый закадровый

Видео: MPEG-4/H.264 AVC, 960x720 (4:3), 23.976 fps, 2 780 Kbps (0.168 bit/pixel)
Аудио #1: AC-3, 48.0 KHz, 6 ch, 384 Kbps, CBR (Русский, дубляж (Невафильм))
Аудио #2: AC-3, 48.0 KHz, 6 ch, 384 Kbps, CBR (Русский, многоголосый закадровый)
Аудио #3: DTS, 48.0 KHz, 6 ch, 1 510 Kbps, CBR (Английский, оригинал)
Complete name \Downloads\Fun.and.Fancy.Free.1947.BDRip720p.mkv
Format : Matroska
Format version : Version 2
File size : 2.57 GiB
Duration : 1h 12mn
Overall bit rate : 5 049 Kbps
Encoded date : UTC 2014-08-01 13:51:14
Writing application : mkvmerge v5.8.0 ('No Sleep / Pillow') built on Sep 2 2012 15:37:04
Writing library : libebml v1.2.3 + libmatroska v1.3.0

Video
ID : 1
Format : AVC
Format/Info : Advanced Video Codec
Format profile : High@L4.1
Format settings, CABAC : Yes
Format settings, ReFrames : 5 frames
Codec ID : V_MPEG4/ISO/AVC
Duration : 1h 12mn
Bit rate : 2 780 Kbps
Width : 960 pixels
Height : 720 pixels
Display aspect ratio : 4:3
Frame rate mode : Constant
Frame rate : 23.976 fps
Color space : YUV
Chroma subsampling : 4:2:0
Bit depth : 8 bits
Scan type : Progressive
Bits/(Pixel*Frame) : 0.168
Stream size : 1.36 GiB (53%)
Writing library : x264 core 142 r2409 d6b4e63
Encoding settings : cabac=1 / ref=5 / deblock=1:-1:-1 / analyse=0x3:0x113 / me=umh / subme=7 / psy=1 / psy_rd=1.00:0.00 / mixed_ref=1 / me_range=16 / chroma_me=1 / trellis=1 / 8x8dct=1 / cqm=0 / deadzone=21,11 / fast_pskip=1 / chroma_qp_offset=-2 / threads=12 / lookahead_threads=2 / sliced_threads=0 / nr=0 / decimate=1 / interlaced=0 / bluray_compat=0 / constrained_intra=0 / bframes=3 / b_pyramid=2 / b_adapt=2 / b_bias=0 / direct=3 / weightb=1 / open_gop=0 / weightp=2 / keyint=250 / keyint_min=23 / scenecut=40 / intra_refresh=0 / rc_lookahead=40 / rc=2pass / mbtree=1 / bitrate=2780 / ratetol=1.0 / qcomp=0.60 / qpmin=0 / qpmax=69 / qpstep=4 / cplxblur=20.0 / qblur=0.5 / vbv_maxrate=50000 / vbv_bufsize=50000 / nal_hrd=none / filler=0 / ip_ratio=1.40 / aq=1:1.00
Language : English
Default : Yes
Forced : No

Audio #1
ID : 2
Format : AC-3
Format/Info : Audio Coding 3
Mode extension : CM (complete main)
Format settings, Endianness : Big
Codec ID : A_AC3
Duration : 1h 12mn
Bit rate mode : Constant
Bit rate : 384 Kbps
Channel(s) : 6 channels
Channel positions : Front: L C R, Side: L R, LFE
Sampling rate : 48.0 KHz
Bit depth : 16 bits
Compression mode : Lossy
Delay relative to video : 16ms
Stream size : 200 MiB (8%)
Title : Дубляж (Невафильм)
Language : Russian
Default : Yes
Forced : No

Audio #2
ID : 3
Format : AC-3
Format/Info : Audio Coding 3
Mode extension : CM (complete main)
Format settings, Endianness : Big
Codec ID : A_AC3
Duration : 1h 12mn
Bit rate mode : Constant
Bit rate : 384 Kbps
Channel(s) : 6 channels
Channel positions : Front: L C R, Side: L R, LFE
Sampling rate : 48.0 KHz
Bit depth : 16 bits
Compression mode : Lossy
Delay relative to video : 16ms
Stream size : 200 MiB (8%)
Title : Многоголосый закадровый
Language : Russian
Default : No
Forced : No

Audio #3
ID : 4
Format : DTS
Format/Info : Digital Theater Systems
Mode : 16
Format settings, Endianness : Big
Codec ID : A_DTS
Duration : 1h 12mn
Bit rate mode : Constant
Bit rate : 1 509 Kbps
Channel(s) : 6 channels
Channel positions : Front: L C R, Side: L R, LFE
Sampling rate : 48.0 KHz
Bit depth : 24 bits
Compression mode : Lossy
Stream size : 788 MiB (30%)
Title : Оригинал
Language : English
Default : No
Forced : No
Скриншоты:


Все релизы Веселые и беззаботные / Fun and Fancy Free на NNM
Смотрите также другие мои раздачи
Время раздачи: С 08:00 до 23:00, до первых 10-ти скачавших, далее по возможности
[NNM-Club.me]_Fun.and.Fancy.Free.1947.BDRip720p.mkv.torrent
 Торрент: Платиновая раздача  Зарегистрирован
 
Скачать


Примагнититься
 Зарегистрирован:   01 Авг 2014 17:59:07
 Размер:   2,57 GB  (
 Рейтинг:   4,8 (Голосов: 37)
 Поблагодарили:   129
 Проверка:   Оформление проверено модератором 01 Авг 2014 22:11:31
Как cкачать  ·  Как раздать  ·  Правильно оформить  ·  Поднять ратио!  
Топик был перенесен из форума Зарубежные Мультфильмы (HD*Rip/LQ, DVDRip, SATRip, VHSRip) в форум Архив Мультфильмов

Причина переноса: https://nnm-club.me/forum/viewtopic.php?t=1272675

Исправил релиз - напиши ЛС denver7979, дав ссылку на релиз.
Если нет ответа 24 часа - нажми на кнопку "Обратить внимание модераторов".
Показать сообщения:   
Начать новую тему   Ответить на тему    Торрент-трекер NNM-Club -> Архив торрентов -> Архив Мультфильмов Часовой пояс: GMT + 3
Страница 1 из 1