Классический форум-трекер
canvas not supported
Нас вместе: 4 072 844

Кладбище домашних животных / Pet Sematary (1989) [1080p] BDRemux


 
 
RSS
Начать новую тему   Ответить на тему    Торрент-трекер NNM-Club -> Архив торрентов -> Архив Классики, Старого кино, Артхаус
Автор Сообщение
FILVOVAN ®
Релизер. Uploader 200+
 
Стаж: 11 лет 9 мес.
Сообщений: 3692
Ratio: 751,119
Раздал: 218,7 TB
Поблагодарили: 307263
100%
nnm-club.gif
Кладбище домашних животных / Pet Sematary (1989) BDRemux
Русское название: Кладбище домашних животных
Оригинальное название: Pet Sematary
Год выпуска: 1989
Жанр: Ужасы, Фэнтези, Триллер, Драма, Детектив

Описание фильма:
Доктор Луис Крид переезжает в маленький городок, где его семью ждет большой дом, а самого Луиса — скромная должность лечащего врача местного колледжа. Новая, просторная обитель четы Кридов расположена на краю густого, величественного леса. А в самом лесу — маленькое и мрачное кладбище, где местные жители хоронят своих домашних животных.

Несчастье приходит и в дом Кридов: кот Черч, домашний любимец, по нелепой случайности попадает под колеса грузовика. Гибель Черча повергает семью доктора в шок, и Луис решается на отчаянный шаг. Он хоронит кота на древнем, заброшенном индейском кладбище, обладающем, по легенде, таинственной воскрешающей силой. И однажды ночью погибший кот возвращается к хозяевам…


Режиссер: Мэри Ламберт
Актеры: Дэйл Мидкифф, Фред Гуинн, Дениз Кросби, Брэд Гринквист, Майкл Ломбард, Мико Хьюз, Блэйз Бердаль, Сьюзэн Бломмаерт, Мара Кларк, Кави Раз

Продолжительность: 01:42:45
Перевод: Многоголосый закадровый, Двухголосый закадровый, Авторский одноголосый закадровый
Язык субтитров: Русский, Английский


ВИДЕО:
Видеокодек: MPEG-4 AVC/H.264
Битрейт видео: ~31883 kbps
Размер кадра: 1920 х 1080
Качество видео: BDRemux
ЗВУК:
Аудио 1: Русский, AC3 5.1, 448 kbps, 48 kHz (DVO, R5)
Аудио 2: Русский, AC3 5.1, 448 kbps, 48 kHz (MVO, Киномания)
Аудио 3: Русский, AC3 2.0, 192 kbps, 48 kHz (MVO, Премьер Видео Фильм, VHS)
Аудио 4: Русский, DTS 5.1, 1510 kbps, 48 kHz (DVO, Гланц и Королева)
Аудио 5: Русский, DTS 5.1, 1510 kbps, 48 kHz (AVO, В.Горчаков)
Аудио 6: Русский, DTS 5.1, 1510 kbps, 48 kHz (AVO, А.Михалев)
Аудио 7: Русский, AC3 2.0, 192 kbps, 48 kHz (AVO, В.Дохалов)
Аудио 8: Английский, DTS-HD MA 5.1, 3923 kbps, 48 kHz (Оригинал)
Аудио 9: Английский, AC3 2.0, 224 kbps, 48 kHz (Комментарий)
Сэмпл: Ссылка

Общее
Уникальный идентификатор : 227512865361421777639842014997410430436 (0xAB29624EB1EB60CE98AFC48C836F3DE4)
Полное имя : D:\Films\Pet_Sematary.1989.1080p.BDRemux.mkv
Формат : Matroska
Версия формата : Version 2
Размер файла : 30,0 Гбайт
Продолжительность : 1 ч. 42 м.
Режим общего битрейта : Переменный
Общий поток : 41,8 Мбит/сек
Название фильма : Pet Sematary
Дата кодирования : UTC 2012-09-27 15:10:10
Программа кодирования : mkvmerge v5.2.0 ('I can't explain') built on Dec 18 2011 18:12:03
Библиотека кодирования : libebml v1.2.3 + libmatroska v1.3.0

Видео
Идентификатор : 1
Формат : AVC
Формат/Информация : Advanced Video Codec
Профиль формата : High@L4.1
Параметр CABAC формата : Да
Параметр ReFrames формата : 4 кадра
Идентификатор кодека : V_MPEG4/ISO/AVC
Продолжительность : 1 ч. 42 м.
Вид битрейта : Переменный
Битрейт : 33,4 Мбит/сек
Максимальный битрейт : 35,0 Мбит/сек
Ширина : 1920 пикселей
Высота : 1080 пикселей
Соотношение сторон : 16:9
Частота кадров : 23,976 кадра/сек
Цветовое пространство : YUV
Субдискретизация насыщенности : 4:2:0
Битовая глубина : 8 бит
Тип развёртки : Прогрессивная
Бит/(Пиксели*Кадры) : 0.671
Размер потока : 24,0 Гбайт (80%)
Язык : English
Default : Да
Forced : Нет

Аудио #1
Идентификатор : 2
Формат : AC-3
Формат/Информация : Audio Coding 3
Расширение режима : CM (complete main)
Параметр Endianness формата : Big
Идентификатор кодека : A_AC3
Продолжительность : 1 ч. 42 м.
Вид битрейта : Постоянный
Битрейт : 448 Кбит/сек
Каналы : 6 каналов
Расположение каналов : Front: L C R, Side: L R, LFE
Частота : 48,0 КГц
Битовая глубина : 16 бит
Метод сжатия : С потерями
Размер потока : 329 Мбайт (1%)
Заголовок : DVO R5
Язык : Russian
Default : Да
Forced : Нет

Аудио #2
Идентификатор : 3
Формат : AC-3
Формат/Информация : Audio Coding 3
Расширение режима : CM (complete main)
Параметр Endianness формата : Big
Идентификатор кодека : A_AC3
Продолжительность : 1 ч. 42 м.
Вид битрейта : Постоянный
Битрейт : 448 Кбит/сек
Каналы : 6 каналов
Расположение каналов : Front: L C R, Side: L R, LFE
Частота : 48,0 КГц
Битовая глубина : 16 бит
Метод сжатия : С потерями
Размер потока : 329 Мбайт (1%)
Заголовок : MVO Киномания
Язык : Russian
Default : Нет
Forced : Нет

Аудио #3
Идентификатор : 4
Формат : AC-3
Формат/Информация : Audio Coding 3
Расширение режима : CM (complete main)
Параметр Endianness формата : Big
Идентификатор кодека : A_AC3
Продолжительность : 1 ч. 42 м.
Вид битрейта : Постоянный
Битрейт : 192 Кбит/сек
Каналы : 2 канала
Расположение каналов : Front: L R
Частота : 48,0 КГц
Битовая глубина : 16 бит
Метод сжатия : С потерями
Размер потока : 141 Мбайт (0%)
Заголовок : MVO Премьер Видео Фильм VHS
Язык : Russian
Default : Нет
Forced : Нет

Аудио #4
Идентификатор : 5
Формат : DTS
Формат/Информация : Digital Theater Systems
Идентификатор кодека : A_DTS
Продолжительность : 1 ч. 42 м.
Вид битрейта : Постоянный
Битрейт : 1510 Кбит/сек
Каналы : 6 каналов
Расположение каналов : Front: L C R, Side: L R, LFE
Частота : 48,0 КГц
Битовая глубина : 24 бит
Метод сжатия : С потерями
Размер потока : 1,08 Гбайт (4%)
Заголовок : DVO Гланц и Королева
Язык : Russian
Default : Нет
Forced : Нет

Аудио #5
Идентификатор : 6
Формат : DTS
Формат/Информация : Digital Theater Systems
Идентификатор кодека : A_DTS
Продолжительность : 1 ч. 42 м.
Вид битрейта : Постоянный
Битрейт : 1510 Кбит/сек
Каналы : 6 каналов
Расположение каналов : Front: L C R, Side: L R, LFE
Частота : 48,0 КГц
Битовая глубина : 24 бит
Метод сжатия : С потерями
Размер потока : 1,08 Гбайт (4%)
Заголовок : AVO В.Горчаков
Язык : Russian
Default : Нет
Forced : Нет

Аудио #6
Идентификатор : 7
Формат : DTS
Формат/Информация : Digital Theater Systems
Идентификатор кодека : A_DTS
Продолжительность : 1 ч. 42 м.
Вид битрейта : Постоянный
Битрейт : 1510 Кбит/сек
Каналы : 6 каналов
Расположение каналов : Front: L C R, Side: L R, LFE
Частота : 48,0 КГц
Битовая глубина : 24 бит
Метод сжатия : С потерями
Размер потока : 1,08 Гбайт (4%)
Заголовок : AVO В.Михалев
Язык : Russian
Default : Нет
Forced : Нет

Аудио #7
Идентификатор : 8
Формат : AC-3
Формат/Информация : Audio Coding 3
Расширение режима : CM (complete main)
Параметр Endianness формата : Big
Идентификатор кодека : A_AC3
Продолжительность : 1 ч. 42 м.
Вид битрейта : Постоянный
Битрейт : 192 Кбит/сек
Каналы : 2 канала
Расположение каналов : Front: L R
Частота : 48,0 КГц
Битовая глубина : 16 бит
Метод сжатия : С потерями
Размер потока : 141 Мбайт (0%)
Заголовок : AVO В.Дохалов
Язык : Russian
Default : Нет
Forced : Нет

Аудио #8
Идентификатор : 9
Формат : DTS
Формат/Информация : Digital Theater Systems
Профиль формата : MA / Core
Идентификатор кодека : A_DTS
Продолжительность : 1 ч. 42 м.
Вид битрейта : Переменный
Битрейт : 1576 Кбит/сек / 1510 Кбит/сек
Каналы : 6 каналов
Расположение каналов : Front: L C R, Side: L R, LFE
Частота : 48,0 КГц
Битовая глубина : 24 бит
Метод сжатия : Без потерь / Lossy
Заголовок : Lossless
Язык : English
Default : Нет
Forced : Нет

Аудио #9
Идентификатор : 10
Формат : AC-3
Формат/Информация : Audio Coding 3
Расширение режима : CM (complete main)
Параметр Endianness формата : Big
Идентификатор кодека : A_AC3
Продолжительность : 1 ч. 42 м.
Вид битрейта : Постоянный
Битрейт : 224 Кбит/сек
Каналы : 2 канала
Расположение каналов : Front: L R
Частота : 48,0 КГц
Битовая глубина : 16 бит
Метод сжатия : С потерями
Размер потока : 165 Мбайт (1%)
Заголовок : Commentary
Язык : English
Default : Нет
Forced : Нет

Текст #1
Идентификатор : 11
Формат : UTF-8
Идентификатор кодека : S_TEXT/UTF8
Идентификатор кодека/Информация : UTF-8 Plain Text
Язык : Russian
Default : Нет
Forced : Нет

Текст #2
Идентификатор : 12
Формат : UTF-8
Идентификатор кодека : S_TEXT/UTF8
Идентификатор кодека/Информация : UTF-8 Plain Text
Язык : English
Default : Нет
Forced : Нет

Меню
00:00:00.000 : en:Chapter 00
00:03:04.184 : en:Chapter 01
00:09:57.888 : en:Chapter 02
00:17:25.127 : en:Chapter 03
00:25:07.255 : en:Chapter 04
00:33:45.940 : en:Chapter 05
00:40:50.531 : en:Chapter 06
00:44:18.697 : en:Chapter 07
00:47:38.522 : en:Chapter 08
00:53:32.542 : en:Chapter 09
01:00:08.938 : en:Chapter 10
01:09:11.939 : en:Chapter 11
01:16:45.100 : en:Chapter 12
01:21:37.976 : en:Chapter 13
01:26:33.062 : en:Chapter 14
01:28:28.469 : en:Chapter 15
01:30:20.248 : en:Chapter 16
01:35:37.898 : en:Chapter 17
01:39:35.594 : en:Chapter 18

Скриншоты:



Время раздачи: С 8:00 до 22:00 до 5 скачавших
[NNM-Club.ru]_Pet_Sematary.1989.1080p.BDRemux.mkv.torrent
 Торрент: Платиновая раздача  Зарегистрирован
 
Скачать


 Зарегистрирован:   27 Сен 2012 20:42:40
 Размер:   30 GB  (
 Рейтинг:   4,7 (Голосов: 33)
 Поблагодарили:   59
 Проверка:   Оформление проверено модератором 27 Сен 2012 22:23:34
Как cкачать  ·  Как раздать  ·  Правильно оформить  ·  Поднять ратио!  
alancor
Стаж: 7 лет 8 мес.
Сообщений: 434
Ratio: 388,278
100%
russia.gif
Хороший фильм, ностальгия по видеозалам. Спасибо.
Pioner2007
Стаж: 9 лет 2 мес.
Сообщений: 67
Ratio: 11,323
100%
Откуда: Нижний Новгород
russia.gif
Отличный фильм!!!FILVOVAN ®,спасибо огромное:)))
usan
 
Стаж: 9 лет 5 мес.
Сообщений: 1076
Ratio: 2,052
Поблагодарили: 1237
100%
ussr.gif
мега фильм
спасибо!
Sevenzen
Стаж: 9 лет 6 мес.
Сообщений: 12
Ratio: 5,043
100%
ukraine.gif
Посмотримс...
nightwelf
Стаж: 8 лет 8 мес.
Сообщений: 102
Ratio: 17,672
Поблагодарили: 686
100%
Книжку эту прочитал и забыл, посмотрим что будет с фильмом...
Топик был перенесен из форума Зарубежные Фильмы (HD) в форум Архив Мультфильмов

Причина переноса: Отсутствие раздающих > 1 месяца.
Dreemmer
efim222g
Стаж: 7 лет 5 мес.
Сообщений: 2
100%
Можно пожалуйста каким-то образом скачать данный фильм? Заранее спасибо!!!
Kalex
Администратор

Online
Стаж: 11 лет 8 мес.
Сообщений: 30916
Ratio: 37,647
Поблагодарили: 13282
100%
nnm-club.gif
efim222g
BDRemux, пожалуй, пока никак. Есть немного рипов, в т.ч. с сидами https://nnm-club.me/?q=Pet+Sematary+%281989%29&w=title

_________________
NNMClub и IPv6/Teredo
... если преступников недостаточно, их надо создавать. Кому нужна нация, состоящая сплошь из законопослушных граждан? Какая от нее польза? А вот издайте законы, которые нельзя ни соблюдать, ни проводить в жизнь, ни объективно трактовать, и вы получите нацию нарушителей, а значит, сможете заработать на преступлениях... /Айн Рэнд, «Атлант расправил плечи»/
Топик был перенесен из форума Архив Мультфильмов в форум Архив Классики, Старого кино, Артхаус



Исправил релиз - напиши ЛС denver7979, дав ссылку на релиз.
Если нет ответа 24 часа - нажми на кнопку "Обратить внимание модераторов".
Показать сообщения:   
Начать новую тему   Ответить на тему    Торрент-трекер NNM-Club -> Архив торрентов -> Архив Классики, Старого кино, Артхаус Часовой пояс: GMT + 3
Страница 1 из 1