Классический форум-трекер
canvas not supported
Нас вместе: 4 068 918

Supermax - Greatest Hits (2012) [FLAC|Lossless] <Rock, Pop-Rock>


 
 
RSS
Начать новую тему   Ответить на тему    Торрент-трекер NNM-Club -> Pop -> Зарубежная поп-музыка (Lossless)
Автор Сообщение
Doshik ®
Стаж: 8 лет 5 мес.
Сообщений: 1688
Ratio: 61,577
Поблагодарили: 91503
100%
barbados.gif
Supermax - Greatest Hits (2012)
Год: 2012
Жанр: Rock, Pop-Rock
Продолжительность: 02:38:08

Кодек: FLAC
Битрейт: Lossless
Тип рипа: (image+.cue) + log
Треклист:
01. Bango Bongo (5:44)
02. Lovemachine (7:42)
03. Be What You Are (2:54)
04. It Ain't Easy (4:18)
05. Fly With Me (4:04)
06. African Blood (4:28)
07. Camillo (4:02)
08. Electricity (remix) (5:37)
09. Reggaesizer (5:07)
10. Dance Dance Dance (3:44)
11. Lovemachine (remix) (5:24)
12. Tonight (4:09)
13. Just Before The Nightmare (4:36)
14. World Of Today (remix) (4:05)
15. Lovers Night (5:51)
16. World Of Tomorrow (5:00)
17. Today I Fall in Love Again (2:53)
Продолжительность – 01:19:37
Код: выделить все

Exact Audio Copy V1.0 beta 1 from 15. November 2010

EAC extraction logfile from 14. January 2012, 15:26

Supermax / Greatest Hits (CD1)

Used drive  : ATAPI   iHAP122   W   Adapter: 1  ID: 0

Read mode               : Secure
Utilize accurate stream : Yes
Defeat audio cache      : Yes
Make use of C2 pointers : No

Read offset correction                      : 6
Overread into Lead-In and Lead-Out          : No
Fill up missing offset samples with silence : Yes
Delete leading and trailing silent blocks   : No
Null samples used in CRC calculations       : Yes
Used interface                              : Native Win32 interface for Win NT & 2000

Used output format : Internal WAV Routines
Sample format      : 44.100 Hz; 16 Bit; Stereo

TOC of the extracted CD

     Track |   Start  |  Length  | Start sector | End sector
    ---------------------------------------------------------
        1  |  0:00.00 |  5:44.13 |         0    |    25812
        2  |  5:44.13 |  7:41.65 |     25813    |    60452
        3  | 13:26.03 |  2:53.54 |     60453    |    73481
        4  | 16:19.57 |  4:17.40 |     73482    |    92796
        5  | 20:37.22 |  4:04.09 |     92797    |   111105
        6  | 24:41.31 |  4:28.12 |    111106    |   131217
        7  | 29:09.43 |  4:02.35 |    131218    |   149402
        8  | 33:12.03 |  5:36.69 |    149403    |   174671
        9  | 38:48.72 |  5:06.62 |    174672    |   197683
       10  | 43:55.59 |  3:43.66 |    197684    |   214474
       11  | 47:39.50 |  5:23.56 |    214475    |   238755
       12  | 53:03.31 |  4:09.25 |    238756    |   257455
       13  | 57:12.56 |  4:35.66 |    257456    |   278146
       14  | 61:48.47 |  4:04.72 |    278147    |   296518
       15  | 65:53.44 |  5:50.58 |    296519    |   322826
       16  | 71:44.27 |  4:59.40 |    322827    |   345291
       17  | 76:43.67 |  2:53.04 |    345292    |   358270

Range status and errors

Selected range

     Filename C:\MusicBox\Supermax - Greatest Hits (CD1).wav

     Peak level 100.0 %
     Extraction speed 0.3 X
     Range quality 100.0 %
     Copy CRC D53B6879
     Copy OK

No errors occurred

End of status report
Код: выделить все

-----------------------

DON'T MODIFY THIS FILE

-----------------------

PERFORMER: auCDtect Task Manager, ver. 1.5.1RC4 build 1.5.1.5
Copyright (c) 2008-2010 y-soft. All rights reserved
http://y-soft.org

ANALYZER: auCDtect: CD records authenticity detector, version 0.8.2
Copyright (c) 2004 Oleg Berngardt. All rights reserved.
Copyright (c) 2004 Alexander Djourik. All rights reserved.

FILE: Supermax - Greatest Hits (CD1).flac
  Size: 564592163 Hash: 6E92AA948928CEC1560B77060582B268 Accuracy: -m8
  Conclusion: CDDA 100%
  Signature: 433B7ACC2E117F4B5944464BC1890A1869E6C6DF
 
Трек лист:
01. Nightgroove (long version) (5:48)
02. Shine On Me (3:54)
03. Vision (5:32)
04. Hollywood (4:02)
05. Tears (5:40)
06. Don't Stop The Music (3:49)
07. Ganja Generation (4:08)
08. Good Times (4:44)
09. I Want You (4:37)
10. Reggae Fever (3:41)
11. Something In My Heart (4:33)
12. It's A Long Way To Reach Heaven (4:21)
13. Love Is Deeper (3:52)
14. World Of Today (4:23)
15. Lovemachine (remix vers.2) (5:23)
16. It Ain'i Easy (remix) (5:22)
17. Scream Of A Butterfly (4:42)
Продолжительность – 01:18:31
Код: выделить все

Exact Audio Copy V1.0 beta 1 from 15. November 2010

EAC extraction logfile from 14. January 2012, 15:59

Supermax / Greatest Hits (CD2)

Used drive  : ATAPI   iHAP122   W   Adapter: 1  ID: 0

Read mode               : Secure
Utilize accurate stream : Yes
Defeat audio cache      : Yes
Make use of C2 pointers : No

Read offset correction                      : 6
Overread into Lead-In and Lead-Out          : No
Fill up missing offset samples with silence : Yes
Delete leading and trailing silent blocks   : No
Null samples used in CRC calculations       : Yes
Used interface                              : Native Win32 interface for Win NT & 2000

Used output format : Internal WAV Routines
Sample format      : 44.100 Hz; 16 Bit; Stereo

TOC of the extracted CD

     Track |   Start  |  Length  | Start sector | End sector
    ---------------------------------------------------------
        1  |  0:00.00 |  5:48.33 |         0    |    26132
        2  |  5:48.33 |  3:53.54 |     26133    |    43661
        3  |  9:42.12 |  5:31.65 |     43662    |    68551
        4  | 15:14.02 |  4:02.28 |     68552    |    86729
        5  | 19:16.30 |  5:39.65 |     86730    |   112219
        6  | 24:56.20 |  3:48.48 |    112220    |   129367
        7  | 28:44.68 |  4:08.34 |    129368    |   148001
        8  | 32:53.27 |  4:44.26 |    148002    |   169327
        9  | 37:37.53 |  4:37.06 |    169328    |   190108
       10  | 42:14.59 |  3:40.71 |    190109    |   206679
       11  | 45:55.55 |  4:33.03 |    206680    |   227157
       12  | 50:28.58 |  4:20.52 |    227158    |   246709
       13  | 54:49.35 |  3:51.41 |    246710    |   264075
       14  | 58:41.01 |  4:23.11 |    264076    |   283811
       15  | 63:04.12 |  5:22.72 |    283812    |   308033
       16  | 68:27.09 |  5:21.52 |    308034    |   332160
       17  | 73:48.61 |  4:42.31 |    332161    |   353341

Range status and errors

Selected range

     Filename C:\MusicBox\Supermax - Greatest Hits (CD2).wav

     Peak level 100.0 %
     Extraction speed 0.5 X
     Range quality 100.0 %
     Copy CRC 3E281F20
     Copy OK

No errors occurred

End of status report
 
Код: выделить все

-----------------------

DON'T MODIFY THIS FILE

-----------------------

PERFORMER: auCDtect Task Manager, ver. 1.5.1RC4 build 1.5.1.5
Copyright (c) 2008-2010 y-soft. All rights reserved
http://y-soft.org

ANALYZER: auCDtect: CD records authenticity detector, version 0.8.2
Copyright (c) 2004 Oleg Berngardt. All rights reserved.
Copyright (c) 2004 Alexander Djourik. All rights reserved.

FILE: Supermax - Greatest Hits (CD2).flac
  Size: 536872551 Hash: 4C75DA39BE2B82E1E0D28979FD84D7E0 Accuracy: -m8
  Conclusion: CDDA 99%
  Signature: FE19429FAB906A9EB8C9FA437A47858EB95D0439
Время раздачи: 09:00 - 24:00
[NNM-Club.me]_Supermax - Greatest Hits[nnm-club.ru].torrent
 Торрент: Платиновая раздача  Зарегистрирован
 
Скачать


Примагнититься
 Зарегистрирован:   22 Апр 2018 14:32:37
 Размер:   1,04 GB  (
 Рейтинг:   5 (Голосов: 52)
 Поблагодарили:   253
 Проверка:   Оформление проверено модератором 22 Апр 2018 14:38:23
Как cкачать  ·  Как раздать  ·  Правильно оформить  ·  Поднять ратио!  
wadimus
Стаж: 9 лет 11 мес.
Сообщений: 5480
Ratio: 7,767
Поблагодарили: 161
100%
Откуда: Красноярск
russia.gif
Курт Хауенштайн (Kurt Hauenstein) (14 января 1949 — 20 марта 2011)
спасибо тебе за музыку!

ЗЫ. настоящий мужик был ... австрияка, натуральный ариец и женат на черной .. в 80-ые года это было чревато ..
arko77
Стаж: 7 лет 2 мес.
Сообщений: 311
Ratio: 24,841
44.94%
Большое спасибо ... !!!
fyodyurij2008
Стаж: 7 лет 10 мес.
Сообщений: 14
Ratio: 0,313
100%
спасибо!
inforu
 
Стаж: 8 лет 8 мес.
Сообщений: 45
Ratio: 2,077
Поблагодарили: 344
100%
russia.gif
Порадовал .
Sarugy
 
Стаж: 6 лет 1 мес.
Сообщений: 258
Ratio: 20,171
100%
Откуда: РСО-Алания
russia.gif
Вспомним молодость!!!Сенкью-с!!!
yurok53
Стаж: 7 лет 4 мес.
Сообщений: 4
Ratio: 3,235
Раздал: 381 GB
100%
SUPER... да и MAX.... тоже !!! :лол:
маринасочи
Стаж: 5 лет 7 мес.
Сообщений: 1266
Ratio: 3,077
100%
шедевр однозначно-такого больше не будет-увы
iui
Стаж: 8 лет 10 мес.
Сообщений: 23
Ratio: 0,489
100%
russia.gif
спасибо круто !!!!!!!!!!!!!!
drakula6
Стаж: 7 лет 7 мес.
Сообщений: 221
Ratio: 23,454
100%
Откуда: София
bulgaria.gif
Вспомним молодость!Большое спасибо ... !!! :приветствую: :клево: :ура:
Показать сообщения:   
Начать новую тему   Ответить на тему    Торрент-трекер NNM-Club -> Pop -> Зарубежная поп-музыка (Lossless) Часовой пояс: GMT + 3
Страница 1 из 1